  0
SECTION
  2
HEADER
  9
$ACADVER
  1
AC1009
  9
$INSBASE
 10
0.0
 20
0.0
 30
0.0
  9
$EXTMIN
 10
0.142
 20
6.324
 30
-0.002
  9
$EXTMAX
 10
48.257
 20
32.665
 30
0.0
  9
$LIMMIN
 10
0.0
 20
0.0
  9
$LIMMAX
 10
12.0
 20
9.0
  9
$ORTHOMODE
 70
     1
  9
$REGENMODE
 70
     1
  9
$FILLMODE
 70
     1
  9
$QTEXTMODE
 70
     0
  9
$MIRRTEXT
 70
     1
  9
$DRAGMODE
 70
     2
  9
$LTSCALE
 40
1.0
  9
$OSMODE
 70
     0
  9
$ATTMODE
 70
     1
  9
$TEXTSIZE
 40
0.25
  9
$TRACEWID
 40
0.05
  9
$TEXTSTYLE
  7
DIM_S_5
  9
$CLAYER
  8
0
  9
$CELTYPE
  6
CONTINUOUS
  9
$CECOLOR
 62
   256
  9
$DIMSCALE
 40
1.0
  9
$DIMASZ
 40
0.375
  9
$DIMEXO
 40
0.25
  9
$DIMDLI
 40
0.063
  9
$DIMRND
 40
0.063
  9
$DIMDLE
 40
0.0
  9
$DIMEXE
 40
0.25
  9
$DIMTP
 40
0.0
  9
$DIMTM
 40
0.0
  9
$DIMTXT
 40
0.12
  9
$DIMCEN
 40
0.094
  9
$DIMTSZ
 40
0.0
  9
$DIMTOL
 70
     0
  9
$DIMLIM
 70
     0
  9
$DIMTIH
 70
     1
  9
$DIMTOH
 70
     1
  9
$DIMSE1
 70
     0
  9
$DIMSE2
 70
     0
  9
$DIMTAD
 70
     1
  9
$DIMZIN
 70
     0
  9
$DIMBLK
  1

  9
$DIMASO
 70
     1
  9
$DIMSHO
 70
     1
  9
$DIMPOST
  1
\X
  9
$DIMAPOST
  1
mm
  9
$DIMALT
 70
     1
  9
$DIMALTD
 70
     0
  9
$DIMALTF
 40
25.4
  9
$DIMLFAC
 40
1.0
  9
$DIMTOFL
 70
     0
  9
$DIMTVP
 40
0.0
  9
$DIMTIX
 70
     0
  9
$DIMSOXD
 70
     0
  9
$DIMSAH
 70
     0
  9
$DIMBLK1
  1

  9
$DIMBLK2
  1

  9
$DIMSTYLE
  2
DIM_S_7
  9
$DIMCLRD
 70
     0
  9
$DIMCLRE
 70
     0
  9
$DIMCLRT
 70
     0
  9
$DIMTFAC
 40
1.0
  9
$DIMGAP
 40
0.094
  9
$LUNITS
 70
     4
  9
$LUPREC
 70
     5
  9
$SKETCHINC
 40
0.1
  9
$FILLETRAD
 40
0.0
  9
$AUNITS
 70
     1
  9
$AUPREC
 70
     4
  9
$MENU
  1
.
  9
$ELEVATION
 40
0.0
  9
$PELEVATION
 40
0.0
  9
$THICKNESS
 40
0.0
  9
$LIMCHECK
 70
     0
  9
$BLIPMODE
 70
     0
  9
$CHAMFERA
 40
0.188
  9
$CHAMFERB
 40
0.078
  9
$SKPOLY
 70
     0
  9
$TDCREATE
 40
2451520.600976
  9
$TDUPDATE
 40
2451572.977253
  9
$TDINDWG
 40
0.515433
  9
$TDUSRTIMER
 40
0.515433
  9
$USRTIMER
 70
     1
  9
$ANGBASE
 50
0.0
  9
$ANGDIR
 70
     0
  9
$PDMODE
 70
    35
  9
$PDSIZE
 40
0.0
  9
$PLINEWID
 40
0.0
  9
$COORDS
 70
     1
  9
$SPLFRAME
 70
     0
  9
$SPLINETYPE
 70
     6
  9
$SPLINESEGS
 70
     8
  9
$ATTDIA
 70
     0
  9
$ATTREQ
 70
     1
  9
$HANDLING
 70
     1
  9
$HANDSEED
  5
9191
  9
$SURFTAB1
 70
     6
  9
$SURFTAB2
 70
     6
  9
$SURFTYPE
 70
     6
  9
$SURFU
 70
     6
  9
$SURFV
 70
     6
  9
$UCSNAME
  2

  9
$UCSORG
 10
0.0
 20
0.0
 30
0.0
  9
$UCSXDIR
 10
1.0
 20
0.0
 30
0.0
  9
$UCSYDIR
 10
0.0
 20
1.0
 30
0.0
  9
$PUCSNAME
  2

  9
$PUCSORG
 10
0.0
 20
0.0
 30
0.0
  9
$PUCSXDIR
 10
1.0
 20
0.0
 30
0.0
  9
$PUCSYDIR
 10
0.0
 20
1.0
 30
0.0
  9
$USERI1
 70
     0
  9
$USERI2
 70
     0
  9
$USERI3
 70
     0
  9
$USERI4
 70
     0
  9
$USERI5
 70
     0
  9
$USERR1
 40
0.0
  9
$USERR2
 40
0.0
  9
$USERR3
 40
0.0
  9
$USERR4
 40
0.0
  9
$USERR5
 40
0.0
  9
$WORLDVIEW
 70
     1
  9
$SHADEDGE
 70
     3
  9
$SHADEDIF
 70
    70
  9
$TILEMODE
 70
     1
  9
$MAXACTVP
 70
    48
  9
$PLIMCHECK
 70
     0
  9
$PEXTMIN
 10
1.000000E+020
 20
1.000000E+020
 30
1.000000E+020
  9
$PEXTMAX
 10
-1.000000E+020
 20
-1.000000E+020
 30
-1.000000E+020
  9
$PLIMMIN
 10
-0.959
 20
-0.313
  9
$PLIMMAX
 10
14.086
 20
11.313
  9
$UNITMODE
 70
     0
  9
$VISRETAIN
 70
     1
  9
$PLINEGEN
 70
     0
  9
$PSLTSCALE
 70
     1
  0
ENDSEC
  0
SECTION
  2
TABLES
  0
TABLE
  2
VPORT
 70
     2
  0
VPORT
  2
*ACTIVE
 70
     0
 10
0.0
 20
0.0
 11
1.0
 21
1.0
 12
24.199
 22
19.495
 13
0.0
 23
0.0
 14
1.0
 24
1.0
 15
0.0
 25
0.0
 16
0.0
 26
0.0
 36
1.0
 17
0.0
 27
0.0
 37
0.0
 40
32.0
 41
1.511
 42
50.0
 43
0.0
 44
0.0
 50
0.0
 51
0.0
 71
     0
 72
  5000
 73
     1
 74
     1
 75
     0
 76
     0
 77
     0
 78
     0
  0
ENDTAB
  0
TABLE
  2
LTYPE
 70
     2
  0
LTYPE
  2
CONTINUOUS
 70
     0
  3
Solid line
 72
    65
 73
     0
 40
0.0
  0
LTYPE
  2
CENTER2
 70
     0
  3
Center (.5x) ___ _ ___ _ ___ _ ___ _ ___ _ ___
 72
    65
 73
     4
 40
1.125
 49
0.75
 49
-0.125
 49
0.125
 49
-0.125
  0
ENDTAB
  0
TABLE
  2
LAYER
 70
     6
  0
LAYER
  2
0
 70
     0
 62
     7
  6
CONTINUOUS
  0
LAYER
  2
DEFPOINTS
 70
     0
 62
     7
  6
CONTINUOUS
  0
LAYER
  2
DETAIL
 70
     0
 62
     4
  6
CONTINUOUS
  0
LAYER
  2
DIM
 70
     0
 62
     1
  6
CONTINUOUS
  0
LAYER
  2
TEXT
 70
     0
 62
     2
  6
CONTINUOUS
  0
LAYER
  2
BORDER
 70
     0
 62
     7
  6
CONTINUOUS
  0
ENDTAB
  0
TABLE
  2
STYLE
 70
     3
  0
STYLE
  2
STANDARD
 70
     0
 40
0.0
 41
1.0
 50
0.0
 71
     0
 42
0.2
  3
txt
  4

  0
STYLE
  2
DIM_S_5
 70
     0
 40
0.25
 41
1.0
 50
0.0
 71
     0
 42
0.25
  3
simplex.shx
  4

  0
STYLE
  2
ARIAL_5
 70
     0
 40
5.0
 41
1.0
 50
0.0
 71
     0
 42
3.0
  3
txt
  4

  0
ENDTAB
  0
TABLE
  2
VIEW
 70
     0
  0
ENDTAB
  0
TABLE
  2
UCS
 70
     0
  0
ENDTAB
  0
TABLE
  2
APPID
 70
     6
  0
APPID
  2
ACAD
 70
     0
  0
APPID
  2
ADE
 70
     0
  0
APPID
  2
CONTENTBLOCKICON
 70
     0
  0
APPID
  2
ADCADD_ZZ
 70
     0
  0
APPID
  2
SDSK_PMN
 70
     0
  0
APPID
  2
AEC_ROUNDTRIP_15
 70
     0
  0
ENDTAB
  0
TABLE
  2
DIMSTYLE
 70
     2
  0
DIMSTYLE
  2
STANDARD
 70
     0
  3

  4

  5

  6

  7

 40
1.0
 41
0.18
 42
0.063
 43
0.38
 44
0.18
 45
0.0
 46
0.0
 47
0.0
 48
0.0
140
0.18
141
0.09
142
0.0
143
25.4
144
1.0
145
0.0
146
1.0
147
0.09
 71
     0
 72
     0
 73
     1
 74
     1
 75
     0
 76
     0
 77
     0
 78
     0
170
     0
171
     2
172
     0
173
     0
174
     0
175
     0
176
     0
177
     0
178
     0
  0
DIMSTYLE
  2
DIM_S_7
 70
     0
  3
\X
  4
mm
  5

  6

  7

 40
1.0
 41
0.375
 42
0.25
 43
0.063
 44
0.25
 45
0.063
 46
0.0
 47
0.0
 48
0.0
140
0.12
141
0.094
142
0.0
143
25.4
144
1.0
145
0.0
146
1.0
147
0.094
 71
     0
 72
     0
 73
     1
 74
     1
 75
     0
 76
     0
 77
     1
 78
     0
170
     1
171
     0
172
     0
173
     0
174
     0
175
     0
176
     0
177
     0
178
     0
  0
ENDTAB
  0
ENDSEC
  0
SECTION
  2
BLOCKS
  0
BLOCK
  8
0
  2
$MODEL_SPACE
 70
     0
 10
0.0
 20
0.0
 30
0.0
  3
$MODEL_SPACE
  1

  0
ENDBLK
  5
20
  8
0
  0
BLOCK
 67
     1
  8
0
  2
$PAPER_SPACE
 70
     0
 10
0.0
 20
0.0
 30
0.0
  3
$PAPER_SPACE
  1

  0
ENDBLK
  5
1C
 67
     1
  8
0
  0
BLOCK
  8
0
  2
ADCADD_ZZ
 70
     0
 10
0.0
 20
0.0
 30
0.0
  3
ADCADD_ZZ
  1

  0
ENDBLK
  5
283F
  8
0
  0
BLOCK
  8
0
  2
TBLK_TX
 70
     2
 10
0.0
 20
0.0
 30
0.0
  3
TBLK_TX
  1

  0
ATTDEF
  5
2C84
  8
0
 10
-34.978
 20
0.0
 30
0.0
 40
5.0
  1
BOBRICK TITLE ____
  7
ARIAL_5
 72
     1
 11
0.0
 21
0.0
 31
0.0
  3
What is the Title?
  2
TITLE
 70
     0
  0
ATTDEF
  5
2C85
  8
0
 10
-20.767
 20
-7.298
 30
0.0
 40
5.0
  1
B-0000.DWG
  7
ARIAL_5
 72
     1
 11
0.0
 21
-7.298
 31
0.0
  3
What is Drawing Name?
  2
DWG_NAME
 70
     0
  0
ENDBLK
  5
2C87
  8
0
  0
BLOCK
  8
0
  2
*D2
 70
     1
 10
0.0
 20
0.0
 30
0.0
  3
*D2
  1

  0
LINE
  5
8DA8
  8
0
  6
BYBLOCK
 62
     0
 10
37.219
 20
39.238
 30
0.0
 11
37.219
 21
41.543
 31
0.0
  0
LINE
  5
8DA9
  8
0
  6
BYBLOCK
 62
     0
 10
45.219
 20
39.238
 30
0.0
 11
45.219
 21
41.543
 31
0.0
  0
LINE
  5
8DAA
  8
0
  6
BYBLOCK
 62
     0
 10
37.594
 20
41.293
 30
0.0
 11
40.28
 21
41.293
 31
0.0
  0
LINE
  5
8DAB
  8
0
  6
BYBLOCK
 62
     0
 10
44.844
 20
41.293
 30
0.0
 11
42.158
 21
41.293
 31
0.0
  0
TEXT
  8
0
  40
0.25
  5
8E29
  62
0
  72
0
  71
0
 10
40.7190
 20
40.8845
 30
0.000000
  1
8"
  7
DIM_S_5
  0
TEXT
  8
0
  40
0.25
  5
8E2A
  62
0
  72
0
  71
0
 10
40.7190
 20
40.5595
 30
0.000000
  1
[205mm]
  7
DIM_S_5
  0
SOLID
  5
8DAD
  8
0
  6
BYBLOCK
 62
     0
 10
37.594
 20
41.356
 30
0.0
 11
37.594
 21
41.231
 31
0.0
 12
37.219
 22
41.293
 32
0.0
 13
37.219
 23
41.293
 33
0.0
  0
SOLID
  5
8DAE
  8
0
  6
BYBLOCK
 62
     0
 10
44.844
 20
41.356
 30
0.0
 11
44.844
 21
41.231
 31
0.0
 12
45.219
 22
41.293
 32
0.0
 13
45.219
 23
41.293
 33
0.0
  0
POINT
  5
8DAF
  8
DEFPOINTS
  6
BYBLOCK
 62
     0
 10
37.219
 20
38.988
 30
0.0
  0
POINT
  5
8DB0
  8
DEFPOINTS
  6
BYBLOCK
 62
     0
 10
45.219
 20
38.988
 30
0.0
  0
POINT
  5
8DB1
  8
DEFPOINTS
  6
BYBLOCK
 62
     0
 10
45.219
 20
41.293
 30
0.0
  0
ENDBLK
  5
8DB2
  8
0
  0
BLOCK
  8
0
  2
*D3
 70
     1
 10
0.0
 20
0.0
 30
0.0
  3
*D3
  1

  0
LINE
  5
8D95
  8
0
  6
BYBLOCK
 62
     0
 10
4.245
 20
39.238
 30
0.0
 11
4.245
 21
41.178
 31
0.0
  0
LINE
  5
8D96
  8
0
  6
BYBLOCK
 62
     0
 10
6.495
 20
40.44
 30
0.0
 11
6.495
 21
41.178
 31
0.0
  0
LINE
  5
8D97
  8
0
  6
BYBLOCK
 62
     0
 10
4.62
 20
40.928
 30
0.0
 11
4.713
 21
40.928
 31
0.0
  0
LINE
  5
8D98
  8
0
  6
BYBLOCK
 62
     0
 10
6.12
 20
40.928
 30
0.0
 11
6.026
 21
40.928
 31
0.0
  0
TEXT
  8
0
  40
0.25
  5
8E2B
  62
0
  72
0
  71
0
 10
4.87000
 20
40.4855
 30
0.000000
  1
2-1/4"
  7
DIM_S_5
  0
TEXT
  8
0
  40
0.25
  5
8E2C
  62
0
  72
0
  71
0
 10
4.87000
 20
40.1605
 30
0.000000
  1
[55mm]
  7
DIM_S_5
  0
SOLID
  5
8D9A
  8
0
  6
BYBLOCK
 62
     0
 10
4.62
 20
40.991
 30
0.0
 11
4.62
 21
40.866
 31
0.0
 12
4.245
 22
40.928
 32
0.0
 13
4.245
 23
40.928
 33
0.0
  0
SOLID
  5
8D9B
  8
0
  6
BYBLOCK
 62
     0
 10
6.12
 20
40.991
 30
0.0
 11
6.12
 21
40.866
 31
0.0
 12
6.495
 22
40.928
 32
0.0
 13
6.495
 23
40.928
 33
0.0
  0
POINT
  5
8D9C
  8
DEFPOINTS
  6
BYBLOCK
 62
     0
 10
4.245
 20
38.988
 30
0.0
  0
POINT
  5
8D9D
  8
DEFPOINTS
  6
BYBLOCK
 62
     0
 10
6.495
 20
40.19
 30
0.0
  0
POINT
  5
8D9E
  8
DEFPOINTS
  6
BYBLOCK
 62
     0
 10
6.495
 20
40.928
 30
0.0
  0
ENDBLK
  5
8D9F
  8
0
  0
BLOCK
  8
0
  2
*D4
 70
     1
 10
0.0
 20
0.0
 30
0.0
  3
*D4
  1

  0
LINE
  5
8D89
  8
0
  6
BYBLOCK
 62
     0
 10
6.495
 20
40.44
 30
0.0
 11
6.495
 21
41.178
 31
0.0
  0
LINE
  5
8D8A
  8
0
  6
BYBLOCK
 62
     0
 10
19.245
 20
39.954
 30
0.0
 11
19.245
 21
41.178
 31
0.0
  0
LINE
  5
8D8B
  8
0
  6
BYBLOCK
 62
     0
 10
6.87
 20
40.928
 30
0.0
 11
11.46
 21
40.928
 31
0.0
  0
LINE
  5
8D8C
  8
0
  6
BYBLOCK
 62
     0
 10
18.87
 20
40.928
 30
0.0
 11
14.279
 21
40.928
 31
0.0
  0
TEXT
  8
0
  40
0.25
  5
8E2D
  62
0
  72
0
  71
0
 10
12.3700
 20
40.4855
 30
0.000000
  1
X
  7
DIM_S_5
  0
TEXT
  8
0
  40
0.25
  5
8E2E
  62
0
  72
0
  71
0
 10
12.3700
 20
40.1605
 30
0.000000
  1
Overall Length
  7
DIM_S_5
  0
SOLID
  5
8D8E
  8
0
  6
BYBLOCK
 62
     0
 10
6.87
 20
40.991
 30
0.0
 11
6.87
 21
40.866
 31
0.0
 12
6.495
 22
40.928
 32
0.0
 13
6.495
 23
40.928
 33
0.0
  0
SOLID
  5
8D8F
  8
0
  6
BYBLOCK
 62
     0
 10
18.87
 20
40.991
 30
0.0
 11
18.87
 21
40.866
 31
0.0
 12
19.245
 22
40.928
 32
0.0
 13
19.245
 23
40.928
 33
0.0
  0
POINT
  5
8D90
  8
DEFPOINTS
  6
BYBLOCK
 62
     0
 10
6.495
 20
40.19
 30
0.0
  0
POINT
  5
8D91
  8
DEFPOINTS
  6
BYBLOCK
 62
     0
 10
19.245
 20
39.704
 30
0.0
  0
POINT
  5
8D92
  8
DEFPOINTS
  6
BYBLOCK
 62
     0
 10
19.245
 20
40.928
 30
0.0
  0
ENDBLK
  5
8D93
  8
0
  0
BLOCK
  8
0
  2
*D5
 70
     1
 10
0.0
 20
0.0
 30
0.0
  3
*D5
  1

  0
LINE
  5
8D11
  8
0
  6
BYBLOCK
 62
     0
 10
4.12
 20
39.113
 30
0.0
 11
2.543
 21
39.113
 31
0.0
  0
LINE
  5
8D12
  8
0
  6
BYBLOCK
 62
     0
 10
4.12
 20
37.613
 30
0.0
 11
2.543
 21
37.613
 31
0.0
  0
LINE
  5
8D13
  8
0
  6
BYBLOCK
 62
     0
 10
2.793
 20
39.488
 30
0.0
 11
2.793
 21
39.863
 31
0.0
  0
LINE
  5
8D14
  8
0
  6
BYBLOCK
 62
     0
 10
2.793
 20
37.238
 30
0.0
 11
2.793
 21
36.863
 31
0.0
  0
SOLID
  5
8D15
  8
0
  6
BYBLOCK
 62
     0
 10
2.73
 20
39.488
 30
0.0
 11
2.855
 21
39.488
 31
0.0
 12
2.793
 22
39.113
 32
0.0
 13
2.793
 23
39.113
 33
0.0
  0
SOLID
  5
8D16
  8
0
  6
BYBLOCK
 62
     0
 10
2.73
 20
37.238
 30
0.0
 11
2.855
 21
37.238
 31
0.0
 12
2.793
 22
37.613
 32
0.0
 13
2.793
 23
37.613
 33
0.0
  0
TEXT
  8
0
  40
0.25
  5
8E2F
  62
0
  72
0
  71
0
 10
2.29300
 20
37.9205
 30
0.000000
  1
1-1/2"
  7
DIM_S_5
  0
TEXT
  8
0
  40
0.25
  5
8E30
  62
0
  72
0
  71
0
 10
2.29300
 20
37.5955
 30
0.000000
  1
[40mm]
  7
DIM_S_5
  0
POINT
  5
8D18
  8
DEFPOINTS
  6
BYBLOCK
 62
     0
 10
4.37
 20
39.113
 30
0.0
  0
POINT
  5
8D19
  8
DEFPOINTS
  6
BYBLOCK
 62
     0
 10
4.37
 20
37.613
 30
0.0
  0
POINT
  5
8D1A
  8
DEFPOINTS
  6
BYBLOCK
 62
     0
 10
2.793
 20
37.613
 30
0.0
  0
ENDBLK
  5
8D1B
  8
0
  0
BLOCK
  8
0
  2
*D6
 70
     1
 10
0.0
 20
0.0
 30
0.0
  3
*D6
  1

  0
LINE
  5
8DC1
  8
0
  6
BYBLOCK
 62
     0
 10
2.321
 20
28.379
 30
0.0
 11
2.321
 21
21.972
 31
0.0
  0
LINE
  5
8DC2
  8
0
  6
BYBLOCK
 62
     0
 10
8.821
 20
22.812
 30
0.0
 11
8.821
 21
21.972
 31
0.0
  0
LINE
  5
8DC3
  8
0
  6
BYBLOCK
 62
     0
 10
2.696
 20
22.222
 30
0.0
 11
5.382
 21
22.222
 31
0.0
  0
LINE
  5
8DC4
  8
0
  6
BYBLOCK
 62
     0
 10
8.446
 20
22.222
 30
0.0
 11
5.76
 21
22.222
 31
0.0
  0
TEXT
  8
0
  40
0.25
  5
8E31
  62
0
  72
0
  71
0
 10
5.07100
 20
21.8325
 30
0.000000
  1
A
  7
DIM_S_5
  0
SOLID
  5
8DC6
  8
0
  6
BYBLOCK
 62
     0
 10
2.696
 20
22.285
 30
0.0
 11
2.696
 21
22.16
 31
0.0
 12
2.321
 22
22.222
 32
0.0
 13
2.321
 23
22.222
 33
0.0
  0
SOLID
  5
8DC7
  8
0
  6
BYBLOCK
 62
     0
 10
8.446
 20
22.285
 30
0.0
 11
8.446
 21
22.16
 31
0.0
 12
8.821
 22
22.222
 32
0.0
 13
8.821
 23
22.222
 33
0.0
  0
POINT
  5
8DC8
  8
DEFPOINTS
  6
BYBLOCK
 62
     0
 10
2.321
 20
28.629
 30
0.0
  0
POINT
  5
8DC9
  8
DEFPOINTS
  6
BYBLOCK
 62
     0
 10
8.821
 20
23.062
 30
0.0
  0
POINT
  5
8DCA
  8
DEFPOINTS
  6
BYBLOCK
 62
     0
 10
8.821
 20
22.222
 30
0.0
  0
ENDBLK
  5
8DCB
  8
0
  0
BLOCK
  8
0
  2
*D7
 70
     1
 10
0.0
 20
0.0
 30
0.0
  3
*D7
  1

  0
LINE
  5
8DCE
  8
0
  6
BYBLOCK
 62
     0
 10
8.821
 20
22.812
 30
0.0
 11
8.821
 21
21.972
 31
0.0
  0
LINE
  5
8DCF
  8
0
  6
BYBLOCK
 62
     0
 10
25.821
 20
22.787
 30
0.0
 11
25.821
 21
21.972
 31
0.0
  0
LINE
  5
8DD0
  8
0
  6
BYBLOCK
 62
     0
 10
9.196
 20
22.222
 30
0.0
 11
17.144
 21
22.222
 31
0.0
  0
LINE
  5
8DD1
  8
0
  6
BYBLOCK
 62
     0
 10
25.446
 20
22.222
 30
0.0
 11
17.498
 21
22.222
 31
0.0
  0
TEXT
  8
0
  40
0.25
  5
8E32
  62
0
  72
0
  71
0
 10
16.8210
 20
21.7925
 30
0.000000
  1
B
  7
DIM_S_5
  0
SOLID
  5
8DD3
  8
0
  6
BYBLOCK
 62
     0
 10
9.196
 20
22.285
 30
0.0
 11
9.196
 21
22.16
 31
0.0
 12
8.821
 22
22.222
 32
0.0
 13
8.821
 23
22.222
 33
0.0
  0
SOLID
  5
8DD4
  8
0
  6
BYBLOCK
 62
     0
 10
25.446
 20
22.285
 30
0.0
 11
25.446
 21
22.16
 31
0.0
 12
25.821
 22
22.222
 32
0.0
 13
25.821
 23
22.222
 33
0.0
  0
POINT
  5
8DD5
  8
DEFPOINTS
  6
BYBLOCK
 62
     0
 10
8.821
 20
23.062
 30
0.0
  0
POINT
  5
8DD6
  8
DEFPOINTS
  6
BYBLOCK
 62
     0
 10
25.821
 20
23.037
 30
0.0
  0
POINT
  5
8DD7
  8
DEFPOINTS
  6
BYBLOCK
 62
     0
 10
25.821
 20
22.222
 30
0.0
  0
ENDBLK
  5
8DD8
  8
0
  0
BLOCK
  8
0
  2
*D8
 70
     1
 10
0.0
 20
0.0
 30
0.0
  3
*D8
  1

  0
LINE
  5
8DE7
  8
0
  6
BYBLOCK
 62
     0
 10
43.42
 20
30.004
 30
0.0
 11
45.445
 21
30.004
 31
0.0
  0
LINE
  5
8DE8
  8
0
  6
BYBLOCK
 62
     0
 10
44.273
 20
28.004
 30
0.0
 11
45.445
 21
28.004
 31
0.0
  0
LINE
  5
8DE9
  8
0
  6
BYBLOCK
 62
     0
 10
45.195
 20
29.629
 30
0.0
 11
45.195
 21
29.52
 31
0.0
  0
LINE
  5
8DEA
  8
0
  6
BYBLOCK
 62
     0
 10
45.195
 20
28.379
 30
0.0
 11
45.195
 21
28.487
 31
0.0
  0
SOLID
  5
8DEB
  8
0
  6
BYBLOCK
 62
     0
 10
45.132
 20
29.629
 30
0.0
 11
45.257
 21
29.629
 31
0.0
 12
45.195
 22
30.004
 32
0.0
 13
45.195
 23
30.004
 33
0.0
  0
SOLID
  5
8DEC
  8
0
  6
BYBLOCK
 62
     0
 10
45.132
 20
28.379
 30
0.0
 11
45.257
 21
28.379
 31
0.0
 12
45.195
 22
28.004
 32
0.0
 13
45.195
 23
28.004
 33
0.0
  0
TEXT
  8
0
  40
0.25
  5
8E33
  62
0
  72
0
  71
0
 10
44.6950
 20
28.5615
 30
0.000000
  1
2"
  7
DIM_S_5
  0
TEXT
  8
0
  40
0.25
  5
8E34
  62
0
  72
0
  71
0
 10
44.6950
 20
28.2365
 30
0.000000
  1
[50mm]
  7
DIM_S_5
  0
POINT
  5
8DEE
  8
DEFPOINTS
  6
BYBLOCK
 62
     0
 10
43.17
 20
30.004
 30
0.0
  0
POINT
  5
8DEF
  8
DEFPOINTS
  6
BYBLOCK
 62
     0
 10
44.023
 20
28.004
 30
0.0
  0
POINT
  5
8DF0
  8
DEFPOINTS
  6
BYBLOCK
 62
     0
 10
45.195
 20
28.004
 30
0.0
  0
ENDBLK
  5
8DF1
  8
0
  0
BLOCK
  8
0
  2
*D9
 70
     1
 10
0.0
 20
0.0
 30
0.0
  3
*D9
  1

  0
LINE
  5
8DF3
  8
0
  6
BYBLOCK
 62
     0
 10
44.273
 20
28.004
 30
0.0
 11
45.445
 21
28.004
 31
0.0
  0
LINE
  5
8DF4
  8
0
  6
BYBLOCK
 62
     0
 10
44.267
 20
25.004
 30
0.0
 11
45.445
 21
25.004
 31
0.0
  0
LINE
  5
8DF5
  8
0
  6
BYBLOCK
 62
     0
 10
45.195
 20
27.629
 30
0.0
 11
45.195
 21
27.02
 31
0.0
  0
LINE
  5
8DF6
  8
0
  6
BYBLOCK
 62
     0
 10
45.195
 20
25.379
 30
0.0
 11
45.195
 21
25.987
 31
0.0
  0
SOLID
  5
8DF7
  8
0
  6
BYBLOCK
 62
     0
 10
45.132
 20
27.629
 30
0.0
 11
45.257
 21
27.629
 31
0.0
 12
45.195
 22
28.004
 32
0.0
 13
45.195
 23
28.004
 33
0.0
  0
SOLID
  5
8DF8
  8
0
  6
BYBLOCK
 62
     0
 10
45.132
 20
25.379
 30
0.0
 11
45.257
 21
25.379
 31
0.0
 12
45.195
 22
25.004
 32
0.0
 13
45.195
 23
25.004
 33
0.0
  0
TEXT
  8
0
  40
0.25
  5
8E35
  62
0
  72
0
  71
0
 10
44.6950
 20
26.0615
 30
0.000000
  1
3"
  7
DIM_S_5
  0
TEXT
  8
0
  40
0.25
  5
8E36
  62
0
  72
0
  71
0
 10
44.6950
 20
25.7365
 30
0.000000
  1
[75mm]
  7
DIM_S_5
  0
POINT
  5
8DFA
  8
DEFPOINTS
  6
BYBLOCK
 62
     0
 10
44.023
 20
28.004
 30
0.0
  0
POINT
  5
8DFB
  8
DEFPOINTS
  6
BYBLOCK
 62
     0
 10
44.017
 20
25.004
 30
0.0
  0
POINT
  5
8DFC
  8
DEFPOINTS
  6
BYBLOCK
 62
     0
 10
45.195
 20
25.004
 30
0.0
  0
ENDBLK
  5
8DFD
  8
0
  0
BLOCK
  8
0
  2
*D10
 70
     1
 10
0.0
 20
0.0
 30
0.0
  3
*D10
  1

  0
LINE
  5
8D4C
  8
0
  6
BYBLOCK
 62
     0
 10
45.344
 20
39.113
 30
0.0
 11
49.607
 21
39.113
 31
0.0
  0
LINE
  5
8D4D
  8
0
  6
BYBLOCK
 62
     0
 10
45.469
 20
33.113
 30
0.0
 11
49.607
 21
33.113
 31
0.0
  0
LINE
  5
8D4E
  8
0
  6
BYBLOCK
 62
     0
 10
49.357
 20
38.738
 30
0.0
 11
49.357
 21
36.629
 31
0.0
  0
LINE
  5
8D4F
  8
0
  6
BYBLOCK
 62
     0
 10
49.357
 20
33.488
 30
0.0
 11
49.357
 21
35.596
 31
0.0
  0
SOLID
  5
8D50
  8
0
  6
BYBLOCK
 62
     0
 10
49.295
 20
38.738
 30
0.0
 11
49.42
 21
38.738
 31
0.0
 12
49.357
 22
39.113
 32
0.0
 13
49.357
 23
39.113
 33
0.0
  0
SOLID
  5
8D51
  8
0
  6
BYBLOCK
 62
     0
 10
49.295
 20
33.488
 30
0.0
 11
49.42
 21
33.488
 31
0.0
 12
49.357
 22
33.113
 32
0.0
 13
49.357
 23
33.113
 33
0.0
  0
TEXT
  8
0
  40
0.25
  5
8E37
  62
0
  72
0
  71
0
 10
48.8570
 20
35.6705
 30
0.000000
  1
6"
  7
DIM_S_5
  0
TEXT
  8
0
  40
0.25
  5
8E38
  62
0
  72
0
  71
0
 10
48.8570
 20
35.3455
 30
0.000000
  1
[150mm]
  7
DIM_S_5
  0
POINT
  5
8D53
  8
DEFPOINTS
  6
BYBLOCK
 62
     0
 10
45.094
 20
39.113
 30
0.0
  0
POINT
  5
8D54
  8
DEFPOINTS
  6
BYBLOCK
 62
     0
 10
45.219
 20
33.113
 30
0.0
  0
POINT
  5
8D55
  8
DEFPOINTS
  6
BYBLOCK
 62
     0
 10
49.357
 20
33.113
 30
0.0
  0
ENDBLK
  5
8D56
  8
0
  0
ENDSEC
  0
SECTION
  2
ENTITIES
  0
INSERT
  5
2C88
  8
TEXT
  6
CONTINUOUS
 66
     1
  2
TBLK_TX
 10
26.309
 20
8.229
 30
0.0
 41
0.217
 42
0.217
 43
0.217
  0
ATTRIB
  5
2C89
  8
0
 10
19.953
 20
8.229
 30
0.0
 40
1.084
  1
AND RAG HOOKS
  7
ARIAL_5
 72
     1
 11
26.309
 21
8.229
 31
0.0
  2
TITLE
 70
     0
  0
ATTRIB
  5
2C8A
  8
0
 10
22.218
 20
6.646
 30
0.0
 40
1.084
  1
B-224.DWG
  7
ARIAL_5
 72
     1
 11
26.309
 21
6.646
 31
0.0
  2
DWG_NAME
 70
     0
  0
SEQEND
  5
2C8B
  8
TEXT
  6
CONTINUOUS
  0
INSERT
  5
5E98
  8
TEXT
  6
CONTINUOUS
 66
     1
  2
TBLK_TX
 10
26.309
 20
11.479
 30
0.0
 41
0.217
 42
0.217
 43
0.217
  0
ATTRIB
  5
5E99
  8
0
 10
18.694
 20
11.479
 30
0.0
 40
1.084
  1
UTILITY SHELF WITH
  7
ARIAL_5
 72
     1
 11
26.309
 21
11.479
 31
0.0
  2
TITLE
 70
     0
  0
ATTRIB
  5
5E9A
  8
0
 10
17.624
 20
9.896
 30
0.0
 40
1.084
  1
MOP/BROOM HOLDERS
  7
ARIAL_5
 72
     1
 11
26.309
 21
9.896
 31
0.0
  2
DWG_NAME
 70
     0
  0
SEQEND
  5
5E9B
  8
TEXT
  6
CONTINUOUS
  0
TEXT
  5
6CB6
  8
DIM
  6
CONTINUOUS
 10
18.596
 20
18.798
 30
0.0
 40
0.188
  1
STANDARD STOCK SIZES
  7
DIM_S_5
  0
TEXT
  5
6CB7
  8
DIM
  6
CONTINUOUS
 10
13.511
 20
17.826
 30
0.0
 40
0.188
  1
Model No.        Length       No. of          Dim. Z            No. of         Dim. A              Dim. B
  7
DIM_S_5
  0
TEXT
  5
6CB8
  8
DIM
  6
CONTINUOUS
 10
13.23
 20
16.321
 30
0.0
 40
0.188
  1
B-224 x 30     30"[760mm]       3        12-3/4"[324mm]        2        6-1/2"[165mm]        17"[432mm]
  7
DIM_S_5
  0
TEXT
  5
6CBA
  8
DIM
  6
CONTINUOUS
 10
18.593
 20
17.507
 30
0.0
 40
0.188
  1
Mop
  7
DIM_S_5
  0
TEXT
  5
6CBB
  8
DIM
  6
CONTINUOUS
 10
23.809
 20
17.507
 30
0.0
 40
0.188
  1
Rag Holes
  7
DIM_S_5
  0
LINE
  5
6CBC
  8
DIM
  6
CONTINUOUS
 10
12.876
 20
18.234
 30
0.0
 11
12.876
 21
15.244
 31
0.0
  0
LINE
  5
6CBD
  8
DIM
  6
CONTINUOUS
 10
15.434
 20
18.234
 30
0.0
 11
15.434
 21
15.244
 31
0.0
  0
LINE
  5
6CBE
  8
DIM
  6
CONTINUOUS
 10
17.98
 20
18.234
 30
0.0
 11
17.98
 21
15.244
 31
0.0
  0
LINE
  5
6CBF
  8
DIM
  6
CONTINUOUS
 10
19.869
 20
18.234
 30
0.0
 11
19.869
 21
15.244
 31
0.0
  0
LINE
  5
6CC0
  8
DIM
  6
CONTINUOUS
 10
23.441
 20
18.234
 30
0.0
 11
23.441
 21
15.244
 31
0.0
  0
LINE
  5
6CC1
  8
DIM
  6
CONTINUOUS
 10
25.505
 20
18.234
 30
0.0
 11
25.505
 21
15.244
 31
0.0
  0
LINE
  5
6CC2
  8
DIM
  6
CONTINUOUS
 10
28.838
 20
18.234
 30
0.0
 11
28.838
 21
15.244
 31
0.0
  0
LINE
  5
6CC3
  8
DIM
  6
CONTINUOUS
 10
12.876
 20
18.234
 30
0.0
 11
31.924
 21
18.234
 31
0.0
  0
LINE
  5
6CC6
  8
DIM
  6
CONTINUOUS
 10
12.876
 20
16.923
 30
0.0
 11
31.924
 21
16.923
 31
0.0
  0
LINE
  5
6CC7
  8
DIM
  6
CONTINUOUS
 10
12.876
 20
15.244
 30
0.0
 11
31.924
 21
15.244
 31
0.0
  0
POLYLINE
  5
7CF3
  8
DETAIL
  6
CONTINUOUS
 66
     1
 10
0.0
 20
0.0
 30
0.0
 40
0.047
 41
0.047
  0
VERTEX
  5
7CF4
  8
DETAIL
  6
CONTINUOUS
 10
3.446
 20
29.839
 30
0.0
 40
0.0
 41
0.0
  0
VERTEX
  5
7CF5
  8
DETAIL
  6
CONTINUOUS
 10
5.535
 20
29.838
 30
0.0
 40
0.0
 41
0.0
  0
SEQEND
  5
7CF6
  8
DETAIL
  6
CONTINUOUS
  0
POLYLINE
  5
7CF7
  8
DETAIL
  6
CONTINUOUS
 66
     1
 10
0.0
 20
0.0
 30
0.0
 40
0.047
 41
0.047
  0
VERTEX
  5
7CF8
  8
DETAIL
  6
CONTINUOUS
 10
5.535
 20
29.838
 30
0.0
 40
0.0
 41
0.0
  0
VERTEX
  5
7CF9
  8
DETAIL
  6
CONTINUOUS
 10
5.59
 20
29.823
 30
0.0
 40
0.0
 41
0.0
  0
VERTEX
  5
7CFA
  8
DETAIL
  6
CONTINUOUS
 10
5.628
 20
29.785
 30
0.0
 40
0.0
 41
0.0
  0
VERTEX
  5
7CFB
  8
DETAIL
  6
CONTINUOUS
 10
5.643
 20
29.73
 30
0.0
 40
0.0
 41
0.0
  0
SEQEND
  5
7CFC
  8
DETAIL
  6
CONTINUOUS
  0
POLYLINE
  5
7CFD
  8
DETAIL
  6
CONTINUOUS
 66
     1
 10
0.0
 20
0.0
 30
0.0
 40
0.047
 41
0.047
  0
VERTEX
  5
7CFE
  8
DETAIL
  6
CONTINUOUS
 10
5.643
 20
28.728
 30
0.0
 40
0.0
 41
0.0
  0
VERTEX
  5
7CFF
  8
DETAIL
  6
CONTINUOUS
 10
5.628
 20
28.674
 30
0.0
 40
0.0
 41
0.0
  0
VERTEX
  5
7D00
  8
DETAIL
  6
CONTINUOUS
 10
5.59
 20
28.635
 30
0.0
 40
0.0
 41
0.0
  0
VERTEX
  5
7D01
  8
DETAIL
  6
CONTINUOUS
 10
5.535
 20
28.62
 30
0.0
 40
0.0
 41
0.0
  0
SEQEND
  5
7D02
  8
DETAIL
  6
CONTINUOUS
  0
POLYLINE
  5
7D03
  8
DETAIL
  6
CONTINUOUS
 66
     1
 10
0.0
 20
0.0
 30
0.0
 40
0.047
 41
0.047
  0
VERTEX
  5
7D04
  8
DETAIL
  6
CONTINUOUS
 10
5.535
 20
28.62
 30
0.0
 40
0.0
 41
0.0
  0
VERTEX
  5
7D05
  8
DETAIL
  6
CONTINUOUS
 10
3.446
 20
28.62
 30
0.0
 40
0.0
 41
0.0
  0
VERTEX
  5
7D06
  8
DETAIL
  6
CONTINUOUS
 10
3.329
 20
28.855
 30
0.0
 40
0.0
 41
0.0
  0
VERTEX
  5
7D07
  8
DETAIL
  6
CONTINUOUS
 10
3.329
 20
29.558
 30
0.0
 40
0.0
 41
0.0
  0
VERTEX
  5
7D08
  8
DETAIL
  6
CONTINUOUS
 10
3.446
 20
29.839
 30
0.0
 40
0.0
 41
0.0
  0
SEQEND
  5
7D09
  8
DETAIL
  6
CONTINUOUS
  0
POLYLINE
  5
7D0A
  8
DETAIL
  6
CONTINUOUS
 66
     1
 10
0.0
 20
0.0
 30
0.0
 70
     1
 40
0.023
 41
0.023
  0
VERTEX
  5
7D0B
  8
DETAIL
  6
CONTINUOUS
 10
3.51
 20
28.626
 30
0.0
 40
0.0
 41
0.0
  0
VERTEX
  5
7D0C
  8
DETAIL
  6
CONTINUOUS
 10
3.405
 20
28.878
 30
0.0
 40
0.0
 41
0.0
  0
VERTEX
  5
7D0D
  8
DETAIL
  6
CONTINUOUS
 10
3.404
 20
29.529
 30
0.0
 40
0.0
 41
0.0
  0
VERTEX
  5
7D0E
  8
DETAIL
  6
CONTINUOUS
 10
3.516
 20
29.839
 30
0.0
 40
0.0
 41
0.0
  0
VERTEX
  5
7D0F
  8
DETAIL
  6
CONTINUOUS
 10
3.575
 20
29.734
 30
0.0
 40
0.0
 41
0.0
  0
VERTEX
  5
7D10
  8
DETAIL
  6
CONTINUOUS
 10
3.575
 20
28.743
 30
0.0
 40
0.0
 41
0.0
  0
SEQEND
  5
7D11
  8
DETAIL
  6
CONTINUOUS
  0
POLYLINE
  5
7D12
  8
DETAIL
  6
CONTINUOUS
 66
     1
 10
0.0
 20
0.0
 30
0.0
 40
0.047
 41
0.047
  0
VERTEX
  5
7D13
  8
DETAIL
  6
CONTINUOUS
 10
3.405
 20
28.878
 30
0.0
 40
0.0
 41
0.0
  0
VERTEX
  5
7D14
  8
DETAIL
  6
CONTINUOUS
 10
3.334
 20
28.855
 30
0.0
 40
0.0
 41
0.0
  0
SEQEND
  5
7D15
  8
DETAIL
  6
CONTINUOUS
  0
POLYLINE
  5
7D16
  8
DETAIL
  6
CONTINUOUS
 66
     1
 10
0.0
 20
0.0
 30
0.0
 40
0.047
 41
0.047
  0
VERTEX
  5
7D17
  8
DETAIL
  6
CONTINUOUS
 10
3.404
 20
29.529
 30
0.0
 40
0.0
 41
0.0
  0
VERTEX
  5
7D18
  8
DETAIL
  6
CONTINUOUS
 10
3.329
 20
29.558
 30
0.0
 40
0.0
 41
0.0
  0
SEQEND
  5
7D19
  8
DETAIL
  6
CONTINUOUS
  0
POLYLINE
  5
7D1A
  8
DETAIL
  6
CONTINUOUS
 66
     1
 10
0.0
 20
0.0
 30
0.0
 70
     1
 40
0.023
 41
0.023
  0
VERTEX
  5
7D1B
  8
DETAIL
  6
CONTINUOUS
 10
4.131
 20
29.388
 30
0.0
 40
0.0
 41
0.0
  0
VERTEX
  5
7D1C
  8
DETAIL
  6
CONTINUOUS
 10
4.154
 20
29.335
 30
0.0
 40
0.0
 41
0.0
  0
VERTEX
  5
7D1D
  8
DETAIL
  6
CONTINUOUS
 10
4.218
 20
29.236
 30
0.0
 40
0.0
 41
0.0
  0
VERTEX
  5
7D1E
  8
DETAIL
  6
CONTINUOUS
 10
4.319
 20
29.183
 30
0.0
 40
0.0
 41
0.0
  0
VERTEX
  5
7D1F
  8
DETAIL
  6
CONTINUOUS
 10
4.423
 20
29.2
 30
0.0
 40
0.0
 41
0.0
  0
VERTEX
  5
7D20
  8
DETAIL
  6
CONTINUOUS
 10
4.517
 20
29.254
 30
0.0
 40
0.0
 41
0.0
  0
VERTEX
  5
7D21
  8
DETAIL
  6
CONTINUOUS
 10
4.606
 20
29.353
 30
0.0
 40
0.0
 41
0.0
  0
VERTEX
  5
7D22
  8
DETAIL
  6
CONTINUOUS
 10
4.758
 20
29.394
 30
0.0
 40
0.0
 41
0.0
  0
VERTEX
  5
7D23
  8
DETAIL
  6
CONTINUOUS
 10
4.99
 20
29.391
 30
0.0
 40
0.0
 41
0.0
  0
VERTEX
  5
7D24
  8
DETAIL
  6
CONTINUOUS
 10
5.122
 20
29.382
 30
0.0
 40
0.0
 41
0.0
  0
VERTEX
  5
7D25
  8
DETAIL
  6
CONTINUOUS
 10
5.192
 20
29.355
 30
0.0
 40
0.0
 41
0.0
  0
VERTEX
  5
7D26
  8
DETAIL
  6
CONTINUOUS
 10
5.308
 20
29.292
 30
0.0
 40
0.0
 41
0.0
  0
VERTEX
  5
7D27
  8
DETAIL
  6
CONTINUOUS
 10
5.397
 20
29.218
 30
0.0
 40
0.0
 41
0.0
  0
VERTEX
  5
7D28
  8
DETAIL
  6
CONTINUOUS
 10
5.457
 20
29.049
 30
0.0
 40
0.0
 41
0.0
  0
VERTEX
  5
7D29
  8
DETAIL
  6
CONTINUOUS
 10
5.513
 20
28.795
 30
0.0
 40
0.0
 41
0.0
  0
VERTEX
  5
7D2A
  8
DETAIL
  6
CONTINUOUS
 10
5.538
 20
28.626
 30
0.0
 40
0.0
 41
0.0
  0
VERTEX
  5
7D2B
  8
DETAIL
  6
CONTINUOUS
 10
5.415
 20
28.536
 30
0.0
 40
0.0
 41
0.0
  0
VERTEX
  5
7D2C
  8
DETAIL
  6
CONTINUOUS
 10
5.164
 20
28.441
 30
0.0
 40
0.0
 41
0.0
  0
VERTEX
  5
7D2D
  8
DETAIL
  6
CONTINUOUS
 10
4.964
 20
28.398
 30
0.0
 40
0.0
 41
0.0
  0
VERTEX
  5
7D2E
  8
DETAIL
  6
CONTINUOUS
 10
4.94
 20
28.437
 30
0.0
 40
0.0
 41
0.0
  0
VERTEX
  5
7D2F
  8
DETAIL
  6
CONTINUOUS
 10
4.926
 20
28.51
 30
0.0
 40
0.0
 41
0.0
  0
VERTEX
  5
7D30
  8
DETAIL
  6
CONTINUOUS
 10
4.922
 20
28.55
 30
0.0
 40
0.0
 41
0.0
  0
VERTEX
  5
7D31
  8
DETAIL
  6
CONTINUOUS
 10
4.899
 20
28.551
 30
0.0
 40
0.0
 41
0.0
  0
VERTEX
  5
7D32
  8
DETAIL
  6
CONTINUOUS
 10
4.852
 20
28.551
 30
0.0
 40
0.0
 41
0.0
  0
VERTEX
  5
7D33
  8
DETAIL
  6
CONTINUOUS
 10
4.817
 20
28.544
 30
0.0
 40
0.0
 41
0.0
  0
VERTEX
  5
7D34
  8
DETAIL
  6
CONTINUOUS
 10
4.799
 20
28.403
 30
0.0
 40
0.0
 41
0.0
  0
VERTEX
  5
7D35
  8
DETAIL
  6
CONTINUOUS
 10
4.61
 20
28.412
 30
0.0
 40
0.0
 41
0.0
  0
VERTEX
  5
7D36
  8
DETAIL
  6
CONTINUOUS
 10
4.366
 20
28.514
 30
0.0
 40
0.0
 41
0.0
  0
VERTEX
  5
7D37
  8
DETAIL
  6
CONTINUOUS
 10
4.149
 20
28.714
 30
0.0
 40
0.0
 41
0.0
  0
VERTEX
  5
7D38
  8
DETAIL
  6
CONTINUOUS
 10
4.231
 20
28.802
 30
0.0
 40
0.0
 41
0.0
  0
VERTEX
  5
7D39
  8
DETAIL
  6
CONTINUOUS
 10
4.172
 20
28.89
 30
0.0
 40
0.0
 41
0.0
  0
VERTEX
  5
7D3A
  8
DETAIL
  6
CONTINUOUS
 10
4.079
 20
28.849
 30
0.0
 40
0.0
 41
0.0
  0
VERTEX
  5
7D3B
  8
DETAIL
  6
CONTINUOUS
 10
4.038
 20
28.925
 30
0.0
 40
0.0
 41
0.0
  0
VERTEX
  5
7D3C
  8
DETAIL
  6
CONTINUOUS
 10
4.108
 20
28.984
 30
0.0
 40
0.0
 41
0.0
  0
VERTEX
  5
7D3D
  8
DETAIL
  6
CONTINUOUS
 10
4.079
 20
29.071
 30
0.0
 40
0.0
 41
0.0
  0
VERTEX
  5
7D3E
  8
DETAIL
  6
CONTINUOUS
 10
3.991
 20
29.054
 30
0.0
 40
0.0
 41
0.0
  0
VERTEX
  5
7D3F
  8
DETAIL
  6
CONTINUOUS
 10
3.967
 20
29.13
 30
0.0
 40
0.0
 41
0.0
  0
VERTEX
  5
7D40
  8
DETAIL
  6
CONTINUOUS
 10
4.055
 20
29.189
 30
0.0
 40
0.0
 41
0.0
  0
VERTEX
  5
7D41
  8
DETAIL
  6
CONTINUOUS
 10
4.032
 20
29.277
 30
0.0
 40
0.0
 41
0.0
  0
VERTEX
  5
7D42
  8
DETAIL
  6
CONTINUOUS
 10
3.944
 20
29.265
 30
0.0
 40
0.0
 41
0.0
  0
VERTEX
  5
7D43
  8
DETAIL
  6
CONTINUOUS
 10
3.915
 20
29.341
 30
0.0
 40
0.0
 41
0.0
  0
SEQEND
  5
7D44
  8
DETAIL
  6
CONTINUOUS
  0
POLYLINE
  5
7D45
  8
DETAIL
  6
CONTINUOUS
 66
     1
 10
0.0
 20
0.0
 30
0.0
 40
0.023
 41
0.023
  0
VERTEX
  5
7D46
  8
DETAIL
  6
CONTINUOUS
 10
4.354
 20
29.393
 30
0.0
 40
0.0
 41
0.0
  0
VERTEX
  5
7D47
  8
DETAIL
  6
CONTINUOUS
 10
4.446
 20
29.418
 30
0.0
 40
0.0
 41
0.0
  0
VERTEX
  5
7D48
  8
DETAIL
  6
CONTINUOUS
 10
4.511
 20
29.483
 30
0.0
 40
0.0
 41
0.0
  0
VERTEX
  5
7D49
  8
DETAIL
  6
CONTINUOUS
 10
4.536
 20
29.575
 30
0.0
 40
0.0
 41
0.0
  0
SEQEND
  5
7D4A
  8
DETAIL
  6
CONTINUOUS
  0
POLYLINE
  5
7D4B
  8
DETAIL
  6
CONTINUOUS
 66
     1
 10
0.0
 20
0.0
 30
0.0
 40
0.023
 41
0.023
  0
VERTEX
  5
7D4C
  8
DETAIL
  6
CONTINUOUS
 10
4.536
 20
29.575
 30
0.0
 40
0.0
 41
0.0
  0
VERTEX
  5
7D4D
  8
DETAIL
  6
CONTINUOUS
 10
4.511
 20
29.667
 30
0.0
 40
0.0
 41
0.0
  0
VERTEX
  5
7D4E
  8
DETAIL
  6
CONTINUOUS
 10
4.446
 20
29.733
 30
0.0
 40
0.0
 41
0.0
  0
VERTEX
  5
7D4F
  8
DETAIL
  6
CONTINUOUS
 10
4.354
 20
29.758
 30
0.0
 40
0.0
 41
0.0
  0
SEQEND
  5
7D50
  8
DETAIL
  6
CONTINUOUS
  0
POLYLINE
  5
7D51
  8
DETAIL
  6
CONTINUOUS
 66
     1
 10
0.0
 20
0.0
 30
0.0
 40
0.023
 41
0.023
  0
VERTEX
  5
7D52
  8
DETAIL
  6
CONTINUOUS
 10
4.354
 20
29.758
 30
0.0
 40
0.0
 41
0.0
  0
VERTEX
  5
7D53
  8
DETAIL
  6
CONTINUOUS
 10
4.262
 20
29.733
 30
0.0
 40
0.0
 41
0.0
  0
VERTEX
  5
7D54
  8
DETAIL
  6
CONTINUOUS
 10
4.197
 20
29.667
 30
0.0
 40
0.0
 41
0.0
  0
VERTEX
  5
7D55
  8
DETAIL
  6
CONTINUOUS
 10
4.172
 20
29.575
 30
0.0
 40
0.0
 41
0.0
  0
SEQEND
  5
7D56
  8
DETAIL
  6
CONTINUOUS
  0
POLYLINE
  5
7D57
  8
DETAIL
  6
CONTINUOUS
 66
     1
 10
0.0
 20
0.0
 30
0.0
 40
0.023
 41
0.023
  0
VERTEX
  5
7D58
  8
DETAIL
  6
CONTINUOUS
 10
4.172
 20
29.575
 30
0.0
 40
0.0
 41
0.0
  0
VERTEX
  5
7D59
  8
DETAIL
  6
CONTINUOUS
 10
4.197
 20
29.483
 30
0.0
 40
0.0
 41
0.0
  0
VERTEX
  5
7D5A
  8
DETAIL
  6
CONTINUOUS
 10
4.262
 20
29.418
 30
0.0
 40
0.0
 41
0.0
  0
VERTEX
  5
7D5B
  8
DETAIL
  6
CONTINUOUS
 10
4.354
 20
29.393
 30
0.0
 40
0.0
 41
0.0
  0
SEQEND
  5
7D5C
  8
DETAIL
  6
CONTINUOUS
  0
POLYLINE
  5
7D5D
  8
DETAIL
  6
CONTINUOUS
 66
     1
 10
0.0
 20
0.0
 30
0.0
 40
0.023
 41
0.023
  0
VERTEX
  5
7D5E
  8
DETAIL
  6
CONTINUOUS
 10
5.298
 20
29.393
 30
0.0
 40
0.0
 41
0.0
  0
VERTEX
  5
7D5F
  8
DETAIL
  6
CONTINUOUS
 10
5.39
 20
29.418
 30
0.0
 40
0.0
 41
0.0
  0
VERTEX
  5
7D60
  8
DETAIL
  6
CONTINUOUS
 10
5.455
 20
29.483
 30
0.0
 40
0.0
 41
0.0
  0
VERTEX
  5
7D61
  8
DETAIL
  6
CONTINUOUS
 10
5.48
 20
29.575
 30
0.0
 40
0.0
 41
0.0
  0
SEQEND
  5
7D62
  8
DETAIL
  6
CONTINUOUS
  0
POLYLINE
  5
7D63
  8
DETAIL
  6
CONTINUOUS
 66
     1
 10
0.0
 20
0.0
 30
0.0
 40
0.023
 41
0.023
  0
VERTEX
  5
7D64
  8
DETAIL
  6
CONTINUOUS
 10
5.48
 20
29.575
 30
0.0
 40
0.0
 41
0.0
  0
VERTEX
  5
7D65
  8
DETAIL
  6
CONTINUOUS
 10
5.455
 20
29.667
 30
0.0
 40
0.0
 41
0.0
  0
VERTEX
  5
7D66
  8
DETAIL
  6
CONTINUOUS
 10
5.39
 20
29.733
 30
0.0
 40
0.0
 41
0.0
  0
VERTEX
  5
7D67
  8
DETAIL
  6
CONTINUOUS
 10
5.298
 20
29.758
 30
0.0
 40
0.0
 41
0.0
  0
SEQEND
  5
7D68
  8
DETAIL
  6
CONTINUOUS
  0
POLYLINE
  5
7D69
  8
DETAIL
  6
CONTINUOUS
 66
     1
 10
0.0
 20
0.0
 30
0.0
 40
0.023
 41
0.023
  0
VERTEX
  5
7D6A
  8
DETAIL
  6
CONTINUOUS
 10
5.298
 20
29.758
 30
0.0
 40
0.0
 41
0.0
  0
VERTEX
  5
7D6B
  8
DETAIL
  6
CONTINUOUS
 10
5.206
 20
29.733
 30
0.0
 40
0.0
 41
0.0
  0
VERTEX
  5
7D6C
  8
DETAIL
  6
CONTINUOUS
 10
5.14
 20
29.667
 30
0.0
 40
0.0
 41
0.0
  0
VERTEX
  5
7D6D
  8
DETAIL
  6
CONTINUOUS
 10
5.115
 20
29.575
 30
0.0
 40
0.0
 41
0.0
  0
SEQEND
  5
7D6E
  8
DETAIL
  6
CONTINUOUS
  0
POLYLINE
  5
7D6F
  8
DETAIL
  6
CONTINUOUS
 66
     1
 10
0.0
 20
0.0
 30
0.0
 40
0.023
 41
0.023
  0
VERTEX
  5
7D70
  8
DETAIL
  6
CONTINUOUS
 10
5.115
 20
29.575
 30
0.0
 40
0.0
 41
0.0
  0
VERTEX
  5
7D71
  8
DETAIL
  6
CONTINUOUS
 10
5.14
 20
29.483
 30
0.0
 40
0.0
 41
0.0
  0
VERTEX
  5
7D72
  8
DETAIL
  6
CONTINUOUS
 10
5.206
 20
29.418
 30
0.0
 40
0.0
 41
0.0
  0
VERTEX
  5
7D73
  8
DETAIL
  6
CONTINUOUS
 10
5.298
 20
29.393
 30
0.0
 40
0.0
 41
0.0
  0
SEQEND
  5
7D74
  8
DETAIL
  6
CONTINUOUS
  0
POLYLINE
  5
7D75
  8
DETAIL
  6
CONTINUOUS
 66
     1
 10
0.0
 20
0.0
 30
0.0
 40
0.023
 41
0.023
  0
VERTEX
  5
7D76
  8
DETAIL
  6
CONTINUOUS
 10
5.087
 20
29.237
 30
0.0
 40
0.0
 41
0.0
  0
VERTEX
  5
7D77
  8
DETAIL
  6
CONTINUOUS
 10
4.953
 20
29.201
 30
0.0
 40
0.0
 41
0.0
  0
VERTEX
  5
7D78
  8
DETAIL
  6
CONTINUOUS
 10
4.858
 20
29.106
 30
0.0
 40
0.0
 41
0.0
  0
VERTEX
  5
7D79
  8
DETAIL
  6
CONTINUOUS
 10
4.821
 20
28.972
 30
0.0
 40
0.0
 41
0.0
  0
SEQEND
  5
7D7A
  8
DETAIL
  6
CONTINUOUS
  0
POLYLINE
  5
7D7B
  8
DETAIL
  6
CONTINUOUS
 66
     1
 10
0.0
 20
0.0
 30
0.0
 40
0.023
 41
0.023
  0
VERTEX
  5
7D7C
  8
DETAIL
  6
CONTINUOUS
 10
4.821
 20
28.972
 30
0.0
 40
0.0
 41
0.0
  0
VERTEX
  5
7D7D
  8
DETAIL
  6
CONTINUOUS
 10
4.858
 20
28.838
 30
0.0
 40
0.0
 41
0.0
  0
VERTEX
  5
7D7E
  8
DETAIL
  6
CONTINUOUS
 10
4.953
 20
28.743
 30
0.0
 40
0.0
 41
0.0
  0
VERTEX
  5
7D7F
  8
DETAIL
  6
CONTINUOUS
 10
5.087
 20
28.707
 30
0.0
 40
0.0
 41
0.0
  0
SEQEND
  5
7D80
  8
DETAIL
  6
CONTINUOUS
  0
POLYLINE
  5
7D81
  8
DETAIL
  6
CONTINUOUS
 66
     1
 10
0.0
 20
0.0
 30
0.0
 40
0.023
 41
0.023
  0
VERTEX
  5
7D82
  8
DETAIL
  6
CONTINUOUS
 10
5.087
 20
28.707
 30
0.0
 40
0.0
 41
0.0
  0
VERTEX
  5
7D83
  8
DETAIL
  6
CONTINUOUS
 10
5.22
 20
28.743
 30
0.0
 40
0.0
 41
0.0
  0
VERTEX
  5
7D84
  8
DETAIL
  6
CONTINUOUS
 10
5.316
 20
28.838
 30
0.0
 40
0.0
 41
0.0
  0
VERTEX
  5
7D85
  8
DETAIL
  6
CONTINUOUS
 10
5.352
 20
28.972
 30
0.0
 40
0.0
 41
0.0
  0
SEQEND
  5
7D86
  8
DETAIL
  6
CONTINUOUS
  0
POLYLINE
  5
7D87
  8
DETAIL
  6
CONTINUOUS
 66
     1
 10
0.0
 20
0.0
 30
0.0
 40
0.023
 41
0.023
  0
VERTEX
  5
7D88
  8
DETAIL
  6
CONTINUOUS
 10
5.352
 20
28.972
 30
0.0
 40
0.0
 41
0.0
  0
VERTEX
  5
7D89
  8
DETAIL
  6
CONTINUOUS
 10
5.316
 20
29.106
 30
0.0
 40
0.0
 41
0.0
  0
VERTEX
  5
7D8A
  8
DETAIL
  6
CONTINUOUS
 10
5.22
 20
29.201
 30
0.0
 40
0.0
 41
0.0
  0
VERTEX
  5
7D8B
  8
DETAIL
  6
CONTINUOUS
 10
5.087
 20
29.237
 30
0.0
 40
0.0
 41
0.0
  0
SEQEND
  5
7D8C
  8
DETAIL
  6
CONTINUOUS
  0
POLYLINE
  5
7D8D
  8
DETAIL
  6
CONTINUOUS
 66
     1
 10
0.0
 20
0.0
 30
0.0
 40
0.023
 41
0.023
  0
VERTEX
  5
7D8E
  8
DETAIL
  6
CONTINUOUS
 10
5.087
 20
29.168
 30
0.0
 40
0.0
 41
0.0
  0
VERTEX
  5
7D8F
  8
DETAIL
  6
CONTINUOUS
 10
4.986
 20
29.141
 30
0.0
 40
0.0
 41
0.0
  0
VERTEX
  5
7D90
  8
DETAIL
  6
CONTINUOUS
 10
4.915
 20
29.069
 30
0.0
 40
0.0
 41
0.0
  0
VERTEX
  5
7D91
  8
DETAIL
  6
CONTINUOUS
 10
4.888
 20
28.969
 30
0.0
 40
0.0
 41
0.0
  0
SEQEND
  5
7D92
  8
DETAIL
  6
CONTINUOUS
  0
POLYLINE
  5
7D93
  8
DETAIL
  6
CONTINUOUS
 66
     1
 10
0.0
 20
0.0
 30
0.0
 40
0.023
 41
0.023
  0
VERTEX
  5
7D94
  8
DETAIL
  6
CONTINUOUS
 10
4.888
 20
28.969
 30
0.0
 40
0.0
 41
0.0
  0
VERTEX
  5
7D95
  8
DETAIL
  6
CONTINUOUS
 10
4.915
 20
28.869
 30
0.0
 40
0.0
 41
0.0
  0
VERTEX
  5
7D96
  8
DETAIL
  6
CONTINUOUS
 10
4.986
 20
28.797
 30
0.0
 40
0.0
 41
0.0
  0
VERTEX
  5
7D97
  8
DETAIL
  6
CONTINUOUS
 10
5.087
 20
28.77
 30
0.0
 40
0.0
 41
0.0
  0
SEQEND
  5
7D98
  8
DETAIL
  6
CONTINUOUS
  0
POLYLINE
  5
7D99
  8
DETAIL
  6
CONTINUOUS
 66
     1
 10
0.0
 20
0.0
 30
0.0
 40
0.023
 41
0.023
  0
VERTEX
  5
7D9A
  8
DETAIL
  6
CONTINUOUS
 10
5.087
 20
28.77
 30
0.0
 40
0.0
 41
0.0
  0
VERTEX
  5
7D9B
  8
DETAIL
  6
CONTINUOUS
 10
5.187
 20
28.797
 30
0.0
 40
0.0
 41
0.0
  0
VERTEX
  5
7D9C
  8
DETAIL
  6
CONTINUOUS
 10
5.258
 20
28.869
 30
0.0
 40
0.0
 41
0.0
  0
VERTEX
  5
7D9D
  8
DETAIL
  6
CONTINUOUS
 10
5.285
 20
28.969
 30
0.0
 40
0.0
 41
0.0
  0
SEQEND
  5
7D9E
  8
DETAIL
  6
CONTINUOUS
  0
POLYLINE
  5
7D9F
  8
DETAIL
  6
CONTINUOUS
 66
     1
 10
0.0
 20
0.0
 30
0.0
 40
0.023
 41
0.023
  0
VERTEX
  5
7DA0
  8
DETAIL
  6
CONTINUOUS
 10
5.285
 20
28.969
 30
0.0
 40
0.0
 41
0.0
  0
VERTEX
  5
7DA1
  8
DETAIL
  6
CONTINUOUS
 10
5.258
 20
29.069
 30
0.0
 40
0.0
 41
0.0
  0
VERTEX
  5
7DA2
  8
DETAIL
  6
CONTINUOUS
 10
5.187
 20
29.141
 30
0.0
 40
0.0
 41
0.0
  0
VERTEX
  5
7DA3
  8
DETAIL
  6
CONTINUOUS
 10
5.087
 20
29.168
 30
0.0
 40
0.0
 41
0.0
  0
SEQEND
  5
7DA4
  8
DETAIL
  6
CONTINUOUS
  0
POLYLINE
  5
8449
  8
DETAIL
  6
CONTINUOUS
 66
     1
 10
0.0
 20
0.0
 30
0.0
 40
0.023
 41
0.023
  0
VERTEX
  5
844A
  8
DETAIL
  6
CONTINUOUS
 10
3.75
 20
30.629
 30
0.0
 40
0.0
 41
0.0
  0
VERTEX
  5
844B
  8
DETAIL
  6
CONTINUOUS
 10
3.75
 20
28.066
 30
0.0
 40
0.0
 41
0.0
  0
SEQEND
  5
844C
  8
DETAIL
  6
CONTINUOUS
  0
TEXT
  5
84FC
  8
DIM
  6
CONTINUOUS
 10
4.472
 20
30.803
 30
0.0
 40
0.25
  1
C
  7
DIM_S_5
  0
TEXT
  5
84FD
  8
DIM
  6
CONTINUOUS
 10
4.563
 20
30.663
 30
0.0
 40
0.25
  1
L
  7
DIM_S_5
  0
TEXT
  5
8500
  8
DIM
  6
CONTINUOUS
 10
5.0
 20
30.811
 30
0.0
 40
0.25
  1
of Mop Holders
  7
DIM_S_5
  0
TEXT
  5
8503
  8
DIM
  6
CONTINUOUS
 10
21.85
 20
30.897
 30
0.0
 40
0.25
  1
Shelf
  7
DIM_S_5
  0
TEXT
  5
8504
  8
DIM
  6
CONTINUOUS
 10
27.919
 20
30.908
 30
0.0
 40
0.25
  1
Rag Hook
  7
DIM_S_5
  0
TEXT
  5
852D
  8
DIM
  6
CONTINUOUS
 10
30.277
 20
25.579
 30
0.0
 40
0.25
  1
Mop Holder
  7
DIM_S_5
  0
TEXT
  5
8542
  8
DIM
  6
CONTINUOUS
 10
18.468
 20
25.363
 30
0.0
 40
0.25
  1
Drying Rod
  7
DIM_S_5
  0
LINE
  5
8638
  8
DETAIL
  6
CONTINUOUS
 10
2.446
 20
30.004
 30
0.0
 11
32.196
 21
30.004
 31
0.0
  0
LINE
  5
8639
  8
DETAIL
  6
CONTINUOUS
 10
2.446
 20
28.504
 30
0.0
 11
32.196
 21
28.504
 31
0.0
  0
LINE
  5
863A
  8
DETAIL
  6
CONTINUOUS
 10
2.321
 20
29.879
 30
0.0
 11
2.321
 21
28.629
 31
0.0
  0
LINE
  5
863B
  8
DETAIL
  6
CONTINUOUS
 10
32.321
 20
29.879
 30
0.0
 11
32.321
 21
28.629
 31
0.0
  0
LINE
  5
863C
  8
DETAIL
  6
CENTER2
 10
8.821
 20
30.004
 30
0.0
 11
8.821
 21
23.254
 31
0.0
  0
LINE
  5
863D
  8
DETAIL
  6
CENTER2
 10
25.821
 20
30.004
 30
0.0
 11
25.821
 21
23.254
 31
0.0
  0
LINE
  5
863E
  8
DETAIL
  6
CONTINUOUS
 10
8.321
 20
24.004
 30
0.0
 11
9.321
 21
24.004
 31
0.0
  0
LINE
  5
863F
  8
DETAIL
  6
CONTINUOUS
 10
8.321
 20
30.004
 30
0.0
 11
8.321
 21
24.004
 31
0.0
  0
LINE
  5
8640
  8
DETAIL
  6
CONTINUOUS
 10
9.321
 20
30.004
 30
0.0
 11
9.321
 21
24.004
 31
0.0
  0
LINE
  5
8641
  8
DETAIL
  6
CONTINUOUS
 10
25.321
 20
30.004
 30
0.0
 11
25.321
 21
24.004
 31
0.0
  0
LINE
  5
8642
  8
DETAIL
  6
CONTINUOUS
 10
26.321
 20
30.004
 30
0.0
 11
26.321
 21
24.004
 31
0.0
  0
LINE
  5
8643
  8
DETAIL
  6
CONTINUOUS
 10
2.368
 20
29.831
 30
0.0
 11
2.368
 21
28.531
 31
0.0
  0
LINE
  5
8644
  8
DETAIL
  6
CONTINUOUS
 10
2.493
 20
29.956
 30
0.0
 11
32.149
 21
29.956
 31
0.0
  0
LINE
  5
8645
  8
DETAIL
  6
CONTINUOUS
 10
8.368
 20
30.004
 30
0.0
 11
8.368
 21
24.004
 31
0.0
  0
LINE
  5
8646
  8
DETAIL
  6
CONTINUOUS
 10
26.274
 20
30.004
 30
0.0
 11
26.274
 21
24.004
 31
0.0
  0
LINE
  5
8647
  8
DETAIL
  6
CONTINUOUS
 10
32.274
 20
29.831
 30
0.0
 11
32.274
 21
28.531
 31
0.0
  0
ARC
  5
8648
  8
DETAIL
  6
CONTINUOUS
 10
2.493
 20
29.831
 30
0.0
 40
0.125
 50
90.0
 51
180.0
  0
ARC
  5
8649
  8
DETAIL
  6
CONTINUOUS
 10
2.446
 20
29.879
 30
0.0
 40
0.125
 50
90.0
 51
180.0
  0
ARC
  5
864A
  8
DETAIL
  6
CONTINUOUS
 10
2.446
 20
28.629
 30
0.0
 40
0.125
 50
180.0
 51
270.0
  0
ARC
  5
864B
  8
DETAIL
  6
CONTINUOUS
 10
32.149
 20
29.831
 30
0.0
 40
0.125
 50
0.0
 51
90.0
  0
ARC
  5
864C
  8
DETAIL
  6
CONTINUOUS
 10
32.196
 20
29.879
 30
0.0
 40
0.125
 50
0.0
 51
90.0
  0
ARC
  5
864D
  8
DETAIL
  6
CONTINUOUS
 10
32.196
 20
28.629
 30
0.0
 40
0.125
 50
270.0
 51
360.0
  0
POLYLINE
  5
864E
  8
DETAIL
  6
CONTINUOUS
 66
     1
 10
0.0
 20
0.0
 30
0.0
 70
     1
 40
0.07
 41
0.07
  0
VERTEX
  5
864F
  8
DETAIL
  6
CONTINUOUS
 10
8.516
 20
27.8
 30
0.0
 40
0.0
 41
0.0
  0
VERTEX
  5
8650
  8
DETAIL
  6
CONTINUOUS
 10
8.516
 20
29.529
 30
0.0
 40
0.0
 41
0.0
  0
VERTEX
  5
8651
  8
DETAIL
  6
CONTINUOUS
 10
8.531
 20
29.611
 30
0.0
 40
0.0
 41
0.0
  0
VERTEX
  5
8652
  8
DETAIL
  6
CONTINUOUS
 10
8.614
 20
29.76
 30
0.0
 40
0.0
 41
0.0
  0
VERTEX
  5
8653
  8
DETAIL
  6
CONTINUOUS
 10
8.821
 20
29.834
 30
0.0
 40
0.0
 41
0.0
  0
VERTEX
  5
8654
  8
DETAIL
  6
CONTINUOUS
 10
9.031
 20
29.766
 30
0.0
 40
0.0
 41
0.0
  0
VERTEX
  5
8655
  8
DETAIL
  6
CONTINUOUS
 10
9.119
 20
29.653
 30
0.0
 40
0.0
 41
0.0
  0
VERTEX
  5
8656
  8
DETAIL
  6
CONTINUOUS
 10
9.137
 20
29.593
 30
0.0
 40
0.0
 41
0.0
  0
VERTEX
  5
8657
  8
DETAIL
  6
CONTINUOUS
 10
9.143
 20
27.8
 30
0.0
 40
0.0
 41
0.0
  0
SEQEND
  5
8658
  8
DETAIL
  6
CONTINUOUS
  0
POLYLINE
  5
8659
  8
DETAIL
  6
CONTINUOUS
 66
     1
 10
0.0
 20
0.0
 30
0.0
 70
     1
 40
0.02
 41
0.02
  0
VERTEX
  5
865A
  8
DETAIL
  6
CONTINUOUS
 10
8.516
 20
28.251
 30
0.0
 40
0.0
 41
0.0
  0
VERTEX
  5
865B
  8
DETAIL
  6
CONTINUOUS
 10
8.529
 20
28.33
 30
0.0
 40
0.0
 41
0.0
  0
VERTEX
  5
865C
  8
DETAIL
  6
CONTINUOUS
 10
8.613
 20
28.475
 30
0.0
 40
0.0
 41
0.0
  0
VERTEX
  5
865D
  8
DETAIL
  6
CONTINUOUS
 10
8.833
 20
28.55
 30
0.0
 40
0.0
 41
0.0
  0
VERTEX
  5
865E
  8
DETAIL
  6
CONTINUOUS
 10
9.05
 20
28.472
 30
0.0
 40
0.0
 41
0.0
  0
VERTEX
  5
865F
  8
DETAIL
  6
CONTINUOUS
 10
9.127
 20
28.332
 30
0.0
 40
0.0
 41
0.0
  0
VERTEX
  5
8660
  8
DETAIL
  6
CONTINUOUS
 10
9.142
 20
28.252
 30
0.0
 40
0.0
 41
0.0
  0
SEQEND
  5
8661
  8
DETAIL
  6
CONTINUOUS
  0
POLYLINE
  5
8662
  8
DETAIL
  6
CONTINUOUS
 66
     1
 10
0.0
 20
0.0
 30
0.0
 40
0.047
 41
0.047
  0
VERTEX
  5
8663
  8
DETAIL
  6
CONTINUOUS
 10
8.969
 20
29.353
 30
0.0
 40
0.0
 41
0.0
  0
VERTEX
  5
8664
  8
DETAIL
  6
CONTINUOUS
 10
8.949
 20
29.426
 30
0.0
 40
0.0
 41
0.0
  0
VERTEX
  5
8665
  8
DETAIL
  6
CONTINUOUS
 10
8.896
 20
29.478
 30
0.0
 40
0.0
 41
0.0
  0
VERTEX
  5
8666
  8
DETAIL
  6
CONTINUOUS
 10
8.821
 20
29.498
 30
0.0
 40
0.0
 41
0.0
  0
SEQEND
  5
8667
  8
DETAIL
  6
CONTINUOUS
  0
POLYLINE
  5
8668
  8
DETAIL
  6
CONTINUOUS
 66
     1
 10
0.0
 20
0.0
 30
0.0
 40
0.047
 41
0.047
  0
VERTEX
  5
8669
  8
DETAIL
  6
CONTINUOUS
 10
8.821
 20
29.208
 30
0.0
 40
0.0
 41
0.0
  0
VERTEX
  5
866A
  8
DETAIL
  6
CONTINUOUS
 10
8.896
 20
29.228
 30
0.0
 40
0.0
 41
0.0
  0
VERTEX
  5
866B
  8
DETAIL
  6
CONTINUOUS
 10
8.949
 20
29.28
 30
0.0
 40
0.0
 41
0.0
  0
VERTEX
  5
866C
  8
DETAIL
  6
CONTINUOUS
 10
8.969
 20
29.353
 30
0.0
 40
0.0
 41
0.0
  0
SEQEND
  5
866D
  8
DETAIL
  6
CONTINUOUS
  0
POLYLINE
  5
866E
  8
DETAIL
  6
CONTINUOUS
 66
     1
 10
0.0
 20
0.0
 30
0.0
 40
0.047
 41
0.047
  0
VERTEX
  5
866F
  8
DETAIL
  6
CONTINUOUS
 10
8.821
 20
29.498
 30
0.0
 40
0.0
 41
0.0
  0
VERTEX
  5
8670
  8
DETAIL
  6
CONTINUOUS
 10
8.746
 20
29.478
 30
0.0
 40
0.0
 41
0.0
  0
VERTEX
  5
8671
  8
DETAIL
  6
CONTINUOUS
 10
8.693
 20
29.426
 30
0.0
 40
0.0
 41
0.0
  0
VERTEX
  5
8672
  8
DETAIL
  6
CONTINUOUS
 10
8.673
 20
29.353
 30
0.0
 40
0.0
 41
0.0
  0
SEQEND
  5
8673
  8
DETAIL
  6
CONTINUOUS
  0
POLYLINE
  5
8674
  8
DETAIL
  6
CONTINUOUS
 66
     1
 10
0.0
 20
0.0
 30
0.0
 40
0.047
 41
0.047
  0
VERTEX
  5
8675
  8
DETAIL
  6
CONTINUOUS
 10
8.673
 20
29.353
 30
0.0
 40
0.0
 41
0.0
  0
VERTEX
  5
8676
  8
DETAIL
  6
CONTINUOUS
 10
8.693
 20
29.28
 30
0.0
 40
0.0
 41
0.0
  0
VERTEX
  5
8677
  8
DETAIL
  6
CONTINUOUS
 10
8.746
 20
29.228
 30
0.0
 40
0.0
 41
0.0
  0
VERTEX
  5
8678
  8
DETAIL
  6
CONTINUOUS
 10
8.821
 20
29.208
 30
0.0
 40
0.0
 41
0.0
  0
SEQEND
  5
8679
  8
DETAIL
  6
CONTINUOUS
  0
POLYLINE
  5
867A
  8
DETAIL
  6
CONTINUOUS
 66
     1
 10
0.0
 20
0.0
 30
0.0
 40
0.047
 41
0.047
  0
VERTEX
  5
867B
  8
DETAIL
  6
CONTINUOUS
 10
8.821
 20
29.459
 30
0.0
 40
0.0
 41
0.0
  0
VERTEX
  5
867C
  8
DETAIL
  6
CONTINUOUS
 10
8.844
 20
29.459
 30
0.0
 40
0.0
 41
0.0
  0
VERTEX
  5
867D
  8
DETAIL
  6
CONTINUOUS
 10
8.844
 20
29.394
 30
0.0
 40
0.0
 41
0.0
  0
VERTEX
  5
867E
  8
DETAIL
  6
CONTINUOUS
 10
8.849
 20
29.381
 30
0.0
 40
0.0
 41
0.0
  0
SEQEND
  5
867F
  8
DETAIL
  6
CONTINUOUS
  0
POLYLINE
  5
8680
  8
DETAIL
  6
CONTINUOUS
 66
     1
 10
0.0
 20
0.0
 30
0.0
 40
0.047
 41
0.047
  0
VERTEX
  5
8681
  8
DETAIL
  6
CONTINUOUS
 10
8.821
 20
29.459
 30
0.0
 40
0.0
 41
0.0
  0
VERTEX
  5
8682
  8
DETAIL
  6
CONTINUOUS
 10
8.797
 20
29.459
 30
0.0
 40
0.0
 41
0.0
  0
VERTEX
  5
8683
  8
DETAIL
  6
CONTINUOUS
 10
8.797
 20
29.394
 30
0.0
 40
0.0
 41
0.0
  0
VERTEX
  5
8684
  8
DETAIL
  6
CONTINUOUS
 10
8.793
 20
29.382
 30
0.0
 40
0.0
 41
0.0
  0
SEQEND
  5
8685
  8
DETAIL
  6
CONTINUOUS
  0
POLYLINE
  5
8686
  8
DETAIL
  6
CONTINUOUS
 66
     1
 10
0.0
 20
0.0
 30
0.0
 40
0.047
 41
0.047
  0
VERTEX
  5
8687
  8
DETAIL
  6
CONTINUOUS
 10
8.715
 20
29.353
 30
0.0
 40
0.0
 41
0.0
  0
VERTEX
  5
8688
  8
DETAIL
  6
CONTINUOUS
 10
8.715
 20
29.33
 30
0.0
 40
0.0
 41
0.0
  0
VERTEX
  5
8689
  8
DETAIL
  6
CONTINUOUS
 10
8.78
 20
29.33
 30
0.0
 40
0.0
 41
0.0
  0
VERTEX
  5
868A
  8
DETAIL
  6
CONTINUOUS
 10
8.792
 20
29.325
 30
0.0
 40
0.0
 41
0.0
  0
SEQEND
  5
868B
  8
DETAIL
  6
CONTINUOUS
  0
POLYLINE
  5
868C
  8
DETAIL
  6
CONTINUOUS
 66
     1
 10
0.0
 20
0.0
 30
0.0
 40
0.047
 41
0.047
  0
VERTEX
  5
868D
  8
DETAIL
  6
CONTINUOUS
 10
8.715
 20
29.353
 30
0.0
 40
0.0
 41
0.0
  0
VERTEX
  5
868E
  8
DETAIL
  6
CONTINUOUS
 10
8.715
 20
29.377
 30
0.0
 40
0.0
 41
0.0
  0
VERTEX
  5
868F
  8
DETAIL
  6
CONTINUOUS
 10
8.78
 20
29.377
 30
0.0
 40
0.0
 41
0.0
  0
VERTEX
  5
8690
  8
DETAIL
  6
CONTINUOUS
 10
8.793
 20
29.382
 30
0.0
 40
0.0
 41
0.0
  0
SEQEND
  5
8691
  8
DETAIL
  6
CONTINUOUS
  0
POLYLINE
  5
8692
  8
DETAIL
  6
CONTINUOUS
 66
     1
 10
0.0
 20
0.0
 30
0.0
 40
0.047
 41
0.047
  0
VERTEX
  5
8693
  8
DETAIL
  6
CONTINUOUS
 10
8.821
 20
29.248
 30
0.0
 40
0.0
 41
0.0
  0
VERTEX
  5
8694
  8
DETAIL
  6
CONTINUOUS
 10
8.844
 20
29.248
 30
0.0
 40
0.0
 41
0.0
  0
VERTEX
  5
8695
  8
DETAIL
  6
CONTINUOUS
 10
8.844
 20
29.312
 30
0.0
 40
0.0
 41
0.0
  0
VERTEX
  5
8696
  8
DETAIL
  6
CONTINUOUS
 10
8.849
 20
29.325
 30
0.0
 40
0.0
 41
0.0
  0
SEQEND
  5
8697
  8
DETAIL
  6
CONTINUOUS
  0
POLYLINE
  5
8698
  8
DETAIL
  6
CONTINUOUS
 66
     1
 10
0.0
 20
0.0
 30
0.0
 40
0.047
 41
0.047
  0
VERTEX
  5
8699
  8
DETAIL
  6
CONTINUOUS
 10
8.821
 20
29.248
 30
0.0
 40
0.0
 41
0.0
  0
VERTEX
  5
869A
  8
DETAIL
  6
CONTINUOUS
 10
8.797
 20
29.248
 30
0.0
 40
0.0
 41
0.0
  0
VERTEX
  5
869B
  8
DETAIL
  6
CONTINUOUS
 10
8.797
 20
29.312
 30
0.0
 40
0.0
 41
0.0
  0
VERTEX
  5
869C
  8
DETAIL
  6
CONTINUOUS
 10
8.792
 20
29.325
 30
0.0
 40
0.0
 41
0.0
  0
SEQEND
  5
869D
  8
DETAIL
  6
CONTINUOUS
  0
POLYLINE
  5
869E
  8
DETAIL
  6
CONTINUOUS
 66
     1
 10
0.0
 20
0.0
 30
0.0
 40
0.047
 41
0.047
  0
VERTEX
  5
869F
  8
DETAIL
  6
CONTINUOUS
 10
8.926
 20
29.353
 30
0.0
 40
0.0
 41
0.0
  0
VERTEX
  5
86A0
  8
DETAIL
  6
CONTINUOUS
 10
8.926
 20
29.377
 30
0.0
 40
0.0
 41
0.0
  0
VERTEX
  5
86A1
  8
DETAIL
  6
CONTINUOUS
 10
8.862
 20
29.377
 30
0.0
 40
0.0
 41
0.0
  0
VERTEX
  5
86A2
  8
DETAIL
  6
CONTINUOUS
 10
8.849
 20
29.381
 30
0.0
 40
0.0
 41
0.0
  0
SEQEND
  5
86A3
  8
DETAIL
  6
CONTINUOUS
  0
POLYLINE
  5
86A4
  8
DETAIL
  6
CONTINUOUS
 66
     1
 10
0.0
 20
0.0
 30
0.0
 40
0.047
 41
0.047
  0
VERTEX
  5
86A5
  8
DETAIL
  6
CONTINUOUS
 10
8.926
 20
29.353
 30
0.0
 40
0.0
 41
0.0
  0
VERTEX
  5
86A6
  8
DETAIL
  6
CONTINUOUS
 10
8.926
 20
29.33
 30
0.0
 40
0.0
 41
0.0
  0
VERTEX
  5
86A7
  8
DETAIL
  6
CONTINUOUS
 10
8.862
 20
29.33
 30
0.0
 40
0.0
 41
0.0
  0
VERTEX
  5
86A8
  8
DETAIL
  6
CONTINUOUS
 10
8.849
 20
29.325
 30
0.0
 40
0.0
 41
0.0
  0
SEQEND
  5
86A9
  8
DETAIL
  6
CONTINUOUS
  0
POLYLINE
  5
86AA
  8
DETAIL
  6
CONTINUOUS
 66
     1
 10
0.0
 20
0.0
 30
0.0
 40
0.047
 41
0.047
  0
VERTEX
  5
86AB
  8
DETAIL
  6
CONTINUOUS
 10
8.821
 20
28.624
 30
0.0
 40
0.0
 41
0.0
  0
VERTEX
  5
86AC
  8
DETAIL
  6
CONTINUOUS
 10
8.844
 20
28.624
 30
0.0
 40
0.0
 41
0.0
  0
VERTEX
  5
86AD
  8
DETAIL
  6
CONTINUOUS
 10
8.844
 20
28.688
 30
0.0
 40
0.0
 41
0.0
  0
VERTEX
  5
86AE
  8
DETAIL
  6
CONTINUOUS
 10
8.849
 20
28.701
 30
0.0
 40
0.0
 41
0.0
  0
SEQEND
  5
86AF
  8
DETAIL
  6
CONTINUOUS
  0
POLYLINE
  5
86B0
  8
DETAIL
  6
CONTINUOUS
 66
     1
 10
0.0
 20
0.0
 30
0.0
 40
0.047
 41
0.047
  0
VERTEX
  5
86B1
  8
DETAIL
  6
CONTINUOUS
 10
8.821
 20
28.584
 30
0.0
 40
0.0
 41
0.0
  0
VERTEX
  5
86B2
  8
DETAIL
  6
CONTINUOUS
 10
8.896
 20
28.604
 30
0.0
 40
0.0
 41
0.0
  0
VERTEX
  5
86B3
  8
DETAIL
  6
CONTINUOUS
 10
8.949
 20
28.656
 30
0.0
 40
0.0
 41
0.0
  0
VERTEX
  5
86B4
  8
DETAIL
  6
CONTINUOUS
 10
8.969
 20
28.73
 30
0.0
 40
0.0
 41
0.0
  0
SEQEND
  5
86B5
  8
DETAIL
  6
CONTINUOUS
  0
POLYLINE
  5
86B6
  8
DETAIL
  6
CONTINUOUS
 66
     1
 10
0.0
 20
0.0
 30
0.0
 40
0.047
 41
0.047
  0
VERTEX
  5
86B7
  8
DETAIL
  6
CONTINUOUS
 10
8.926
 20
28.73
 30
0.0
 40
0.0
 41
0.0
  0
VERTEX
  5
86B8
  8
DETAIL
  6
CONTINUOUS
 10
8.926
 20
28.706
 30
0.0
 40
0.0
 41
0.0
  0
VERTEX
  5
86B9
  8
DETAIL
  6
CONTINUOUS
 10
8.862
 20
28.706
 30
0.0
 40
0.0
 41
0.0
  0
VERTEX
  5
86BA
  8
DETAIL
  6
CONTINUOUS
 10
8.849
 20
28.701
 30
0.0
 40
0.0
 41
0.0
  0
SEQEND
  5
86BB
  8
DETAIL
  6
CONTINUOUS
  0
POLYLINE
  5
86BC
  8
DETAIL
  6
CONTINUOUS
 66
     1
 10
0.0
 20
0.0
 30
0.0
 40
0.047
 41
0.047
  0
VERTEX
  5
86BD
  8
DETAIL
  6
CONTINUOUS
 10
8.926
 20
28.73
 30
0.0
 40
0.0
 41
0.0
  0
VERTEX
  5
86BE
  8
DETAIL
  6
CONTINUOUS
 10
8.926
 20
28.753
 30
0.0
 40
0.0
 41
0.0
  0
VERTEX
  5
86BF
  8
DETAIL
  6
CONTINUOUS
 10
8.862
 20
28.753
 30
0.0
 40
0.0
 41
0.0
  0
VERTEX
  5
86C0
  8
DETAIL
  6
CONTINUOUS
 10
8.849
 20
28.758
 30
0.0
 40
0.0
 41
0.0
  0
SEQEND
  5
86C1
  8
DETAIL
  6
CONTINUOUS
  0
POLYLINE
  5
86C2
  8
DETAIL
  6
CONTINUOUS
 66
     1
 10
0.0
 20
0.0
 30
0.0
 40
0.047
 41
0.047
  0
VERTEX
  5
86C3
  8
DETAIL
  6
CONTINUOUS
 10
8.969
 20
28.73
 30
0.0
 40
0.0
 41
0.0
  0
VERTEX
  5
86C4
  8
DETAIL
  6
CONTINUOUS
 10
8.949
 20
28.803
 30
0.0
 40
0.0
 41
0.0
  0
VERTEX
  5
86C5
  8
DETAIL
  6
CONTINUOUS
 10
8.896
 20
28.855
 30
0.0
 40
0.0
 41
0.0
  0
VERTEX
  5
86C6
  8
DETAIL
  6
CONTINUOUS
 10
8.821
 20
28.875
 30
0.0
 40
0.0
 41
0.0
  0
SEQEND
  5
86C7
  8
DETAIL
  6
CONTINUOUS
  0
POLYLINE
  5
86C8
  8
DETAIL
  6
CONTINUOUS
 66
     1
 10
0.0
 20
0.0
 30
0.0
 40
0.047
 41
0.047
  0
VERTEX
  5
86C9
  8
DETAIL
  6
CONTINUOUS
 10
8.821
 20
28.835
 30
0.0
 40
0.0
 41
0.0
  0
VERTEX
  5
86CA
  8
DETAIL
  6
CONTINUOUS
 10
8.844
 20
28.835
 30
0.0
 40
0.0
 41
0.0
  0
VERTEX
  5
86CB
  8
DETAIL
  6
CONTINUOUS
 10
8.844
 20
28.771
 30
0.0
 40
0.0
 41
0.0
  0
VERTEX
  5
86CC
  8
DETAIL
  6
CONTINUOUS
 10
8.849
 20
28.758
 30
0.0
 40
0.0
 41
0.0
  0
SEQEND
  5
86CD
  8
DETAIL
  6
CONTINUOUS
  0
POLYLINE
  5
86CE
  8
DETAIL
  6
CONTINUOUS
 66
     1
 10
0.0
 20
0.0
 30
0.0
 40
0.047
 41
0.047
  0
VERTEX
  5
86CF
  8
DETAIL
  6
CONTINUOUS
 10
8.821
 20
28.624
 30
0.0
 40
0.0
 41
0.0
  0
VERTEX
  5
86D0
  8
DETAIL
  6
CONTINUOUS
 10
8.797
 20
28.624
 30
0.0
 40
0.0
 41
0.0
  0
VERTEX
  5
86D1
  8
DETAIL
  6
CONTINUOUS
 10
8.797
 20
28.688
 30
0.0
 40
0.0
 41
0.0
  0
VERTEX
  5
86D2
  8
DETAIL
  6
CONTINUOUS
 10
8.792
 20
28.702
 30
0.0
 40
0.0
 41
0.0
  0
SEQEND
  5
86D3
  8
DETAIL
  6
CONTINUOUS
  0
POLYLINE
  5
86D4
  8
DETAIL
  6
CONTINUOUS
 66
     1
 10
0.0
 20
0.0
 30
0.0
 40
0.047
 41
0.047
  0
VERTEX
  5
86D5
  8
DETAIL
  6
CONTINUOUS
 10
8.673
 20
28.73
 30
0.0
 40
0.0
 41
0.0
  0
VERTEX
  5
86D6
  8
DETAIL
  6
CONTINUOUS
 10
8.693
 20
28.656
 30
0.0
 40
0.0
 41
0.0
  0
VERTEX
  5
86D7
  8
DETAIL
  6
CONTINUOUS
 10
8.746
 20
28.604
 30
0.0
 40
0.0
 41
0.0
  0
VERTEX
  5
86D8
  8
DETAIL
  6
CONTINUOUS
 10
8.821
 20
28.584
 30
0.0
 40
0.0
 41
0.0
  0
SEQEND
  5
86D9
  8
DETAIL
  6
CONTINUOUS
  0
POLYLINE
  5
86DA
  8
DETAIL
  6
CONTINUOUS
 66
     1
 10
0.0
 20
0.0
 30
0.0
 40
0.047
 41
0.047
  0
VERTEX
  5
86DB
  8
DETAIL
  6
CONTINUOUS
 10
8.715
 20
28.73
 30
0.0
 40
0.0
 41
0.0
  0
VERTEX
  5
86DC
  8
DETAIL
  6
CONTINUOUS
 10
8.715
 20
28.753
 30
0.0
 40
0.0
 41
0.0
  0
VERTEX
  5
86DD
  8
DETAIL
  6
CONTINUOUS
 10
8.78
 20
28.753
 30
0.0
 40
0.0
 41
0.0
  0
VERTEX
  5
86DE
  8
DETAIL
  6
CONTINUOUS
 10
8.793
 20
28.758
 30
0.0
 40
0.0
 41
0.0
  0
SEQEND
  5
86DF
  8
DETAIL
  6
CONTINUOUS
  0
POLYLINE
  5
86E0
  8
DETAIL
  6
CONTINUOUS
 66
     1
 10
0.0
 20
0.0
 30
0.0
 40
0.047
 41
0.047
  0
VERTEX
  5
86E1
  8
DETAIL
  6
CONTINUOUS
 10
8.715
 20
28.73
 30
0.0
 40
0.0
 41
0.0
  0
VERTEX
  5
86E2
  8
DETAIL
  6
CONTINUOUS
 10
8.715
 20
28.706
 30
0.0
 40
0.0
 41
0.0
  0
VERTEX
  5
86E3
  8
DETAIL
  6
CONTINUOUS
 10
8.78
 20
28.706
 30
0.0
 40
0.0
 41
0.0
  0
VERTEX
  5
86E4
  8
DETAIL
  6
CONTINUOUS
 10
8.792
 20
28.702
 30
0.0
 40
0.0
 41
0.0
  0
SEQEND
  5
86E5
  8
DETAIL
  6
CONTINUOUS
  0
POLYLINE
  5
86E6
  8
DETAIL
  6
CONTINUOUS
 66
     1
 10
0.0
 20
0.0
 30
0.0
 40
0.047
 41
0.047
  0
VERTEX
  5
86E7
  8
DETAIL
  6
CONTINUOUS
 10
8.821
 20
28.875
 30
0.0
 40
0.0
 41
0.0
  0
VERTEX
  5
86E8
  8
DETAIL
  6
CONTINUOUS
 10
8.746
 20
28.855
 30
0.0
 40
0.0
 41
0.0
  0
VERTEX
  5
86E9
  8
DETAIL
  6
CONTINUOUS
 10
8.693
 20
28.803
 30
0.0
 40
0.0
 41
0.0
  0
VERTEX
  5
86EA
  8
DETAIL
  6
CONTINUOUS
 10
8.673
 20
28.73
 30
0.0
 40
0.0
 41
0.0
  0
SEQEND
  5
86EB
  8
DETAIL
  6
CONTINUOUS
  0
POLYLINE
  5
86EC
  8
DETAIL
  6
CONTINUOUS
 66
     1
 10
0.0
 20
0.0
 30
0.0
 40
0.047
 41
0.047
  0
VERTEX
  5
86ED
  8
DETAIL
  6
CONTINUOUS
 10
8.821
 20
28.835
 30
0.0
 40
0.0
 41
0.0
  0
VERTEX
  5
86EE
  8
DETAIL
  6
CONTINUOUS
 10
8.797
 20
28.835
 30
0.0
 40
0.0
 41
0.0
  0
VERTEX
  5
86EF
  8
DETAIL
  6
CONTINUOUS
 10
8.797
 20
28.771
 30
0.0
 40
0.0
 41
0.0
  0
VERTEX
  5
86F0
  8
DETAIL
  6
CONTINUOUS
 10
8.793
 20
28.758
 30
0.0
 40
0.0
 41
0.0
  0
SEQEND
  5
86F1
  8
DETAIL
  6
CONTINUOUS
  0
POLYLINE
  5
86F2
  8
DETAIL
  6
CONTINUOUS
 66
     1
 10
0.0
 20
0.0
 30
0.0
 40
0.047
 41
0.047
  0
VERTEX
  5
86F3
  8
DETAIL
  6
CONTINUOUS
 10
4.354
 20
29.47
 30
0.0
 40
0.0
 41
0.0
  0
VERTEX
  5
86F4
  8
DETAIL
  6
CONTINUOUS
 10
4.378
 20
29.47
 30
0.0
 40
0.0
 41
0.0
  0
VERTEX
  5
86F5
  8
DETAIL
  6
CONTINUOUS
 10
4.378
 20
29.534
 30
0.0
 40
0.0
 41
0.0
  0
VERTEX
  5
86F6
  8
DETAIL
  6
CONTINUOUS
 10
4.382
 20
29.547
 30
0.0
 40
0.0
 41
0.0
  0
SEQEND
  5
86F7
  8
DETAIL
  6
CONTINUOUS
  0
POLYLINE
  5
86F8
  8
DETAIL
  6
CONTINUOUS
 66
     1
 10
0.0
 20
0.0
 30
0.0
 40
0.047
 41
0.047
  0
VERTEX
  5
86F9
  8
DETAIL
  6
CONTINUOUS
 10
4.46
 20
29.575
 30
0.0
 40
0.0
 41
0.0
  0
VERTEX
  5
86FA
  8
DETAIL
  6
CONTINUOUS
 10
4.46
 20
29.552
 30
0.0
 40
0.0
 41
0.0
  0
VERTEX
  5
86FB
  8
DETAIL
  6
CONTINUOUS
 10
4.395
 20
29.552
 30
0.0
 40
0.0
 41
0.0
  0
VERTEX
  5
86FC
  8
DETAIL
  6
CONTINUOUS
 10
4.382
 20
29.547
 30
0.0
 40
0.0
 41
0.0
  0
SEQEND
  5
86FD
  8
DETAIL
  6
CONTINUOUS
  0
POLYLINE
  5
86FE
  8
DETAIL
  6
CONTINUOUS
 66
     1
 10
0.0
 20
0.0
 30
0.0
 40
0.047
 41
0.047
  0
VERTEX
  5
86FF
  8
DETAIL
  6
CONTINUOUS
 10
4.46
 20
29.575
 30
0.0
 40
0.0
 41
0.0
  0
VERTEX
  5
8700
  8
DETAIL
  6
CONTINUOUS
 10
4.46
 20
29.599
 30
0.0
 40
0.0
 41
0.0
  0
VERTEX
  5
8701
  8
DETAIL
  6
CONTINUOUS
 10
4.395
 20
29.599
 30
0.0
 40
0.0
 41
0.0
  0
VERTEX
  5
8702
  8
DETAIL
  6
CONTINUOUS
 10
4.382
 20
29.603
 30
0.0
 40
0.0
 41
0.0
  0
SEQEND
  5
8703
  8
DETAIL
  6
CONTINUOUS
  0
POLYLINE
  5
8704
  8
DETAIL
  6
CONTINUOUS
 66
     1
 10
0.0
 20
0.0
 30
0.0
 40
0.047
 41
0.047
  0
VERTEX
  5
8705
  8
DETAIL
  6
CONTINUOUS
 10
4.354
 20
29.681
 30
0.0
 40
0.0
 41
0.0
  0
VERTEX
  5
8706
  8
DETAIL
  6
CONTINUOUS
 10
4.378
 20
29.681
 30
0.0
 40
0.0
 41
0.0
  0
VERTEX
  5
8707
  8
DETAIL
  6
CONTINUOUS
 10
4.378
 20
29.617
 30
0.0
 40
0.0
 41
0.0
  0
VERTEX
  5
8708
  8
DETAIL
  6
CONTINUOUS
 10
4.382
 20
29.603
 30
0.0
 40
0.0
 41
0.0
  0
SEQEND
  5
8709
  8
DETAIL
  6
CONTINUOUS
  0
POLYLINE
  5
870A
  8
DETAIL
  6
CONTINUOUS
 66
     1
 10
0.0
 20
0.0
 30
0.0
 40
0.047
 41
0.047
  0
VERTEX
  5
870B
  8
DETAIL
  6
CONTINUOUS
 10
4.354
 20
29.47
 30
0.0
 40
0.0
 41
0.0
  0
VERTEX
  5
870C
  8
DETAIL
  6
CONTINUOUS
 10
4.331
 20
29.47
 30
0.0
 40
0.0
 41
0.0
  0
VERTEX
  5
870D
  8
DETAIL
  6
CONTINUOUS
 10
4.331
 20
29.534
 30
0.0
 40
0.0
 41
0.0
  0
VERTEX
  5
870E
  8
DETAIL
  6
CONTINUOUS
 10
4.326
 20
29.547
 30
0.0
 40
0.0
 41
0.0
  0
SEQEND
  5
870F
  8
DETAIL
  6
CONTINUOUS
  0
POLYLINE
  5
8710
  8
DETAIL
  6
CONTINUOUS
 66
     1
 10
0.0
 20
0.0
 30
0.0
 40
0.047
 41
0.047
  0
VERTEX
  5
8711
  8
DETAIL
  6
CONTINUOUS
 10
4.249
 20
29.575
 30
0.0
 40
0.0
 41
0.0
  0
VERTEX
  5
8712
  8
DETAIL
  6
CONTINUOUS
 10
4.249
 20
29.599
 30
0.0
 40
0.0
 41
0.0
  0
VERTEX
  5
8713
  8
DETAIL
  6
CONTINUOUS
 10
4.313
 20
29.599
 30
0.0
 40
0.0
 41
0.0
  0
VERTEX
  5
8714
  8
DETAIL
  6
CONTINUOUS
 10
4.326
 20
29.604
 30
0.0
 40
0.0
 41
0.0
  0
SEQEND
  5
8715
  8
DETAIL
  6
CONTINUOUS
  0
POLYLINE
  5
8716
  8
DETAIL
  6
CONTINUOUS
 66
     1
 10
0.0
 20
0.0
 30
0.0
 40
0.047
 41
0.047
  0
VERTEX
  5
8717
  8
DETAIL
  6
CONTINUOUS
 10
4.249
 20
29.575
 30
0.0
 40
0.0
 41
0.0
  0
VERTEX
  5
8718
  8
DETAIL
  6
CONTINUOUS
 10
4.249
 20
29.552
 30
0.0
 40
0.0
 41
0.0
  0
VERTEX
  5
8719
  8
DETAIL
  6
CONTINUOUS
 10
4.313
 20
29.552
 30
0.0
 40
0.0
 41
0.0
  0
VERTEX
  5
871A
  8
DETAIL
  6
CONTINUOUS
 10
4.326
 20
29.547
 30
0.0
 40
0.0
 41
0.0
  0
SEQEND
  5
871B
  8
DETAIL
  6
CONTINUOUS
  0
POLYLINE
  5
871C
  8
DETAIL
  6
CONTINUOUS
 66
     1
 10
0.0
 20
0.0
 30
0.0
 40
0.047
 41
0.047
  0
VERTEX
  5
871D
  8
DETAIL
  6
CONTINUOUS
 10
4.354
 20
29.681
 30
0.0
 40
0.0
 41
0.0
  0
VERTEX
  5
871E
  8
DETAIL
  6
CONTINUOUS
 10
4.331
 20
29.681
 30
0.0
 40
0.0
 41
0.0
  0
VERTEX
  5
871F
  8
DETAIL
  6
CONTINUOUS
 10
4.33
 20
29.617
 30
0.0
 40
0.0
 41
0.0
  0
VERTEX
  5
8720
  8
DETAIL
  6
CONTINUOUS
 10
4.326
 20
29.604
 30
0.0
 40
0.0
 41
0.0
  0
SEQEND
  5
8721
  8
DETAIL
  6
CONTINUOUS
  0
POLYLINE
  5
8722
  8
DETAIL
  6
CONTINUOUS
 66
     1
 10
0.0
 20
0.0
 30
0.0
 40
0.047
 41
0.047
  0
VERTEX
  5
8723
  8
DETAIL
  6
CONTINUOUS
 10
5.298
 20
29.47
 30
0.0
 40
0.0
 41
0.0
  0
VERTEX
  5
8724
  8
DETAIL
  6
CONTINUOUS
 10
5.321
 20
29.47
 30
0.0
 40
0.0
 41
0.0
  0
VERTEX
  5
8725
  8
DETAIL
  6
CONTINUOUS
 10
5.321
 20
29.534
 30
0.0
 40
0.0
 41
0.0
  0
VERTEX
  5
8726
  8
DETAIL
  6
CONTINUOUS
 10
5.326
 20
29.547
 30
0.0
 40
0.0
 41
0.0
  0
SEQEND
  5
8727
  8
DETAIL
  6
CONTINUOUS
  0
POLYLINE
  5
8728
  8
DETAIL
  6
CONTINUOUS
 66
     1
 10
0.0
 20
0.0
 30
0.0
 40
0.047
 41
0.047
  0
VERTEX
  5
8729
  8
DETAIL
  6
CONTINUOUS
 10
5.298
 20
29.47
 30
0.0
 40
0.0
 41
0.0
  0
VERTEX
  5
872A
  8
DETAIL
  6
CONTINUOUS
 10
5.274
 20
29.47
 30
0.0
 40
0.0
 41
0.0
  0
VERTEX
  5
872B
  8
DETAIL
  6
CONTINUOUS
 10
5.274
 20
29.534
 30
0.0
 40
0.0
 41
0.0
  0
VERTEX
  5
872C
  8
DETAIL
  6
CONTINUOUS
 10
5.269
 20
29.547
 30
0.0
 40
0.0
 41
0.0
  0
SEQEND
  5
872D
  8
DETAIL
  6
CONTINUOUS
  0
POLYLINE
  5
872E
  8
DETAIL
  6
CONTINUOUS
 66
     1
 10
0.0
 20
0.0
 30
0.0
 40
0.047
 41
0.047
  0
VERTEX
  5
872F
  8
DETAIL
  6
CONTINUOUS
 10
5.403
 20
29.575
 30
0.0
 40
0.0
 41
0.0
  0
VERTEX
  5
8730
  8
DETAIL
  6
CONTINUOUS
 10
5.403
 20
29.552
 30
0.0
 40
0.0
 41
0.0
  0
VERTEX
  5
8731
  8
DETAIL
  6
CONTINUOUS
 10
5.339
 20
29.552
 30
0.0
 40
0.0
 41
0.0
  0
VERTEX
  5
8732
  8
DETAIL
  6
CONTINUOUS
 10
5.326
 20
29.547
 30
0.0
 40
0.0
 41
0.0
  0
SEQEND
  5
8733
  8
DETAIL
  6
CONTINUOUS
  0
POLYLINE
  5
8734
  8
DETAIL
  6
CONTINUOUS
 66
     1
 10
0.0
 20
0.0
 30
0.0
 40
0.047
 41
0.047
  0
VERTEX
  5
8735
  8
DETAIL
  6
CONTINUOUS
 10
5.403
 20
29.575
 30
0.0
 40
0.0
 41
0.0
  0
VERTEX
  5
8736
  8
DETAIL
  6
CONTINUOUS
 10
5.403
 20
29.599
 30
0.0
 40
0.0
 41
0.0
  0
VERTEX
  5
8737
  8
DETAIL
  6
CONTINUOUS
 10
5.339
 20
29.599
 30
0.0
 40
0.0
 41
0.0
  0
VERTEX
  5
8738
  8
DETAIL
  6
CONTINUOUS
 10
5.326
 20
29.603
 30
0.0
 40
0.0
 41
0.0
  0
SEQEND
  5
8739
  8
DETAIL
  6
CONTINUOUS
  0
POLYLINE
  5
873A
  8
DETAIL
  6
CONTINUOUS
 66
     1
 10
0.0
 20
0.0
 30
0.0
 40
0.047
 41
0.047
  0
VERTEX
  5
873B
  8
DETAIL
  6
CONTINUOUS
 10
5.192
 20
29.575
 30
0.0
 40
0.0
 41
0.0
  0
VERTEX
  5
873C
  8
DETAIL
  6
CONTINUOUS
 10
5.192
 20
29.599
 30
0.0
 40
0.0
 41
0.0
  0
VERTEX
  5
873D
  8
DETAIL
  6
CONTINUOUS
 10
5.256
 20
29.599
 30
0.0
 40
0.0
 41
0.0
  0
VERTEX
  5
873E
  8
DETAIL
  6
CONTINUOUS
 10
5.269
 20
29.604
 30
0.0
 40
0.0
 41
0.0
  0
SEQEND
  5
873F
  8
DETAIL
  6
CONTINUOUS
  0
POLYLINE
  5
8740
  8
DETAIL
  6
CONTINUOUS
 66
     1
 10
0.0
 20
0.0
 30
0.0
 40
0.047
 41
0.047
  0
VERTEX
  5
8741
  8
DETAIL
  6
CONTINUOUS
 10
5.192
 20
29.575
 30
0.0
 40
0.0
 41
0.0
  0
VERTEX
  5
8742
  8
DETAIL
  6
CONTINUOUS
 10
5.192
 20
29.552
 30
0.0
 40
0.0
 41
0.0
  0
VERTEX
  5
8743
  8
DETAIL
  6
CONTINUOUS
 10
5.256
 20
29.552
 30
0.0
 40
0.0
 41
0.0
  0
VERTEX
  5
8744
  8
DETAIL
  6
CONTINUOUS
 10
5.269
 20
29.547
 30
0.0
 40
0.0
 41
0.0
  0
SEQEND
  5
8745
  8
DETAIL
  6
CONTINUOUS
  0
POLYLINE
  5
8746
  8
DETAIL
  6
CONTINUOUS
 66
     1
 10
0.0
 20
0.0
 30
0.0
 40
0.047
 41
0.047
  0
VERTEX
  5
8747
  8
DETAIL
  6
CONTINUOUS
 10
5.298
 20
29.681
 30
0.0
 40
0.0
 41
0.0
  0
VERTEX
  5
8748
  8
DETAIL
  6
CONTINUOUS
 10
5.321
 20
29.681
 30
0.0
 40
0.0
 41
0.0
  0
VERTEX
  5
8749
  8
DETAIL
  6
CONTINUOUS
 10
5.321
 20
29.617
 30
0.0
 40
0.0
 41
0.0
  0
VERTEX
  5
874A
  8
DETAIL
  6
CONTINUOUS
 10
5.326
 20
29.603
 30
0.0
 40
0.0
 41
0.0
  0
SEQEND
  5
874B
  8
DETAIL
  6
CONTINUOUS
  0
POLYLINE
  5
874C
  8
DETAIL
  6
CONTINUOUS
 66
     1
 10
0.0
 20
0.0
 30
0.0
 40
0.047
 41
0.047
  0
VERTEX
  5
874D
  8
DETAIL
  6
CONTINUOUS
 10
5.298
 20
29.681
 30
0.0
 40
0.0
 41
0.0
  0
VERTEX
  5
874E
  8
DETAIL
  6
CONTINUOUS
 10
5.274
 20
29.681
 30
0.0
 40
0.0
 41
0.0
  0
VERTEX
  5
874F
  8
DETAIL
  6
CONTINUOUS
 10
5.274
 20
29.617
 30
0.0
 40
0.0
 41
0.0
  0
VERTEX
  5
8750
  8
DETAIL
  6
CONTINUOUS
 10
5.269
 20
29.604
 30
0.0
 40
0.0
 41
0.0
  0
SEQEND
  5
8751
  8
DETAIL
  6
CONTINUOUS
  0
POLYLINE
  5
8752
  8
DETAIL
  6
CONTINUOUS
 66
     1
 10
0.0
 20
0.0
 30
0.0
 40
0.047
 41
0.047
  0
VERTEX
  5
8753
  8
DETAIL
  6
CONTINUOUS
 10
5.643
 20
29.73
 30
0.0
 40
0.0
 41
0.0
  0
VERTEX
  5
8754
  8
DETAIL
  6
CONTINUOUS
 10
5.643
 20
28.728
 30
0.0
 40
0.0
 41
0.0
  0
SEQEND
  5
8755
  8
DETAIL
  6
CONTINUOUS
  0
POLYLINE
  5
8756
  8
DETAIL
  6
CONTINUOUS
 66
     1
 10
0.0
 20
0.0
 30
0.0
 40
0.023
 41
0.023
  0
VERTEX
  5
8757
  8
DETAIL
  6
CONTINUOUS
 10
5.535
 20
29.838
 30
0.0
 40
0.0
 41
0.0
  0
VERTEX
  5
8758
  8
DETAIL
  6
CONTINUOUS
 10
5.535
 20
28.62
 30
0.0
 40
0.0
 41
0.0
  0
SEQEND
  5
8759
  8
DETAIL
  6
CONTINUOUS
  0
LINE
  5
875A
  8
DETAIL
  6
CONTINUOUS
 10
4.571
 20
28.068
 30
0.0
 11
4.571
 21
30.595
 31
0.0
  0
LINE
  5
875B
  8
DETAIL
  6
CONTINUOUS
 10
17.321
 20
28.068
 30
0.0
 11
17.321
 21
30.595
 31
0.0
  0
LINE
  5
875C
  8
DETAIL
  6
CONTINUOUS
 10
30.071
 20
28.068
 30
0.0
 11
30.071
 21
30.595
 31
0.0
  0
POLYLINE
  5
875D
  8
DETAIL
  6
CONTINUOUS
 66
     1
 10
0.0
 20
0.0
 30
0.0
 40
0.023
 41
0.023
  0
VERTEX
  5
875E
  8
DETAIL
  6
CONTINUOUS
 10
17.837
 20
29.237
 30
0.0
 40
0.0
 41
0.0
  0
VERTEX
  5
875F
  8
DETAIL
  6
CONTINUOUS
 10
17.703
 20
29.201
 30
0.0
 40
0.0
 41
0.0
  0
VERTEX
  5
8760
  8
DETAIL
  6
CONTINUOUS
 10
17.608
 20
29.106
 30
0.0
 40
0.0
 41
0.0
  0
VERTEX
  5
8761
  8
DETAIL
  6
CONTINUOUS
 10
17.571
 20
28.972
 30
0.0
 40
0.0
 41
0.0
  0
SEQEND
  5
8762
  8
DETAIL
  6
CONTINUOUS
  0
POLYLINE
  5
8763
  8
DETAIL
  6
CONTINUOUS
 66
     1
 10
0.0
 20
0.0
 30
0.0
 40
0.023
 41
0.023
  0
VERTEX
  5
8764
  8
DETAIL
  6
CONTINUOUS
 10
17.837
 20
29.168
 30
0.0
 40
0.0
 41
0.0
  0
VERTEX
  5
8765
  8
DETAIL
  6
CONTINUOUS
 10
17.736
 20
29.141
 30
0.0
 40
0.0
 41
0.0
  0
VERTEX
  5
8766
  8
DETAIL
  6
CONTINUOUS
 10
17.665
 20
29.069
 30
0.0
 40
0.0
 41
0.0
  0
VERTEX
  5
8767
  8
DETAIL
  6
CONTINUOUS
 10
17.638
 20
28.969
 30
0.0
 40
0.0
 41
0.0
  0
SEQEND
  5
8768
  8
DETAIL
  6
CONTINUOUS
  0
POLYLINE
  5
8769
  8
DETAIL
  6
CONTINUOUS
 66
     1
 10
0.0
 20
0.0
 30
0.0
 40
0.023
 41
0.023
  0
VERTEX
  5
876A
  8
DETAIL
  6
CONTINUOUS
 10
17.571
 20
28.972
 30
0.0
 40
0.0
 41
0.0
  0
VERTEX
  5
876B
  8
DETAIL
  6
CONTINUOUS
 10
17.608
 20
28.838
 30
0.0
 40
0.0
 41
0.0
  0
VERTEX
  5
876C
  8
DETAIL
  6
CONTINUOUS
 10
17.703
 20
28.743
 30
0.0
 40
0.0
 41
0.0
  0
VERTEX
  5
876D
  8
DETAIL
  6
CONTINUOUS
 10
17.837
 20
28.707
 30
0.0
 40
0.0
 41
0.0
  0
SEQEND
  5
876E
  8
DETAIL
  6
CONTINUOUS
  0
POLYLINE
  5
876F
  8
DETAIL
  6
CONTINUOUS
 66
     1
 10
0.0
 20
0.0
 30
0.0
 40
0.023
 41
0.023
  0
VERTEX
  5
8770
  8
DETAIL
  6
CONTINUOUS
 10
17.638
 20
28.969
 30
0.0
 40
0.0
 41
0.0
  0
VERTEX
  5
8771
  8
DETAIL
  6
CONTINUOUS
 10
17.665
 20
28.869
 30
0.0
 40
0.0
 41
0.0
  0
VERTEX
  5
8772
  8
DETAIL
  6
CONTINUOUS
 10
17.736
 20
28.797
 30
0.0
 40
0.0
 41
0.0
  0
VERTEX
  5
8773
  8
DETAIL
  6
CONTINUOUS
 10
17.837
 20
28.77
 30
0.0
 40
0.0
 41
0.0
  0
SEQEND
  5
8774
  8
DETAIL
  6
CONTINUOUS
  0
POLYLINE
  5
8775
  8
DETAIL
  6
CONTINUOUS
 66
     1
 10
0.0
 20
0.0
 30
0.0
 40
0.047
 41
0.047
  0
VERTEX
  5
8776
  8
DETAIL
  6
CONTINUOUS
 10
18.285
 20
28.62
 30
0.0
 40
0.0
 41
0.0
  0
VERTEX
  5
8777
  8
DETAIL
  6
CONTINUOUS
 10
16.196
 20
28.62
 30
0.0
 40
0.0
 41
0.0
  0
VERTEX
  5
8778
  8
DETAIL
  6
CONTINUOUS
 10
16.079
 20
28.855
 30
0.0
 40
0.0
 41
0.0
  0
VERTEX
  5
8779
  8
DETAIL
  6
CONTINUOUS
 10
16.079
 20
29.558
 30
0.0
 40
0.0
 41
0.0
  0
VERTEX
  5
877A
  8
DETAIL
  6
CONTINUOUS
 10
16.196
 20
29.839
 30
0.0
 40
0.0
 41
0.0
  0
SEQEND
  5
877B
  8
DETAIL
  6
CONTINUOUS
  0
POLYLINE
  5
877C
  8
DETAIL
  6
CONTINUOUS
 66
     1
 10
0.0
 20
0.0
 30
0.0
 70
     1
 40
0.023
 41
0.023
  0
VERTEX
  5
877D
  8
DETAIL
  6
CONTINUOUS
 10
16.881
 20
29.388
 30
0.0
 40
0.0
 41
0.0
  0
VERTEX
  5
877E
  8
DETAIL
  6
CONTINUOUS
 10
16.904
 20
29.335
 30
0.0
 40
0.0
 41
0.0
  0
VERTEX
  5
877F
  8
DETAIL
  6
CONTINUOUS
 10
16.968
 20
29.236
 30
0.0
 40
0.0
 41
0.0
  0
VERTEX
  5
8780
  8
DETAIL
  6
CONTINUOUS
 10
17.069
 20
29.183
 30
0.0
 40
0.0
 41
0.0
  0
VERTEX
  5
8781
  8
DETAIL
  6
CONTINUOUS
 10
17.173
 20
29.2
 30
0.0
 40
0.0
 41
0.0
  0
VERTEX
  5
8782
  8
DETAIL
  6
CONTINUOUS
 10
17.267
 20
29.254
 30
0.0
 40
0.0
 41
0.0
  0
VERTEX
  5
8783
  8
DETAIL
  6
CONTINUOUS
 10
17.356
 20
29.353
 30
0.0
 40
0.0
 41
0.0
  0
VERTEX
  5
8784
  8
DETAIL
  6
CONTINUOUS
 10
17.508
 20
29.394
 30
0.0
 40
0.0
 41
0.0
  0
VERTEX
  5
8785
  8
DETAIL
  6
CONTINUOUS
 10
17.74
 20
29.391
 30
0.0
 40
0.0
 41
0.0
  0
VERTEX
  5
8786
  8
DETAIL
  6
CONTINUOUS
 10
17.872
 20
29.382
 30
0.0
 40
0.0
 41
0.0
  0
VERTEX
  5
8787
  8
DETAIL
  6
CONTINUOUS
 10
17.942
 20
29.355
 30
0.0
 40
0.0
 41
0.0
  0
VERTEX
  5
8788
  8
DETAIL
  6
CONTINUOUS
 10
18.058
 20
29.292
 30
0.0
 40
0.0
 41
0.0
  0
VERTEX
  5
8789
  8
DETAIL
  6
CONTINUOUS
 10
18.147
 20
29.218
 30
0.0
 40
0.0
 41
0.0
  0
VERTEX
  5
878A
  8
DETAIL
  6
CONTINUOUS
 10
18.207
 20
29.049
 30
0.0
 40
0.0
 41
0.0
  0
VERTEX
  5
878B
  8
DETAIL
  6
CONTINUOUS
 10
18.263
 20
28.795
 30
0.0
 40
0.0
 41
0.0
  0
VERTEX
  5
878C
  8
DETAIL
  6
CONTINUOUS
 10
18.288
 20
28.626
 30
0.0
 40
0.0
 41
0.0
  0
VERTEX
  5
878D
  8
DETAIL
  6
CONTINUOUS
 10
18.165
 20
28.536
 30
0.0
 40
0.0
 41
0.0
  0
VERTEX
  5
878E
  8
DETAIL
  6
CONTINUOUS
 10
17.914
 20
28.441
 30
0.0
 40
0.0
 41
0.0
  0
VERTEX
  5
878F
  8
DETAIL
  6
CONTINUOUS
 10
17.714
 20
28.398
 30
0.0
 40
0.0
 41
0.0
  0
VERTEX
  5
8790
  8
DETAIL
  6
CONTINUOUS
 10
17.69
 20
28.437
 30
0.0
 40
0.0
 41
0.0
  0
VERTEX
  5
8791
  8
DETAIL
  6
CONTINUOUS
 10
17.676
 20
28.51
 30
0.0
 40
0.0
 41
0.0
  0
VERTEX
  5
8792
  8
DETAIL
  6
CONTINUOUS
 10
17.672
 20
28.55
 30
0.0
 40
0.0
 41
0.0
  0
VERTEX
  5
8793
  8
DETAIL
  6
CONTINUOUS
 10
17.649
 20
28.551
 30
0.0
 40
0.0
 41
0.0
  0
VERTEX
  5
8794
  8
DETAIL
  6
CONTINUOUS
 10
17.602
 20
28.551
 30
0.0
 40
0.0
 41
0.0
  0
VERTEX
  5
8795
  8
DETAIL
  6
CONTINUOUS
 10
17.567
 20
28.544
 30
0.0
 40
0.0
 41
0.0
  0
VERTEX
  5
8796
  8
DETAIL
  6
CONTINUOUS
 10
17.549
 20
28.403
 30
0.0
 40
0.0
 41
0.0
  0
VERTEX
  5
8797
  8
DETAIL
  6
CONTINUOUS
 10
17.36
 20
28.412
 30
0.0
 40
0.0
 41
0.0
  0
VERTEX
  5
8798
  8
DETAIL
  6
CONTINUOUS
 10
17.116
 20
28.514
 30
0.0
 40
0.0
 41
0.0
  0
VERTEX
  5
8799
  8
DETAIL
  6
CONTINUOUS
 10
16.899
 20
28.714
 30
0.0
 40
0.0
 41
0.0
  0
VERTEX
  5
879A
  8
DETAIL
  6
CONTINUOUS
 10
16.981
 20
28.802
 30
0.0
 40
0.0
 41
0.0
  0
VERTEX
  5
879B
  8
DETAIL
  6
CONTINUOUS
 10
16.922
 20
28.89
 30
0.0
 40
0.0
 41
0.0
  0
VERTEX
  5
879C
  8
DETAIL
  6
CONTINUOUS
 10
16.829
 20
28.849
 30
0.0
 40
0.0
 41
0.0
  0
VERTEX
  5
879D
  8
DETAIL
  6
CONTINUOUS
 10
16.788
 20
28.925
 30
0.0
 40
0.0
 41
0.0
  0
VERTEX
  5
879E
  8
DETAIL
  6
CONTINUOUS
 10
16.858
 20
28.984
 30
0.0
 40
0.0
 41
0.0
  0
VERTEX
  5
879F
  8
DETAIL
  6
CONTINUOUS
 10
16.829
 20
29.071
 30
0.0
 40
0.0
 41
0.0
  0
VERTEX
  5
87A0
  8
DETAIL
  6
CONTINUOUS
 10
16.741
 20
29.054
 30
0.0
 40
0.0
 41
0.0
  0
VERTEX
  5
87A1
  8
DETAIL
  6
CONTINUOUS
 10
16.717
 20
29.13
 30
0.0
 40
0.0
 41
0.0
  0
VERTEX
  5
87A2
  8
DETAIL
  6
CONTINUOUS
 10
16.805
 20
29.189
 30
0.0
 40
0.0
 41
0.0
  0
VERTEX
  5
87A3
  8
DETAIL
  6
CONTINUOUS
 10
16.782
 20
29.277
 30
0.0
 40
0.0
 41
0.0
  0
VERTEX
  5
87A4
  8
DETAIL
  6
CONTINUOUS
 10
16.694
 20
29.265
 30
0.0
 40
0.0
 41
0.0
  0
VERTEX
  5
87A5
  8
DETAIL
  6
CONTINUOUS
 10
16.665
 20
29.341
 30
0.0
 40
0.0
 41
0.0
  0
SEQEND
  5
87A6
  8
DETAIL
  6
CONTINUOUS
  0
POLYLINE
  5
87A7
  8
DETAIL
  6
CONTINUOUS
 66
     1
 10
0.0
 20
0.0
 30
0.0
 40
0.047
 41
0.047
  0
VERTEX
  5
87A8
  8
DETAIL
  6
CONTINUOUS
 10
16.196
 20
29.839
 30
0.0
 40
0.0
 41
0.0
  0
VERTEX
  5
87A9
  8
DETAIL
  6
CONTINUOUS
 10
18.285
 20
29.838
 30
0.0
 40
0.0
 41
0.0
  0
SEQEND
  5
87AA
  8
DETAIL
  6
CONTINUOUS
  0
LINE
  5
87AB
  8
DETAIL
  6
CONTINUOUS
 10
17.321
 20
28.068
 30
0.0
 11
17.321
 21
30.595
 31
0.0
  0
POLYLINE
  5
87AC
  8
DETAIL
  6
CONTINUOUS
 66
     1
 10
0.0
 20
0.0
 30
0.0
 40
0.023
 41
0.023
  0
VERTEX
  5
87AD
  8
DETAIL
  6
CONTINUOUS
 10
16.5
 20
30.629
 30
0.0
 40
0.0
 41
0.0
  0
VERTEX
  5
87AE
  8
DETAIL
  6
CONTINUOUS
 10
16.5
 20
28.066
 30
0.0
 40
0.0
 41
0.0
  0
SEQEND
  5
87AF
  8
DETAIL
  6
CONTINUOUS
  0
POLYLINE
  5
87B0
  8
DETAIL
  6
CONTINUOUS
 66
     1
 10
0.0
 20
0.0
 30
0.0
 70
     1
 40
0.023
 41
0.023
  0
VERTEX
  5
87B1
  8
DETAIL
  6
CONTINUOUS
 10
16.26
 20
28.626
 30
0.0
 40
0.0
 41
0.0
  0
VERTEX
  5
87B2
  8
DETAIL
  6
CONTINUOUS
 10
16.155
 20
28.878
 30
0.0
 40
0.0
 41
0.0
  0
VERTEX
  5
87B3
  8
DETAIL
  6
CONTINUOUS
 10
16.154
 20
29.529
 30
0.0
 40
0.0
 41
0.0
  0
VERTEX
  5
87B4
  8
DETAIL
  6
CONTINUOUS
 10
16.266
 20
29.839
 30
0.0
 40
0.0
 41
0.0
  0
VERTEX
  5
87B5
  8
DETAIL
  6
CONTINUOUS
 10
16.325
 20
29.734
 30
0.0
 40
0.0
 41
0.0
  0
VERTEX
  5
87B6
  8
DETAIL
  6
CONTINUOUS
 10
16.325
 20
28.743
 30
0.0
 40
0.0
 41
0.0
  0
SEQEND
  5
87B7
  8
DETAIL
  6
CONTINUOUS
  0
POLYLINE
  5
87B8
  8
DETAIL
  6
CONTINUOUS
 66
     1
 10
0.0
 20
0.0
 30
0.0
 40
0.023
 41
0.023
  0
VERTEX
  5
87B9
  8
DETAIL
  6
CONTINUOUS
 10
17.286
 20
29.575
 30
0.0
 40
0.0
 41
0.0
  0
VERTEX
  5
87BA
  8
DETAIL
  6
CONTINUOUS
 10
17.261
 20
29.667
 30
0.0
 40
0.0
 41
0.0
  0
VERTEX
  5
87BB
  8
DETAIL
  6
CONTINUOUS
 10
17.196
 20
29.733
 30
0.0
 40
0.0
 41
0.0
  0
VERTEX
  5
87BC
  8
DETAIL
  6
CONTINUOUS
 10
17.104
 20
29.758
 30
0.0
 40
0.0
 41
0.0
  0
SEQEND
  5
87BD
  8
DETAIL
  6
CONTINUOUS
  0
POLYLINE
  5
87BE
  8
DETAIL
  6
CONTINUOUS
 66
     1
 10
0.0
 20
0.0
 30
0.0
 40
0.023
 41
0.023
  0
VERTEX
  5
87BF
  8
DETAIL
  6
CONTINUOUS
 10
17.104
 20
29.758
 30
0.0
 40
0.0
 41
0.0
  0
VERTEX
  5
87C0
  8
DETAIL
  6
CONTINUOUS
 10
17.012
 20
29.733
 30
0.0
 40
0.0
 41
0.0
  0
VERTEX
  5
87C1
  8
DETAIL
  6
CONTINUOUS
 10
16.947
 20
29.667
 30
0.0
 40
0.0
 41
0.0
  0
VERTEX
  5
87C2
  8
DETAIL
  6
CONTINUOUS
 10
16.922
 20
29.575
 30
0.0
 40
0.0
 41
0.0
  0
SEQEND
  5
87C3
  8
DETAIL
  6
CONTINUOUS
  0
POLYLINE
  5
87C4
  8
DETAIL
  6
CONTINUOUS
 66
     1
 10
0.0
 20
0.0
 30
0.0
 40
0.047
 41
0.047
  0
VERTEX
  5
87C5
  8
DETAIL
  6
CONTINUOUS
 10
16.155
 20
28.878
 30
0.0
 40
0.0
 41
0.0
  0
VERTEX
  5
87C6
  8
DETAIL
  6
CONTINUOUS
 10
16.084
 20
28.855
 30
0.0
 40
0.0
 41
0.0
  0
SEQEND
  5
87C7
  8
DETAIL
  6
CONTINUOUS
  0
POLYLINE
  5
87C8
  8
DETAIL
  6
CONTINUOUS
 66
     1
 10
0.0
 20
0.0
 30
0.0
 40
0.047
 41
0.047
  0
VERTEX
  5
87C9
  8
DETAIL
  6
CONTINUOUS
 10
16.154
 20
29.529
 30
0.0
 40
0.0
 41
0.0
  0
VERTEX
  5
87CA
  8
DETAIL
  6
CONTINUOUS
 10
16.079
 20
29.558
 30
0.0
 40
0.0
 41
0.0
  0
SEQEND
  5
87CB
  8
DETAIL
  6
CONTINUOUS
  0
POLYLINE
  5
87CC
  8
DETAIL
  6
CONTINUOUS
 66
     1
 10
0.0
 20
0.0
 30
0.0
 40
0.023
 41
0.023
  0
VERTEX
  5
87CD
  8
DETAIL
  6
CONTINUOUS
 10
17.104
 20
29.393
 30
0.0
 40
0.0
 41
0.0
  0
VERTEX
  5
87CE
  8
DETAIL
  6
CONTINUOUS
 10
17.196
 20
29.418
 30
0.0
 40
0.0
 41
0.0
  0
VERTEX
  5
87CF
  8
DETAIL
  6
CONTINUOUS
 10
17.261
 20
29.483
 30
0.0
 40
0.0
 41
0.0
  0
VERTEX
  5
87D0
  8
DETAIL
  6
CONTINUOUS
 10
17.286
 20
29.575
 30
0.0
 40
0.0
 41
0.0
  0
SEQEND
  5
87D1
  8
DETAIL
  6
CONTINUOUS
  0
POLYLINE
  5
87D2
  8
DETAIL
  6
CONTINUOUS
 66
     1
 10
0.0
 20
0.0
 30
0.0
 40
0.047
 41
0.047
  0
VERTEX
  5
87D3
  8
DETAIL
  6
CONTINUOUS
 10
17.21
 20
29.575
 30
0.0
 40
0.0
 41
0.0
  0
VERTEX
  5
87D4
  8
DETAIL
  6
CONTINUOUS
 10
17.21
 20
29.552
 30
0.0
 40
0.0
 41
0.0
  0
VERTEX
  5
87D5
  8
DETAIL
  6
CONTINUOUS
 10
17.145
 20
29.552
 30
0.0
 40
0.0
 41
0.0
  0
VERTEX
  5
87D6
  8
DETAIL
  6
CONTINUOUS
 10
17.132
 20
29.547
 30
0.0
 40
0.0
 41
0.0
  0
SEQEND
  5
87D7
  8
DETAIL
  6
CONTINUOUS
  0
POLYLINE
  5
87D8
  8
DETAIL
  6
CONTINUOUS
 66
     1
 10
0.0
 20
0.0
 30
0.0
 40
0.047
 41
0.047
  0
VERTEX
  5
87D9
  8
DETAIL
  6
CONTINUOUS
 10
17.21
 20
29.575
 30
0.0
 40
0.0
 41
0.0
  0
VERTEX
  5
87DA
  8
DETAIL
  6
CONTINUOUS
 10
17.21
 20
29.599
 30
0.0
 40
0.0
 41
0.0
  0
VERTEX
  5
87DB
  8
DETAIL
  6
CONTINUOUS
 10
17.145
 20
29.599
 30
0.0
 40
0.0
 41
0.0
  0
VERTEX
  5
87DC
  8
DETAIL
  6
CONTINUOUS
 10
17.132
 20
29.603
 30
0.0
 40
0.0
 41
0.0
  0
SEQEND
  5
87DD
  8
DETAIL
  6
CONTINUOUS
  0
POLYLINE
  5
87DE
  8
DETAIL
  6
CONTINUOUS
 66
     1
 10
0.0
 20
0.0
 30
0.0
 40
0.047
 41
0.047
  0
VERTEX
  5
87DF
  8
DETAIL
  6
CONTINUOUS
 10
17.104
 20
29.47
 30
0.0
 40
0.0
 41
0.0
  0
VERTEX
  5
87E0
  8
DETAIL
  6
CONTINUOUS
 10
17.128
 20
29.47
 30
0.0
 40
0.0
 41
0.0
  0
VERTEX
  5
87E1
  8
DETAIL
  6
CONTINUOUS
 10
17.128
 20
29.534
 30
0.0
 40
0.0
 41
0.0
  0
VERTEX
  5
87E2
  8
DETAIL
  6
CONTINUOUS
 10
17.132
 20
29.547
 30
0.0
 40
0.0
 41
0.0
  0
SEQEND
  5
87E3
  8
DETAIL
  6
CONTINUOUS
  0
POLYLINE
  5
87E4
  8
DETAIL
  6
CONTINUOUS
 66
     1
 10
0.0
 20
0.0
 30
0.0
 40
0.047
 41
0.047
  0
VERTEX
  5
87E5
  8
DETAIL
  6
CONTINUOUS
 10
17.104
 20
29.47
 30
0.0
 40
0.0
 41
0.0
  0
VERTEX
  5
87E6
  8
DETAIL
  6
CONTINUOUS
 10
17.081
 20
29.47
 30
0.0
 40
0.0
 41
0.0
  0
VERTEX
  5
87E7
  8
DETAIL
  6
CONTINUOUS
 10
17.081
 20
29.534
 30
0.0
 40
0.0
 41
0.0
  0
VERTEX
  5
87E8
  8
DETAIL
  6
CONTINUOUS
 10
17.076
 20
29.547
 30
0.0
 40
0.0
 41
0.0
  0
SEQEND
  5
87E9
  8
DETAIL
  6
CONTINUOUS
  0
POLYLINE
  5
87EA
  8
DETAIL
  6
CONTINUOUS
 66
     1
 10
0.0
 20
0.0
 30
0.0
 40
0.023
 41
0.023
  0
VERTEX
  5
87EB
  8
DETAIL
  6
CONTINUOUS
 10
16.922
 20
29.575
 30
0.0
 40
0.0
 41
0.0
  0
VERTEX
  5
87EC
  8
DETAIL
  6
CONTINUOUS
 10
16.947
 20
29.483
 30
0.0
 40
0.0
 41
0.0
  0
VERTEX
  5
87ED
  8
DETAIL
  6
CONTINUOUS
 10
17.012
 20
29.418
 30
0.0
 40
0.0
 41
0.0
  0
VERTEX
  5
87EE
  8
DETAIL
  6
CONTINUOUS
 10
17.104
 20
29.393
 30
0.0
 40
0.0
 41
0.0
  0
SEQEND
  5
87EF
  8
DETAIL
  6
CONTINUOUS
  0
POLYLINE
  5
87F0
  8
DETAIL
  6
CONTINUOUS
 66
     1
 10
0.0
 20
0.0
 30
0.0
 40
0.047
 41
0.047
  0
VERTEX
  5
87F1
  8
DETAIL
  6
CONTINUOUS
 10
16.999
 20
29.575
 30
0.0
 40
0.0
 41
0.0
  0
VERTEX
  5
87F2
  8
DETAIL
  6
CONTINUOUS
 10
16.999
 20
29.599
 30
0.0
 40
0.0
 41
0.0
  0
VERTEX
  5
87F3
  8
DETAIL
  6
CONTINUOUS
 10
17.063
 20
29.599
 30
0.0
 40
0.0
 41
0.0
  0
VERTEX
  5
87F4
  8
DETAIL
  6
CONTINUOUS
 10
17.076
 20
29.604
 30
0.0
 40
0.0
 41
0.0
  0
SEQEND
  5
87F5
  8
DETAIL
  6
CONTINUOUS
  0
POLYLINE
  5
87F6
  8
DETAIL
  6
CONTINUOUS
 66
     1
 10
0.0
 20
0.0
 30
0.0
 40
0.047
 41
0.047
  0
VERTEX
  5
87F7
  8
DETAIL
  6
CONTINUOUS
 10
16.999
 20
29.575
 30
0.0
 40
0.0
 41
0.0
  0
VERTEX
  5
87F8
  8
DETAIL
  6
CONTINUOUS
 10
16.999
 20
29.552
 30
0.0
 40
0.0
 41
0.0
  0
VERTEX
  5
87F9
  8
DETAIL
  6
CONTINUOUS
 10
17.063
 20
29.552
 30
0.0
 40
0.0
 41
0.0
  0
VERTEX
  5
87FA
  8
DETAIL
  6
CONTINUOUS
 10
17.076
 20
29.547
 30
0.0
 40
0.0
 41
0.0
  0
SEQEND
  5
87FB
  8
DETAIL
  6
CONTINUOUS
  0
POLYLINE
  5
87FC
  8
DETAIL
  6
CONTINUOUS
 66
     1
 10
0.0
 20
0.0
 30
0.0
 40
0.047
 41
0.047
  0
VERTEX
  5
87FD
  8
DETAIL
  6
CONTINUOUS
 10
17.104
 20
29.681
 30
0.0
 40
0.0
 41
0.0
  0
VERTEX
  5
87FE
  8
DETAIL
  6
CONTINUOUS
 10
17.128
 20
29.681
 30
0.0
 40
0.0
 41
0.0
  0
VERTEX
  5
87FF
  8
DETAIL
  6
CONTINUOUS
 10
17.128
 20
29.617
 30
0.0
 40
0.0
 41
0.0
  0
VERTEX
  5
8800
  8
DETAIL
  6
CONTINUOUS
 10
17.132
 20
29.603
 30
0.0
 40
0.0
 41
0.0
  0
SEQEND
  5
8801
  8
DETAIL
  6
CONTINUOUS
  0
POLYLINE
  5
8802
  8
DETAIL
  6
CONTINUOUS
 66
     1
 10
0.0
 20
0.0
 30
0.0
 40
0.047
 41
0.047
  0
VERTEX
  5
8803
  8
DETAIL
  6
CONTINUOUS
 10
17.104
 20
29.681
 30
0.0
 40
0.0
 41
0.0
  0
VERTEX
  5
8804
  8
DETAIL
  6
CONTINUOUS
 10
17.081
 20
29.681
 30
0.0
 40
0.0
 41
0.0
  0
VERTEX
  5
8805
  8
DETAIL
  6
CONTINUOUS
 10
17.08
 20
29.617
 30
0.0
 40
0.0
 41
0.0
  0
VERTEX
  5
8806
  8
DETAIL
  6
CONTINUOUS
 10
17.076
 20
29.604
 30
0.0
 40
0.0
 41
0.0
  0
SEQEND
  5
8807
  8
DETAIL
  6
CONTINUOUS
  0
POLYLINE
  5
8808
  8
DETAIL
  6
CONTINUOUS
 66
     1
 10
0.0
 20
0.0
 30
0.0
 40
0.023
 41
0.023
  0
VERTEX
  5
8809
  8
DETAIL
  6
CONTINUOUS
 10
18.285
 20
29.838
 30
0.0
 40
0.0
 41
0.0
  0
VERTEX
  5
880A
  8
DETAIL
  6
CONTINUOUS
 10
18.285
 20
28.62
 30
0.0
 40
0.0
 41
0.0
  0
SEQEND
  5
880B
  8
DETAIL
  6
CONTINUOUS
  0
POLYLINE
  5
880C
  8
DETAIL
  6
CONTINUOUS
 66
     1
 10
0.0
 20
0.0
 30
0.0
 40
0.047
 41
0.047
  0
VERTEX
  5
880D
  8
DETAIL
  6
CONTINUOUS
 10
18.393
 20
29.73
 30
0.0
 40
0.0
 41
0.0
  0
VERTEX
  5
880E
  8
DETAIL
  6
CONTINUOUS
 10
18.393
 20
28.728
 30
0.0
 40
0.0
 41
0.0
  0
SEQEND
  5
880F
  8
DETAIL
  6
CONTINUOUS
  0
POLYLINE
  5
8810
  8
DETAIL
  6
CONTINUOUS
 66
     1
 10
0.0
 20
0.0
 30
0.0
 40
0.023
 41
0.023
  0
VERTEX
  5
8811
  8
DETAIL
  6
CONTINUOUS
 10
18.048
 20
29.758
 30
0.0
 40
0.0
 41
0.0
  0
VERTEX
  5
8812
  8
DETAIL
  6
CONTINUOUS
 10
17.956
 20
29.733
 30
0.0
 40
0.0
 41
0.0
  0
VERTEX
  5
8813
  8
DETAIL
  6
CONTINUOUS
 10
17.89
 20
29.667
 30
0.0
 40
0.0
 41
0.0
  0
VERTEX
  5
8814
  8
DETAIL
  6
CONTINUOUS
 10
17.865
 20
29.575
 30
0.0
 40
0.0
 41
0.0
  0
SEQEND
  5
8815
  8
DETAIL
  6
CONTINUOUS
  0
POLYLINE
  5
8816
  8
DETAIL
  6
CONTINUOUS
 66
     1
 10
0.0
 20
0.0
 30
0.0
 40
0.023
 41
0.023
  0
VERTEX
  5
8817
  8
DETAIL
  6
CONTINUOUS
 10
18.23
 20
29.575
 30
0.0
 40
0.0
 41
0.0
  0
VERTEX
  5
8818
  8
DETAIL
  6
CONTINUOUS
 10
18.205
 20
29.667
 30
0.0
 40
0.0
 41
0.0
  0
VERTEX
  5
8819
  8
DETAIL
  6
CONTINUOUS
 10
18.14
 20
29.733
 30
0.0
 40
0.0
 41
0.0
  0
VERTEX
  5
881A
  8
DETAIL
  6
CONTINUOUS
 10
18.048
 20
29.758
 30
0.0
 40
0.0
 41
0.0
  0
SEQEND
  5
881B
  8
DETAIL
  6
CONTINUOUS
  0
POLYLINE
  5
881C
  8
DETAIL
  6
CONTINUOUS
 66
     1
 10
0.0
 20
0.0
 30
0.0
 40
0.023
 41
0.023
  0
VERTEX
  5
881D
  8
DETAIL
  6
CONTINUOUS
 10
17.837
 20
28.77
 30
0.0
 40
0.0
 41
0.0
  0
VERTEX
  5
881E
  8
DETAIL
  6
CONTINUOUS
 10
17.937
 20
28.797
 30
0.0
 40
0.0
 41
0.0
  0
VERTEX
  5
881F
  8
DETAIL
  6
CONTINUOUS
 10
18.008
 20
28.869
 30
0.0
 40
0.0
 41
0.0
  0
VERTEX
  5
8820
  8
DETAIL
  6
CONTINUOUS
 10
18.035
 20
28.969
 30
0.0
 40
0.0
 41
0.0
  0
SEQEND
  5
8821
  8
DETAIL
  6
CONTINUOUS
  0
POLYLINE
  5
8822
  8
DETAIL
  6
CONTINUOUS
 66
     1
 10
0.0
 20
0.0
 30
0.0
 40
0.023
 41
0.023
  0
VERTEX
  5
8823
  8
DETAIL
  6
CONTINUOUS
 10
17.837
 20
28.707
 30
0.0
 40
0.0
 41
0.0
  0
VERTEX
  5
8824
  8
DETAIL
  6
CONTINUOUS
 10
17.97
 20
28.743
 30
0.0
 40
0.0
 41
0.0
  0
VERTEX
  5
8825
  8
DETAIL
  6
CONTINUOUS
 10
18.066
 20
28.838
 30
0.0
 40
0.0
 41
0.0
  0
VERTEX
  5
8826
  8
DETAIL
  6
CONTINUOUS
 10
18.102
 20
28.972
 30
0.0
 40
0.0
 41
0.0
  0
SEQEND
  5
8827
  8
DETAIL
  6
CONTINUOUS
  0
POLYLINE
  5
8828
  8
DETAIL
  6
CONTINUOUS
 66
     1
 10
0.0
 20
0.0
 30
0.0
 40
0.047
 41
0.047
  0
VERTEX
  5
8829
  8
DETAIL
  6
CONTINUOUS
 10
18.393
 20
28.728
 30
0.0
 40
0.0
 41
0.0
  0
VERTEX
  5
882A
  8
DETAIL
  6
CONTINUOUS
 10
18.378
 20
28.674
 30
0.0
 40
0.0
 41
0.0
  0
VERTEX
  5
882B
  8
DETAIL
  6
CONTINUOUS
 10
18.34
 20
28.635
 30
0.0
 40
0.0
 41
0.0
  0
VERTEX
  5
882C
  8
DETAIL
  6
CONTINUOUS
 10
18.285
 20
28.62
 30
0.0
 40
0.0
 41
0.0
  0
SEQEND
  5
882D
  8
DETAIL
  6
CONTINUOUS
  0
POLYLINE
  5
882E
  8
DETAIL
  6
CONTINUOUS
 66
     1
 10
0.0
 20
0.0
 30
0.0
 40
0.023
 41
0.023
  0
VERTEX
  5
882F
  8
DETAIL
  6
CONTINUOUS
 10
18.102
 20
28.972
 30
0.0
 40
0.0
 41
0.0
  0
VERTEX
  5
8830
  8
DETAIL
  6
CONTINUOUS
 10
18.066
 20
29.106
 30
0.0
 40
0.0
 41
0.0
  0
VERTEX
  5
8831
  8
DETAIL
  6
CONTINUOUS
 10
17.97
 20
29.201
 30
0.0
 40
0.0
 41
0.0
  0
VERTEX
  5
8832
  8
DETAIL
  6
CONTINUOUS
 10
17.837
 20
29.237
 30
0.0
 40
0.0
 41
0.0
  0
SEQEND
  5
8833
  8
DETAIL
  6
CONTINUOUS
  0
POLYLINE
  5
8834
  8
DETAIL
  6
CONTINUOUS
 66
     1
 10
0.0
 20
0.0
 30
0.0
 40
0.023
 41
0.023
  0
VERTEX
  5
8835
  8
DETAIL
  6
CONTINUOUS
 10
18.035
 20
28.969
 30
0.0
 40
0.0
 41
0.0
  0
VERTEX
  5
8836
  8
DETAIL
  6
CONTINUOUS
 10
18.008
 20
29.069
 30
0.0
 40
0.0
 41
0.0
  0
VERTEX
  5
8837
  8
DETAIL
  6
CONTINUOUS
 10
17.937
 20
29.141
 30
0.0
 40
0.0
 41
0.0
  0
VERTEX
  5
8838
  8
DETAIL
  6
CONTINUOUS
 10
17.837
 20
29.168
 30
0.0
 40
0.0
 41
0.0
  0
SEQEND
  5
8839
  8
DETAIL
  6
CONTINUOUS
  0
POLYLINE
  5
883A
  8
DETAIL
  6
CONTINUOUS
 66
     1
 10
0.0
 20
0.0
 30
0.0
 40
0.023
 41
0.023
  0
VERTEX
  5
883B
  8
DETAIL
  6
CONTINUOUS
 10
18.048
 20
29.393
 30
0.0
 40
0.0
 41
0.0
  0
VERTEX
  5
883C
  8
DETAIL
  6
CONTINUOUS
 10
18.14
 20
29.418
 30
0.0
 40
0.0
 41
0.0
  0
VERTEX
  5
883D
  8
DETAIL
  6
CONTINUOUS
 10
18.205
 20
29.483
 30
0.0
 40
0.0
 41
0.0
  0
VERTEX
  5
883E
  8
DETAIL
  6
CONTINUOUS
 10
18.23
 20
29.575
 30
0.0
 40
0.0
 41
0.0
  0
SEQEND
  5
883F
  8
DETAIL
  6
CONTINUOUS
  0
POLYLINE
  5
8840
  8
DETAIL
  6
CONTINUOUS
 66
     1
 10
0.0
 20
0.0
 30
0.0
 40
0.047
 41
0.047
  0
VERTEX
  5
8841
  8
DETAIL
  6
CONTINUOUS
 10
18.153
 20
29.575
 30
0.0
 40
0.0
 41
0.0
  0
VERTEX
  5
8842
  8
DETAIL
  6
CONTINUOUS
 10
18.153
 20
29.599
 30
0.0
 40
0.0
 41
0.0
  0
VERTEX
  5
8843
  8
DETAIL
  6
CONTINUOUS
 10
18.089
 20
29.599
 30
0.0
 40
0.0
 41
0.0
  0
VERTEX
  5
8844
  8
DETAIL
  6
CONTINUOUS
 10
18.076
 20
29.603
 30
0.0
 40
0.0
 41
0.0
  0
SEQEND
  5
8845
  8
DETAIL
  6
CONTINUOUS
  0
POLYLINE
  5
8846
  8
DETAIL
  6
CONTINUOUS
 66
     1
 10
0.0
 20
0.0
 30
0.0
 40
0.047
 41
0.047
  0
VERTEX
  5
8847
  8
DETAIL
  6
CONTINUOUS
 10
18.153
 20
29.575
 30
0.0
 40
0.0
 41
0.0
  0
VERTEX
  5
8848
  8
DETAIL
  6
CONTINUOUS
 10
18.153
 20
29.552
 30
0.0
 40
0.0
 41
0.0
  0
VERTEX
  5
8849
  8
DETAIL
  6
CONTINUOUS
 10
18.089
 20
29.552
 30
0.0
 40
0.0
 41
0.0
  0
VERTEX
  5
884A
  8
DETAIL
  6
CONTINUOUS
 10
18.076
 20
29.547
 30
0.0
 40
0.0
 41
0.0
  0
SEQEND
  5
884B
  8
DETAIL
  6
CONTINUOUS
  0
POLYLINE
  5
884C
  8
DETAIL
  6
CONTINUOUS
 66
     1
 10
0.0
 20
0.0
 30
0.0
 40
0.047
 41
0.047
  0
VERTEX
  5
884D
  8
DETAIL
  6
CONTINUOUS
 10
18.048
 20
29.47
 30
0.0
 40
0.0
 41
0.0
  0
VERTEX
  5
884E
  8
DETAIL
  6
CONTINUOUS
 10
18.024
 20
29.47
 30
0.0
 40
0.0
 41
0.0
  0
VERTEX
  5
884F
  8
DETAIL
  6
CONTINUOUS
 10
18.024
 20
29.534
 30
0.0
 40
0.0
 41
0.0
  0
VERTEX
  5
8850
  8
DETAIL
  6
CONTINUOUS
 10
18.019
 20
29.547
 30
0.0
 40
0.0
 41
0.0
  0
SEQEND
  5
8851
  8
DETAIL
  6
CONTINUOUS
  0
POLYLINE
  5
8852
  8
DETAIL
  6
CONTINUOUS
 66
     1
 10
0.0
 20
0.0
 30
0.0
 40
0.047
 41
0.047
  0
VERTEX
  5
8853
  8
DETAIL
  6
CONTINUOUS
 10
18.048
 20
29.47
 30
0.0
 40
0.0
 41
0.0
  0
VERTEX
  5
8854
  8
DETAIL
  6
CONTINUOUS
 10
18.071
 20
29.47
 30
0.0
 40
0.0
 41
0.0
  0
VERTEX
  5
8855
  8
DETAIL
  6
CONTINUOUS
 10
18.071
 20
29.534
 30
0.0
 40
0.0
 41
0.0
  0
VERTEX
  5
8856
  8
DETAIL
  6
CONTINUOUS
 10
18.076
 20
29.547
 30
0.0
 40
0.0
 41
0.0
  0
SEQEND
  5
8857
  8
DETAIL
  6
CONTINUOUS
  0
POLYLINE
  5
8858
  8
DETAIL
  6
CONTINUOUS
 66
     1
 10
0.0
 20
0.0
 30
0.0
 40
0.023
 41
0.023
  0
VERTEX
  5
8859
  8
DETAIL
  6
CONTINUOUS
 10
17.865
 20
29.575
 30
0.0
 40
0.0
 41
0.0
  0
VERTEX
  5
885A
  8
DETAIL
  6
CONTINUOUS
 10
17.89
 20
29.483
 30
0.0
 40
0.0
 41
0.0
  0
VERTEX
  5
885B
  8
DETAIL
  6
CONTINUOUS
 10
17.956
 20
29.418
 30
0.0
 40
0.0
 41
0.0
  0
VERTEX
  5
885C
  8
DETAIL
  6
CONTINUOUS
 10
18.048
 20
29.393
 30
0.0
 40
0.0
 41
0.0
  0
SEQEND
  5
885D
  8
DETAIL
  6
CONTINUOUS
  0
POLYLINE
  5
885E
  8
DETAIL
  6
CONTINUOUS
 66
     1
 10
0.0
 20
0.0
 30
0.0
 40
0.047
 41
0.047
  0
VERTEX
  5
885F
  8
DETAIL
  6
CONTINUOUS
 10
18.048
 20
29.681
 30
0.0
 40
0.0
 41
0.0
  0
VERTEX
  5
8860
  8
DETAIL
  6
CONTINUOUS
 10
18.024
 20
29.681
 30
0.0
 40
0.0
 41
0.0
  0
VERTEX
  5
8861
  8
DETAIL
  6
CONTINUOUS
 10
18.024
 20
29.617
 30
0.0
 40
0.0
 41
0.0
  0
VERTEX
  5
8862
  8
DETAIL
  6
CONTINUOUS
 10
18.019
 20
29.604
 30
0.0
 40
0.0
 41
0.0
  0
SEQEND
  5
8863
  8
DETAIL
  6
CONTINUOUS
  0
POLYLINE
  5
8864
  8
DETAIL
  6
CONTINUOUS
 66
     1
 10
0.0
 20
0.0
 30
0.0
 40
0.047
 41
0.047
  0
VERTEX
  5
8865
  8
DETAIL
  6
CONTINUOUS
 10
18.048
 20
29.681
 30
0.0
 40
0.0
 41
0.0
  0
VERTEX
  5
8866
  8
DETAIL
  6
CONTINUOUS
 10
18.071
 20
29.681
 30
0.0
 40
0.0
 41
0.0
  0
VERTEX
  5
8867
  8
DETAIL
  6
CONTINUOUS
 10
18.071
 20
29.617
 30
0.0
 40
0.0
 41
0.0
  0
VERTEX
  5
8868
  8
DETAIL
  6
CONTINUOUS
 10
18.076
 20
29.603
 30
0.0
 40
0.0
 41
0.0
  0
SEQEND
  5
8869
  8
DETAIL
  6
CONTINUOUS
  0
POLYLINE
  5
886A
  8
DETAIL
  6
CONTINUOUS
 66
     1
 10
0.0
 20
0.0
 30
0.0
 40
0.047
 41
0.047
  0
VERTEX
  5
886B
  8
DETAIL
  6
CONTINUOUS
 10
17.942
 20
29.575
 30
0.0
 40
0.0
 41
0.0
  0
VERTEX
  5
886C
  8
DETAIL
  6
CONTINUOUS
 10
17.942
 20
29.552
 30
0.0
 40
0.0
 41
0.0
  0
VERTEX
  5
886D
  8
DETAIL
  6
CONTINUOUS
 10
18.006
 20
29.552
 30
0.0
 40
0.0
 41
0.0
  0
VERTEX
  5
886E
  8
DETAIL
  6
CONTINUOUS
 10
18.019
 20
29.547
 30
0.0
 40
0.0
 41
0.0
  0
SEQEND
  5
886F
  8
DETAIL
  6
CONTINUOUS
  0
POLYLINE
  5
8870
  8
DETAIL
  6
CONTINUOUS
 66
     1
 10
0.0
 20
0.0
 30
0.0
 40
0.047
 41
0.047
  0
VERTEX
  5
8871
  8
DETAIL
  6
CONTINUOUS
 10
17.942
 20
29.575
 30
0.0
 40
0.0
 41
0.0
  0
VERTEX
  5
8872
  8
DETAIL
  6
CONTINUOUS
 10
17.942
 20
29.599
 30
0.0
 40
0.0
 41
0.0
  0
VERTEX
  5
8873
  8
DETAIL
  6
CONTINUOUS
 10
18.006
 20
29.599
 30
0.0
 40
0.0
 41
0.0
  0
VERTEX
  5
8874
  8
DETAIL
  6
CONTINUOUS
 10
18.019
 20
29.604
 30
0.0
 40
0.0
 41
0.0
  0
SEQEND
  5
8875
  8
DETAIL
  6
CONTINUOUS
  0
POLYLINE
  5
8876
  8
DETAIL
  6
CONTINUOUS
 66
     1
 10
0.0
 20
0.0
 30
0.0
 40
0.047
 41
0.047
  0
VERTEX
  5
8877
  8
DETAIL
  6
CONTINUOUS
 10
18.285
 20
29.838
 30
0.0
 40
0.0
 41
0.0
  0
VERTEX
  5
8878
  8
DETAIL
  6
CONTINUOUS
 10
18.34
 20
29.823
 30
0.0
 40
0.0
 41
0.0
  0
VERTEX
  5
8879
  8
DETAIL
  6
CONTINUOUS
 10
18.378
 20
29.785
 30
0.0
 40
0.0
 41
0.0
  0
VERTEX
  5
887A
  8
DETAIL
  6
CONTINUOUS
 10
18.393
 20
29.73
 30
0.0
 40
0.0
 41
0.0
  0
SEQEND
  5
887B
  8
DETAIL
  6
CONTINUOUS
  0
POLYLINE
  5
887C
  8
DETAIL
  6
CONTINUOUS
 66
     1
 10
0.0
 20
0.0
 30
0.0
 40
0.023
 41
0.023
  0
VERTEX
  5
887D
  8
DETAIL
  6
CONTINUOUS
 10
30.587
 20
29.237
 30
0.0
 40
0.0
 41
0.0
  0
VERTEX
  5
887E
  8
DETAIL
  6
CONTINUOUS
 10
30.453
 20
29.201
 30
0.0
 40
0.0
 41
0.0
  0
VERTEX
  5
887F
  8
DETAIL
  6
CONTINUOUS
 10
30.358
 20
29.106
 30
0.0
 40
0.0
 41
0.0
  0
VERTEX
  5
8880
  8
DETAIL
  6
CONTINUOUS
 10
30.321
 20
28.972
 30
0.0
 40
0.0
 41
0.0
  0
SEQEND
  5
8881
  8
DETAIL
  6
CONTINUOUS
  0
POLYLINE
  5
8882
  8
DETAIL
  6
CONTINUOUS
 66
     1
 10
0.0
 20
0.0
 30
0.0
 40
0.023
 41
0.023
  0
VERTEX
  5
8883
  8
DETAIL
  6
CONTINUOUS
 10
30.587
 20
29.168
 30
0.0
 40
0.0
 41
0.0
  0
VERTEX
  5
8884
  8
DETAIL
  6
CONTINUOUS
 10
30.486
 20
29.141
 30
0.0
 40
0.0
 41
0.0
  0
VERTEX
  5
8885
  8
DETAIL
  6
CONTINUOUS
 10
30.415
 20
29.069
 30
0.0
 40
0.0
 41
0.0
  0
VERTEX
  5
8886
  8
DETAIL
  6
CONTINUOUS
 10
30.388
 20
28.969
 30
0.0
 40
0.0
 41
0.0
  0
SEQEND
  5
8887
  8
DETAIL
  6
CONTINUOUS
  0
POLYLINE
  5
8888
  8
DETAIL
  6
CONTINUOUS
 66
     1
 10
0.0
 20
0.0
 30
0.0
 40
0.023
 41
0.023
  0
VERTEX
  5
8889
  8
DETAIL
  6
CONTINUOUS
 10
30.321
 20
28.972
 30
0.0
 40
0.0
 41
0.0
  0
VERTEX
  5
888A
  8
DETAIL
  6
CONTINUOUS
 10
30.358
 20
28.838
 30
0.0
 40
0.0
 41
0.0
  0
VERTEX
  5
888B
  8
DETAIL
  6
CONTINUOUS
 10
30.453
 20
28.743
 30
0.0
 40
0.0
 41
0.0
  0
VERTEX
  5
888C
  8
DETAIL
  6
CONTINUOUS
 10
30.587
 20
28.707
 30
0.0
 40
0.0
 41
0.0
  0
SEQEND
  5
888D
  8
DETAIL
  6
CONTINUOUS
  0
POLYLINE
  5
888E
  8
DETAIL
  6
CONTINUOUS
 66
     1
 10
0.0
 20
0.0
 30
0.0
 40
0.023
 41
0.023
  0
VERTEX
  5
888F
  8
DETAIL
  6
CONTINUOUS
 10
30.388
 20
28.969
 30
0.0
 40
0.0
 41
0.0
  0
VERTEX
  5
8890
  8
DETAIL
  6
CONTINUOUS
 10
30.415
 20
28.869
 30
0.0
 40
0.0
 41
0.0
  0
VERTEX
  5
8891
  8
DETAIL
  6
CONTINUOUS
 10
30.486
 20
28.797
 30
0.0
 40
0.0
 41
0.0
  0
VERTEX
  5
8892
  8
DETAIL
  6
CONTINUOUS
 10
30.587
 20
28.77
 30
0.0
 40
0.0
 41
0.0
  0
SEQEND
  5
8893
  8
DETAIL
  6
CONTINUOUS
  0
POLYLINE
  5
8894
  8
DETAIL
  6
CONTINUOUS
 66
     1
 10
0.0
 20
0.0
 30
0.0
 70
     1
 40
0.023
 41
0.023
  0
VERTEX
  5
8895
  8
DETAIL
  6
CONTINUOUS
 10
29.631
 20
29.388
 30
0.0
 40
0.0
 41
0.0
  0
VERTEX
  5
8896
  8
DETAIL
  6
CONTINUOUS
 10
29.654
 20
29.335
 30
0.0
 40
0.0
 41
0.0
  0
VERTEX
  5
8897
  8
DETAIL
  6
CONTINUOUS
 10
29.718
 20
29.236
 30
0.0
 40
0.0
 41
0.0
  0
VERTEX
  5
8898
  8
DETAIL
  6
CONTINUOUS
 10
29.819
 20
29.183
 30
0.0
 40
0.0
 41
0.0
  0
VERTEX
  5
8899
  8
DETAIL
  6
CONTINUOUS
 10
29.923
 20
29.2
 30
0.0
 40
0.0
 41
0.0
  0
VERTEX
  5
889A
  8
DETAIL
  6
CONTINUOUS
 10
30.017
 20
29.254
 30
0.0
 40
0.0
 41
0.0
  0
VERTEX
  5
889B
  8
DETAIL
  6
CONTINUOUS
 10
30.106
 20
29.353
 30
0.0
 40
0.0
 41
0.0
  0
VERTEX
  5
889C
  8
DETAIL
  6
CONTINUOUS
 10
30.258
 20
29.394
 30
0.0
 40
0.0
 41
0.0
  0
VERTEX
  5
889D
  8
DETAIL
  6
CONTINUOUS
 10
30.49
 20
29.391
 30
0.0
 40
0.0
 41
0.0
  0
VERTEX
  5
889E
  8
DETAIL
  6
CONTINUOUS
 10
30.622
 20
29.382
 30
0.0
 40
0.0
 41
0.0
  0
VERTEX
  5
889F
  8
DETAIL
  6
CONTINUOUS
 10
30.692
 20
29.355
 30
0.0
 40
0.0
 41
0.0
  0
VERTEX
  5
88A0
  8
DETAIL
  6
CONTINUOUS
 10
30.808
 20
29.292
 30
0.0
 40
0.0
 41
0.0
  0
VERTEX
  5
88A1
  8
DETAIL
  6
CONTINUOUS
 10
30.897
 20
29.218
 30
0.0
 40
0.0
 41
0.0
  0
VERTEX
  5
88A2
  8
DETAIL
  6
CONTINUOUS
 10
30.957
 20
29.049
 30
0.0
 40
0.0
 41
0.0
  0
VERTEX
  5
88A3
  8
DETAIL
  6
CONTINUOUS
 10
31.013
 20
28.795
 30
0.0
 40
0.0
 41
0.0
  0
VERTEX
  5
88A4
  8
DETAIL
  6
CONTINUOUS
 10
31.038
 20
28.626
 30
0.0
 40
0.0
 41
0.0
  0
VERTEX
  5
88A5
  8
DETAIL
  6
CONTINUOUS
 10
30.915
 20
28.536
 30
0.0
 40
0.0
 41
0.0
  0
VERTEX
  5
88A6
  8
DETAIL
  6
CONTINUOUS
 10
30.664
 20
28.441
 30
0.0
 40
0.0
 41
0.0
  0
VERTEX
  5
88A7
  8
DETAIL
  6
CONTINUOUS
 10
30.464
 20
28.398
 30
0.0
 40
0.0
 41
0.0
  0
VERTEX
  5
88A8
  8
DETAIL
  6
CONTINUOUS
 10
30.44
 20
28.437
 30
0.0
 40
0.0
 41
0.0
  0
VERTEX
  5
88A9
  8
DETAIL
  6
CONTINUOUS
 10
30.426
 20
28.51
 30
0.0
 40
0.0
 41
0.0
  0
VERTEX
  5
88AA
  8
DETAIL
  6
CONTINUOUS
 10
30.422
 20
28.55
 30
0.0
 40
0.0
 41
0.0
  0
VERTEX
  5
88AB
  8
DETAIL
  6
CONTINUOUS
 10
30.399
 20
28.551
 30
0.0
 40
0.0
 41
0.0
  0
VERTEX
  5
88AC
  8
DETAIL
  6
CONTINUOUS
 10
30.352
 20
28.551
 30
0.0
 40
0.0
 41
0.0
  0
VERTEX
  5
88AD
  8
DETAIL
  6
CONTINUOUS
 10
30.317
 20
28.544
 30
0.0
 40
0.0
 41
0.0
  0
VERTEX
  5
88AE
  8
DETAIL
  6
CONTINUOUS
 10
30.299
 20
28.403
 30
0.0
 40
0.0
 41
0.0
  0
VERTEX
  5
88AF
  8
DETAIL
  6
CONTINUOUS
 10
30.11
 20
28.412
 30
0.0
 40
0.0
 41
0.0
  0
VERTEX
  5
88B0
  8
DETAIL
  6
CONTINUOUS
 10
29.866
 20
28.514
 30
0.0
 40
0.0
 41
0.0
  0
VERTEX
  5
88B1
  8
DETAIL
  6
CONTINUOUS
 10
29.649
 20
28.714
 30
0.0
 40
0.0
 41
0.0
  0
VERTEX
  5
88B2
  8
DETAIL
  6
CONTINUOUS
 10
29.731
 20
28.802
 30
0.0
 40
0.0
 41
0.0
  0
VERTEX
  5
88B3
  8
DETAIL
  6
CONTINUOUS
 10
29.672
 20
28.89
 30
0.0
 40
0.0
 41
0.0
  0
VERTEX
  5
88B4
  8
DETAIL
  6
CONTINUOUS
 10
29.579
 20
28.849
 30
0.0
 40
0.0
 41
0.0
  0
VERTEX
  5
88B5
  8
DETAIL
  6
CONTINUOUS
 10
29.538
 20
28.925
 30
0.0
 40
0.0
 41
0.0
  0
VERTEX
  5
88B6
  8
DETAIL
  6
CONTINUOUS
 10
29.608
 20
28.984
 30
0.0
 40
0.0
 41
0.0
  0
VERTEX
  5
88B7
  8
DETAIL
  6
CONTINUOUS
 10
29.579
 20
29.071
 30
0.0
 40
0.0
 41
0.0
  0
VERTEX
  5
88B8
  8
DETAIL
  6
CONTINUOUS
 10
29.491
 20
29.054
 30
0.0
 40
0.0
 41
0.0
  0
VERTEX
  5
88B9
  8
DETAIL
  6
CONTINUOUS
 10
29.467
 20
29.13
 30
0.0
 40
0.0
 41
0.0
  0
VERTEX
  5
88BA
  8
DETAIL
  6
CONTINUOUS
 10
29.555
 20
29.189
 30
0.0
 40
0.0
 41
0.0
  0
VERTEX
  5
88BB
  8
DETAIL
  6
CONTINUOUS
 10
29.532
 20
29.277
 30
0.0
 40
0.0
 41
0.0
  0
VERTEX
  5
88BC
  8
DETAIL
  6
CONTINUOUS
 10
29.444
 20
29.265
 30
0.0
 40
0.0
 41
0.0
  0
VERTEX
  5
88BD
  8
DETAIL
  6
CONTINUOUS
 10
29.415
 20
29.341
 30
0.0
 40
0.0
 41
0.0
  0
SEQEND
  5
88BE
  8
DETAIL
  6
CONTINUOUS
  0
LINE
  5
88BF
  8
DETAIL
  6
CONTINUOUS
 10
30.071
 20
28.068
 30
0.0
 11
30.071
 21
30.595
 31
0.0
  0
POLYLINE
  5
88C0
  8
DETAIL
  6
CONTINUOUS
 66
     1
 10
0.0
 20
0.0
 30
0.0
 40
0.023
 41
0.023
  0
VERTEX
  5
88C1
  8
DETAIL
  6
CONTINUOUS
 10
29.25
 20
30.629
 30
0.0
 40
0.0
 41
0.0
  0
VERTEX
  5
88C2
  8
DETAIL
  6
CONTINUOUS
 10
29.25
 20
28.066
 30
0.0
 40
0.0
 41
0.0
  0
SEQEND
  5
88C3
  8
DETAIL
  6
CONTINUOUS
  0
POLYLINE
  5
88C4
  8
DETAIL
  6
CONTINUOUS
 66
     1
 10
0.0
 20
0.0
 30
0.0
 70
     1
 40
0.023
 41
0.023
  0
VERTEX
  5
88C5
  8
DETAIL
  6
CONTINUOUS
 10
29.01
 20
28.626
 30
0.0
 40
0.0
 41
0.0
  0
VERTEX
  5
88C6
  8
DETAIL
  6
CONTINUOUS
 10
28.905
 20
28.878
 30
0.0
 40
0.0
 41
0.0
  0
VERTEX
  5
88C7
  8
DETAIL
  6
CONTINUOUS
 10
28.904
 20
29.529
 30
0.0
 40
0.0
 41
0.0
  0
VERTEX
  5
88C8
  8
DETAIL
  6
CONTINUOUS
 10
29.016
 20
29.839
 30
0.0
 40
0.0
 41
0.0
  0
VERTEX
  5
88C9
  8
DETAIL
  6
CONTINUOUS
 10
29.075
 20
29.734
 30
0.0
 40
0.0
 41
0.0
  0
VERTEX
  5
88CA
  8
DETAIL
  6
CONTINUOUS
 10
29.075
 20
28.743
 30
0.0
 40
0.0
 41
0.0
  0
SEQEND
  5
88CB
  8
DETAIL
  6
CONTINUOUS
  0
POLYLINE
  5
88CC
  8
DETAIL
  6
CONTINUOUS
 66
     1
 10
0.0
 20
0.0
 30
0.0
 40
0.023
 41
0.023
  0
VERTEX
  5
88CD
  8
DETAIL
  6
CONTINUOUS
 10
30.036
 20
29.575
 30
0.0
 40
0.0
 41
0.0
  0
VERTEX
  5
88CE
  8
DETAIL
  6
CONTINUOUS
 10
30.011
 20
29.667
 30
0.0
 40
0.0
 41
0.0
  0
VERTEX
  5
88CF
  8
DETAIL
  6
CONTINUOUS
 10
29.946
 20
29.733
 30
0.0
 40
0.0
 41
0.0
  0
VERTEX
  5
88D0
  8
DETAIL
  6
CONTINUOUS
 10
29.854
 20
29.758
 30
0.0
 40
0.0
 41
0.0
  0
SEQEND
  5
88D1
  8
DETAIL
  6
CONTINUOUS
  0
POLYLINE
  5
88D2
  8
DETAIL
  6
CONTINUOUS
 66
     1
 10
0.0
 20
0.0
 30
0.0
 40
0.023
 41
0.023
  0
VERTEX
  5
88D3
  8
DETAIL
  6
CONTINUOUS
 10
29.854
 20
29.758
 30
0.0
 40
0.0
 41
0.0
  0
VERTEX
  5
88D4
  8
DETAIL
  6
CONTINUOUS
 10
29.762
 20
29.733
 30
0.0
 40
0.0
 41
0.0
  0
VERTEX
  5
88D5
  8
DETAIL
  6
CONTINUOUS
 10
29.697
 20
29.667
 30
0.0
 40
0.0
 41
0.0
  0
VERTEX
  5
88D6
  8
DETAIL
  6
CONTINUOUS
 10
29.672
 20
29.575
 30
0.0
 40
0.0
 41
0.0
  0
SEQEND
  5
88D7
  8
DETAIL
  6
CONTINUOUS
  0
POLYLINE
  5
88D8
  8
DETAIL
  6
CONTINUOUS
 66
     1
 10
0.0
 20
0.0
 30
0.0
 40
0.047
 41
0.047
  0
VERTEX
  5
88D9
  8
DETAIL
  6
CONTINUOUS
 10
28.905
 20
28.878
 30
0.0
 40
0.0
 41
0.0
  0
VERTEX
  5
88DA
  8
DETAIL
  6
CONTINUOUS
 10
28.834
 20
28.855
 30
0.0
 40
0.0
 41
0.0
  0
SEQEND
  5
88DB
  8
DETAIL
  6
CONTINUOUS
  0
POLYLINE
  5
88DC
  8
DETAIL
  6
CONTINUOUS
 66
     1
 10
0.0
 20
0.0
 30
0.0
 40
0.047
 41
0.047
  0
VERTEX
  5
88DD
  8
DETAIL
  6
CONTINUOUS
 10
28.904
 20
29.529
 30
0.0
 40
0.0
 41
0.0
  0
VERTEX
  5
88DE
  8
DETAIL
  6
CONTINUOUS
 10
28.829
 20
29.558
 30
0.0
 40
0.0
 41
0.0
  0
SEQEND
  5
88DF
  8
DETAIL
  6
CONTINUOUS
  0
POLYLINE
  5
88E0
  8
DETAIL
  6
CONTINUOUS
 66
     1
 10
0.0
 20
0.0
 30
0.0
 40
0.023
 41
0.023
  0
VERTEX
  5
88E1
  8
DETAIL
  6
CONTINUOUS
 10
29.854
 20
29.393
 30
0.0
 40
0.0
 41
0.0
  0
VERTEX
  5
88E2
  8
DETAIL
  6
CONTINUOUS
 10
29.946
 20
29.418
 30
0.0
 40
0.0
 41
0.0
  0
VERTEX
  5
88E3
  8
DETAIL
  6
CONTINUOUS
 10
30.011
 20
29.483
 30
0.0
 40
0.0
 41
0.0
  0
VERTEX
  5
88E4
  8
DETAIL
  6
CONTINUOUS
 10
30.036
 20
29.575
 30
0.0
 40
0.0
 41
0.0
  0
SEQEND
  5
88E5
  8
DETAIL
  6
CONTINUOUS
  0
POLYLINE
  5
88E6
  8
DETAIL
  6
CONTINUOUS
 66
     1
 10
0.0
 20
0.0
 30
0.0
 40
0.047
 41
0.047
  0
VERTEX
  5
88E7
  8
DETAIL
  6
CONTINUOUS
 10
29.96
 20
29.575
 30
0.0
 40
0.0
 41
0.0
  0
VERTEX
  5
88E8
  8
DETAIL
  6
CONTINUOUS
 10
29.96
 20
29.552
 30
0.0
 40
0.0
 41
0.0
  0
VERTEX
  5
88E9
  8
DETAIL
  6
CONTINUOUS
 10
29.895
 20
29.552
 30
0.0
 40
0.0
 41
0.0
  0
VERTEX
  5
88EA
  8
DETAIL
  6
CONTINUOUS
 10
29.882
 20
29.547
 30
0.0
 40
0.0
 41
0.0
  0
SEQEND
  5
88EB
  8
DETAIL
  6
CONTINUOUS
  0
POLYLINE
  5
88EC
  8
DETAIL
  6
CONTINUOUS
 66
     1
 10
0.0
 20
0.0
 30
0.0
 40
0.047
 41
0.047
  0
VERTEX
  5
88ED
  8
DETAIL
  6
CONTINUOUS
 10
29.96
 20
29.575
 30
0.0
 40
0.0
 41
0.0
  0
VERTEX
  5
88EE
  8
DETAIL
  6
CONTINUOUS
 10
29.96
 20
29.599
 30
0.0
 40
0.0
 41
0.0
  0
VERTEX
  5
88EF
  8
DETAIL
  6
CONTINUOUS
 10
29.895
 20
29.599
 30
0.0
 40
0.0
 41
0.0
  0
VERTEX
  5
88F0
  8
DETAIL
  6
CONTINUOUS
 10
29.882
 20
29.603
 30
0.0
 40
0.0
 41
0.0
  0
SEQEND
  5
88F1
  8
DETAIL
  6
CONTINUOUS
  0
POLYLINE
  5
88F2
  8
DETAIL
  6
CONTINUOUS
 66
     1
 10
0.0
 20
0.0
 30
0.0
 40
0.047
 41
0.047
  0
VERTEX
  5
88F3
  8
DETAIL
  6
CONTINUOUS
 10
29.854
 20
29.47
 30
0.0
 40
0.0
 41
0.0
  0
VERTEX
  5
88F4
  8
DETAIL
  6
CONTINUOUS
 10
29.878
 20
29.47
 30
0.0
 40
0.0
 41
0.0
  0
VERTEX
  5
88F5
  8
DETAIL
  6
CONTINUOUS
 10
29.878
 20
29.534
 30
0.0
 40
0.0
 41
0.0
  0
VERTEX
  5
88F6
  8
DETAIL
  6
CONTINUOUS
 10
29.882
 20
29.547
 30
0.0
 40
0.0
 41
0.0
  0
SEQEND
  5
88F7
  8
DETAIL
  6
CONTINUOUS
  0
POLYLINE
  5
88F8
  8
DETAIL
  6
CONTINUOUS
 66
     1
 10
0.0
 20
0.0
 30
0.0
 40
0.047
 41
0.047
  0
VERTEX
  5
88F9
  8
DETAIL
  6
CONTINUOUS
 10
29.854
 20
29.47
 30
0.0
 40
0.0
 41
0.0
  0
VERTEX
  5
88FA
  8
DETAIL
  6
CONTINUOUS
 10
29.831
 20
29.47
 30
0.0
 40
0.0
 41
0.0
  0
VERTEX
  5
88FB
  8
DETAIL
  6
CONTINUOUS
 10
29.831
 20
29.534
 30
0.0
 40
0.0
 41
0.0
  0
VERTEX
  5
88FC
  8
DETAIL
  6
CONTINUOUS
 10
29.826
 20
29.547
 30
0.0
 40
0.0
 41
0.0
  0
SEQEND
  5
88FD
  8
DETAIL
  6
CONTINUOUS
  0
POLYLINE
  5
88FE
  8
DETAIL
  6
CONTINUOUS
 66
     1
 10
0.0
 20
0.0
 30
0.0
 40
0.023
 41
0.023
  0
VERTEX
  5
88FF
  8
DETAIL
  6
CONTINUOUS
 10
29.672
 20
29.575
 30
0.0
 40
0.0
 41
0.0
  0
VERTEX
  5
8900
  8
DETAIL
  6
CONTINUOUS
 10
29.697
 20
29.483
 30
0.0
 40
0.0
 41
0.0
  0
VERTEX
  5
8901
  8
DETAIL
  6
CONTINUOUS
 10
29.762
 20
29.418
 30
0.0
 40
0.0
 41
0.0
  0
VERTEX
  5
8902
  8
DETAIL
  6
CONTINUOUS
 10
29.854
 20
29.393
 30
0.0
 40
0.0
 41
0.0
  0
SEQEND
  5
8903
  8
DETAIL
  6
CONTINUOUS
  0
POLYLINE
  5
8904
  8
DETAIL
  6
CONTINUOUS
 66
     1
 10
0.0
 20
0.0
 30
0.0
 40
0.047
 41
0.047
  0
VERTEX
  5
8905
  8
DETAIL
  6
CONTINUOUS
 10
29.749
 20
29.575
 30
0.0
 40
0.0
 41
0.0
  0
VERTEX
  5
8906
  8
DETAIL
  6
CONTINUOUS
 10
29.749
 20
29.599
 30
0.0
 40
0.0
 41
0.0
  0
VERTEX
  5
8907
  8
DETAIL
  6
CONTINUOUS
 10
29.813
 20
29.599
 30
0.0
 40
0.0
 41
0.0
  0
VERTEX
  5
8908
  8
DETAIL
  6
CONTINUOUS
 10
29.826
 20
29.604
 30
0.0
 40
0.0
 41
0.0
  0
SEQEND
  5
8909
  8
DETAIL
  6
CONTINUOUS
  0
POLYLINE
  5
890A
  8
DETAIL
  6
CONTINUOUS
 66
     1
 10
0.0
 20
0.0
 30
0.0
 40
0.047
 41
0.047
  0
VERTEX
  5
890B
  8
DETAIL
  6
CONTINUOUS
 10
29.749
 20
29.575
 30
0.0
 40
0.0
 41
0.0
  0
VERTEX
  5
890C
  8
DETAIL
  6
CONTINUOUS
 10
29.749
 20
29.552
 30
0.0
 40
0.0
 41
0.0
  0
VERTEX
  5
890D
  8
DETAIL
  6
CONTINUOUS
 10
29.813
 20
29.552
 30
0.0
 40
0.0
 41
0.0
  0
VERTEX
  5
890E
  8
DETAIL
  6
CONTINUOUS
 10
29.826
 20
29.547
 30
0.0
 40
0.0
 41
0.0
  0
SEQEND
  5
890F
  8
DETAIL
  6
CONTINUOUS
  0
POLYLINE
  5
8910
  8
DETAIL
  6
CONTINUOUS
 66
     1
 10
0.0
 20
0.0
 30
0.0
 40
0.047
 41
0.047
  0
VERTEX
  5
8911
  8
DETAIL
  6
CONTINUOUS
 10
29.854
 20
29.681
 30
0.0
 40
0.0
 41
0.0
  0
VERTEX
  5
8912
  8
DETAIL
  6
CONTINUOUS
 10
29.878
 20
29.681
 30
0.0
 40
0.0
 41
0.0
  0
VERTEX
  5
8913
  8
DETAIL
  6
CONTINUOUS
 10
29.878
 20
29.617
 30
0.0
 40
0.0
 41
0.0
  0
VERTEX
  5
8914
  8
DETAIL
  6
CONTINUOUS
 10
29.882
 20
29.603
 30
0.0
 40
0.0
 41
0.0
  0
SEQEND
  5
8915
  8
DETAIL
  6
CONTINUOUS
  0
POLYLINE
  5
8916
  8
DETAIL
  6
CONTINUOUS
 66
     1
 10
0.0
 20
0.0
 30
0.0
 40
0.047
 41
0.047
  0
VERTEX
  5
8917
  8
DETAIL
  6
CONTINUOUS
 10
29.854
 20
29.681
 30
0.0
 40
0.0
 41
0.0
  0
VERTEX
  5
8918
  8
DETAIL
  6
CONTINUOUS
 10
29.831
 20
29.681
 30
0.0
 40
0.0
 41
0.0
  0
VERTEX
  5
8919
  8
DETAIL
  6
CONTINUOUS
 10
29.83
 20
29.617
 30
0.0
 40
0.0
 41
0.0
  0
VERTEX
  5
891A
  8
DETAIL
  6
CONTINUOUS
 10
29.826
 20
29.604
 30
0.0
 40
0.0
 41
0.0
  0
SEQEND
  5
891B
  8
DETAIL
  6
CONTINUOUS
  0
POLYLINE
  5
891C
  8
DETAIL
  6
CONTINUOUS
 66
     1
 10
0.0
 20
0.0
 30
0.0
 40
0.023
 41
0.023
  0
VERTEX
  5
891D
  8
DETAIL
  6
CONTINUOUS
 10
31.035
 20
29.838
 30
0.0
 40
0.0
 41
0.0
  0
VERTEX
  5
891E
  8
DETAIL
  6
CONTINUOUS
 10
31.035
 20
28.62
 30
0.0
 40
0.0
 41
0.0
  0
SEQEND
  5
891F
  8
DETAIL
  6
CONTINUOUS
  0
POLYLINE
  5
8920
  8
DETAIL
  6
CONTINUOUS
 66
     1
 10
0.0
 20
0.0
 30
0.0
 40
0.047
 41
0.047
  0
VERTEX
  5
8921
  8
DETAIL
  6
CONTINUOUS
 10
31.143
 20
29.73
 30
0.0
 40
0.0
 41
0.0
  0
VERTEX
  5
8922
  8
DETAIL
  6
CONTINUOUS
 10
31.143
 20
28.728
 30
0.0
 40
0.0
 41
0.0
  0
SEQEND
  5
8923
  8
DETAIL
  6
CONTINUOUS
  0
POLYLINE
  5
8924
  8
DETAIL
  6
CONTINUOUS
 66
     1
 10
0.0
 20
0.0
 30
0.0
 40
0.023
 41
0.023
  0
VERTEX
  5
8925
  8
DETAIL
  6
CONTINUOUS
 10
30.798
 20
29.758
 30
0.0
 40
0.0
 41
0.0
  0
VERTEX
  5
8926
  8
DETAIL
  6
CONTINUOUS
 10
30.706
 20
29.733
 30
0.0
 40
0.0
 41
0.0
  0
VERTEX
  5
8927
  8
DETAIL
  6
CONTINUOUS
 10
30.64
 20
29.667
 30
0.0
 40
0.0
 41
0.0
  0
VERTEX
  5
8928
  8
DETAIL
  6
CONTINUOUS
 10
30.615
 20
29.575
 30
0.0
 40
0.0
 41
0.0
  0
SEQEND
  5
8929
  8
DETAIL
  6
CONTINUOUS
  0
POLYLINE
  5
892A
  8
DETAIL
  6
CONTINUOUS
 66
     1
 10
0.0
 20
0.0
 30
0.0
 40
0.023
 41
0.023
  0
VERTEX
  5
892B
  8
DETAIL
  6
CONTINUOUS
 10
30.98
 20
29.575
 30
0.0
 40
0.0
 41
0.0
  0
VERTEX
  5
892C
  8
DETAIL
  6
CONTINUOUS
 10
30.955
 20
29.667
 30
0.0
 40
0.0
 41
0.0
  0
VERTEX
  5
892D
  8
DETAIL
  6
CONTINUOUS
 10
30.89
 20
29.733
 30
0.0
 40
0.0
 41
0.0
  0
VERTEX
  5
892E
  8
DETAIL
  6
CONTINUOUS
 10
30.798
 20
29.758
 30
0.0
 40
0.0
 41
0.0
  0
SEQEND
  5
892F
  8
DETAIL
  6
CONTINUOUS
  0
POLYLINE
  5
8930
  8
DETAIL
  6
CONTINUOUS
 66
     1
 10
0.0
 20
0.0
 30
0.0
 40
0.023
 41
0.023
  0
VERTEX
  5
8931
  8
DETAIL
  6
CONTINUOUS
 10
30.587
 20
28.77
 30
0.0
 40
0.0
 41
0.0
  0
VERTEX
  5
8932
  8
DETAIL
  6
CONTINUOUS
 10
30.687
 20
28.797
 30
0.0
 40
0.0
 41
0.0
  0
VERTEX
  5
8933
  8
DETAIL
  6
CONTINUOUS
 10
30.758
 20
28.869
 30
0.0
 40
0.0
 41
0.0
  0
VERTEX
  5
8934
  8
DETAIL
  6
CONTINUOUS
 10
30.785
 20
28.969
 30
0.0
 40
0.0
 41
0.0
  0
SEQEND
  5
8935
  8
DETAIL
  6
CONTINUOUS
  0
POLYLINE
  5
8936
  8
DETAIL
  6
CONTINUOUS
 66
     1
 10
0.0
 20
0.0
 30
0.0
 40
0.023
 41
0.023
  0
VERTEX
  5
8937
  8
DETAIL
  6
CONTINUOUS
 10
30.587
 20
28.707
 30
0.0
 40
0.0
 41
0.0
  0
VERTEX
  5
8938
  8
DETAIL
  6
CONTINUOUS
 10
30.72
 20
28.743
 30
0.0
 40
0.0
 41
0.0
  0
VERTEX
  5
8939
  8
DETAIL
  6
CONTINUOUS
 10
30.816
 20
28.838
 30
0.0
 40
0.0
 41
0.0
  0
VERTEX
  5
893A
  8
DETAIL
  6
CONTINUOUS
 10
30.852
 20
28.972
 30
0.0
 40
0.0
 41
0.0
  0
SEQEND
  5
893B
  8
DETAIL
  6
CONTINUOUS
  0
POLYLINE
  5
893C
  8
DETAIL
  6
CONTINUOUS
 66
     1
 10
0.0
 20
0.0
 30
0.0
 40
0.047
 41
0.047
  0
VERTEX
  5
893D
  8
DETAIL
  6
CONTINUOUS
 10
31.143
 20
28.728
 30
0.0
 40
0.0
 41
0.0
  0
VERTEX
  5
893E
  8
DETAIL
  6
CONTINUOUS
 10
31.128
 20
28.674
 30
0.0
 40
0.0
 41
0.0
  0
VERTEX
  5
893F
  8
DETAIL
  6
CONTINUOUS
 10
31.09
 20
28.635
 30
0.0
 40
0.0
 41
0.0
  0
VERTEX
  5
8940
  8
DETAIL
  6
CONTINUOUS
 10
31.035
 20
28.62
 30
0.0
 40
0.0
 41
0.0
  0
SEQEND
  5
8941
  8
DETAIL
  6
CONTINUOUS
  0
POLYLINE
  5
8942
  8
DETAIL
  6
CONTINUOUS
 66
     1
 10
0.0
 20
0.0
 30
0.0
 40
0.023
 41
0.023
  0
VERTEX
  5
8943
  8
DETAIL
  6
CONTINUOUS
 10
30.852
 20
28.972
 30
0.0
 40
0.0
 41
0.0
  0
VERTEX
  5
8944
  8
DETAIL
  6
CONTINUOUS
 10
30.816
 20
29.106
 30
0.0
 40
0.0
 41
0.0
  0
VERTEX
  5
8945
  8
DETAIL
  6
CONTINUOUS
 10
30.72
 20
29.201
 30
0.0
 40
0.0
 41
0.0
  0
VERTEX
  5
8946
  8
DETAIL
  6
CONTINUOUS
 10
30.587
 20
29.237
 30
0.0
 40
0.0
 41
0.0
  0
SEQEND
  5
8947
  8
DETAIL
  6
CONTINUOUS
  0
POLYLINE
  5
8948
  8
DETAIL
  6
CONTINUOUS
 66
     1
 10
0.0
 20
0.0
 30
0.0
 40
0.023
 41
0.023
  0
VERTEX
  5
8949
  8
DETAIL
  6
CONTINUOUS
 10
30.785
 20
28.969
 30
0.0
 40
0.0
 41
0.0
  0
VERTEX
  5
894A
  8
DETAIL
  6
CONTINUOUS
 10
30.758
 20
29.069
 30
0.0
 40
0.0
 41
0.0
  0
VERTEX
  5
894B
  8
DETAIL
  6
CONTINUOUS
 10
30.687
 20
29.141
 30
0.0
 40
0.0
 41
0.0
  0
VERTEX
  5
894C
  8
DETAIL
  6
CONTINUOUS
 10
30.587
 20
29.168
 30
0.0
 40
0.0
 41
0.0
  0
SEQEND
  5
894D
  8
DETAIL
  6
CONTINUOUS
  0
POLYLINE
  5
894E
  8
DETAIL
  6
CONTINUOUS
 66
     1
 10
0.0
 20
0.0
 30
0.0
 40
0.023
 41
0.023
  0
VERTEX
  5
894F
  8
DETAIL
  6
CONTINUOUS
 10
30.798
 20
29.393
 30
0.0
 40
0.0
 41
0.0
  0
VERTEX
  5
8950
  8
DETAIL
  6
CONTINUOUS
 10
30.89
 20
29.418
 30
0.0
 40
0.0
 41
0.0
  0
VERTEX
  5
8951
  8
DETAIL
  6
CONTINUOUS
 10
30.955
 20
29.483
 30
0.0
 40
0.0
 41
0.0
  0
VERTEX
  5
8952
  8
DETAIL
  6
CONTINUOUS
 10
30.98
 20
29.575
 30
0.0
 40
0.0
 41
0.0
  0
SEQEND
  5
8953
  8
DETAIL
  6
CONTINUOUS
  0
POLYLINE
  5
8954
  8
DETAIL
  6
CONTINUOUS
 66
     1
 10
0.0
 20
0.0
 30
0.0
 40
0.047
 41
0.047
  0
VERTEX
  5
8955
  8
DETAIL
  6
CONTINUOUS
 10
30.903
 20
29.575
 30
0.0
 40
0.0
 41
0.0
  0
VERTEX
  5
8956
  8
DETAIL
  6
CONTINUOUS
 10
30.903
 20
29.599
 30
0.0
 40
0.0
 41
0.0
  0
VERTEX
  5
8957
  8
DETAIL
  6
CONTINUOUS
 10
30.839
 20
29.599
 30
0.0
 40
0.0
 41
0.0
  0
VERTEX
  5
8958
  8
DETAIL
  6
CONTINUOUS
 10
30.826
 20
29.603
 30
0.0
 40
0.0
 41
0.0
  0
SEQEND
  5
8959
  8
DETAIL
  6
CONTINUOUS
  0
POLYLINE
  5
895A
  8
DETAIL
  6
CONTINUOUS
 66
     1
 10
0.0
 20
0.0
 30
0.0
 40
0.047
 41
0.047
  0
VERTEX
  5
895B
  8
DETAIL
  6
CONTINUOUS
 10
30.903
 20
29.575
 30
0.0
 40
0.0
 41
0.0
  0
VERTEX
  5
895C
  8
DETAIL
  6
CONTINUOUS
 10
30.903
 20
29.552
 30
0.0
 40
0.0
 41
0.0
  0
VERTEX
  5
895D
  8
DETAIL
  6
CONTINUOUS
 10
30.839
 20
29.552
 30
0.0
 40
0.0
 41
0.0
  0
VERTEX
  5
895E
  8
DETAIL
  6
CONTINUOUS
 10
30.826
 20
29.547
 30
0.0
 40
0.0
 41
0.0
  0
SEQEND
  5
895F
  8
DETAIL
  6
CONTINUOUS
  0
POLYLINE
  5
8960
  8
DETAIL
  6
CONTINUOUS
 66
     1
 10
0.0
 20
0.0
 30
0.0
 40
0.047
 41
0.047
  0
VERTEX
  5
8961
  8
DETAIL
  6
CONTINUOUS
 10
30.798
 20
29.47
 30
0.0
 40
0.0
 41
0.0
  0
VERTEX
  5
8962
  8
DETAIL
  6
CONTINUOUS
 10
30.774
 20
29.47
 30
0.0
 40
0.0
 41
0.0
  0
VERTEX
  5
8963
  8
DETAIL
  6
CONTINUOUS
 10
30.774
 20
29.534
 30
0.0
 40
0.0
 41
0.0
  0
VERTEX
  5
8964
  8
DETAIL
  6
CONTINUOUS
 10
30.769
 20
29.547
 30
0.0
 40
0.0
 41
0.0
  0
SEQEND
  5
8965
  8
DETAIL
  6
CONTINUOUS
  0
POLYLINE
  5
8966
  8
DETAIL
  6
CONTINUOUS
 66
     1
 10
0.0
 20
0.0
 30
0.0
 40
0.047
 41
0.047
  0
VERTEX
  5
8967
  8
DETAIL
  6
CONTINUOUS
 10
30.798
 20
29.47
 30
0.0
 40
0.0
 41
0.0
  0
VERTEX
  5
8968
  8
DETAIL
  6
CONTINUOUS
 10
30.821
 20
29.47
 30
0.0
 40
0.0
 41
0.0
  0
VERTEX
  5
8969
  8
DETAIL
  6
CONTINUOUS
 10
30.821
 20
29.534
 30
0.0
 40
0.0
 41
0.0
  0
VERTEX
  5
896A
  8
DETAIL
  6
CONTINUOUS
 10
30.826
 20
29.547
 30
0.0
 40
0.0
 41
0.0
  0
SEQEND
  5
896B
  8
DETAIL
  6
CONTINUOUS
  0
POLYLINE
  5
896C
  8
DETAIL
  6
CONTINUOUS
 66
     1
 10
0.0
 20
0.0
 30
0.0
 40
0.023
 41
0.023
  0
VERTEX
  5
896D
  8
DETAIL
  6
CONTINUOUS
 10
30.615
 20
29.575
 30
0.0
 40
0.0
 41
0.0
  0
VERTEX
  5
896E
  8
DETAIL
  6
CONTINUOUS
 10
30.64
 20
29.483
 30
0.0
 40
0.0
 41
0.0
  0
VERTEX
  5
896F
  8
DETAIL
  6
CONTINUOUS
 10
30.706
 20
29.418
 30
0.0
 40
0.0
 41
0.0
  0
VERTEX
  5
8970
  8
DETAIL
  6
CONTINUOUS
 10
30.798
 20
29.393
 30
0.0
 40
0.0
 41
0.0
  0
SEQEND
  5
8971
  8
DETAIL
  6
CONTINUOUS
  0
POLYLINE
  5
8972
  8
DETAIL
  6
CONTINUOUS
 66
     1
 10
0.0
 20
0.0
 30
0.0
 40
0.047
 41
0.047
  0
VERTEX
  5
8973
  8
DETAIL
  6
CONTINUOUS
 10
30.798
 20
29.681
 30
0.0
 40
0.0
 41
0.0
  0
VERTEX
  5
8974
  8
DETAIL
  6
CONTINUOUS
 10
30.774
 20
29.681
 30
0.0
 40
0.0
 41
0.0
  0
VERTEX
  5
8975
  8
DETAIL
  6
CONTINUOUS
 10
30.774
 20
29.617
 30
0.0
 40
0.0
 41
0.0
  0
VERTEX
  5
8976
  8
DETAIL
  6
CONTINUOUS
 10
30.769
 20
29.604
 30
0.0
 40
0.0
 41
0.0
  0
SEQEND
  5
8977
  8
DETAIL
  6
CONTINUOUS
  0
POLYLINE
  5
8978
  8
DETAIL
  6
CONTINUOUS
 66
     1
 10
0.0
 20
0.0
 30
0.0
 40
0.047
 41
0.047
  0
VERTEX
  5
8979
  8
DETAIL
  6
CONTINUOUS
 10
30.798
 20
29.681
 30
0.0
 40
0.0
 41
0.0
  0
VERTEX
  5
897A
  8
DETAIL
  6
CONTINUOUS
 10
30.821
 20
29.681
 30
0.0
 40
0.0
 41
0.0
  0
VERTEX
  5
897B
  8
DETAIL
  6
CONTINUOUS
 10
30.821
 20
29.617
 30
0.0
 40
0.0
 41
0.0
  0
VERTEX
  5
897C
  8
DETAIL
  6
CONTINUOUS
 10
30.826
 20
29.603
 30
0.0
 40
0.0
 41
0.0
  0
SEQEND
  5
897D
  8
DETAIL
  6
CONTINUOUS
  0
POLYLINE
  5
897E
  8
DETAIL
  6
CONTINUOUS
 66
     1
 10
0.0
 20
0.0
 30
0.0
 40
0.047
 41
0.047
  0
VERTEX
  5
897F
  8
DETAIL
  6
CONTINUOUS
 10
30.692
 20
29.575
 30
0.0
 40
0.0
 41
0.0
  0
VERTEX
  5
8980
  8
DETAIL
  6
CONTINUOUS
 10
30.692
 20
29.552
 30
0.0
 40
0.0
 41
0.0
  0
VERTEX
  5
8981
  8
DETAIL
  6
CONTINUOUS
 10
30.756
 20
29.552
 30
0.0
 40
0.0
 41
0.0
  0
VERTEX
  5
8982
  8
DETAIL
  6
CONTINUOUS
 10
30.769
 20
29.547
 30
0.0
 40
0.0
 41
0.0
  0
SEQEND
  5
8983
  8
DETAIL
  6
CONTINUOUS
  0
POLYLINE
  5
8984
  8
DETAIL
  6
CONTINUOUS
 66
     1
 10
0.0
 20
0.0
 30
0.0
 40
0.047
 41
0.047
  0
VERTEX
  5
8985
  8
DETAIL
  6
CONTINUOUS
 10
30.692
 20
29.575
 30
0.0
 40
0.0
 41
0.0
  0
VERTEX
  5
8986
  8
DETAIL
  6
CONTINUOUS
 10
30.692
 20
29.599
 30
0.0
 40
0.0
 41
0.0
  0
VERTEX
  5
8987
  8
DETAIL
  6
CONTINUOUS
 10
30.756
 20
29.599
 30
0.0
 40
0.0
 41
0.0
  0
VERTEX
  5
8988
  8
DETAIL
  6
CONTINUOUS
 10
30.769
 20
29.604
 30
0.0
 40
0.0
 41
0.0
  0
SEQEND
  5
8989
  8
DETAIL
  6
CONTINUOUS
  0
POLYLINE
  5
898A
  8
DETAIL
  6
CONTINUOUS
 66
     1
 10
0.0
 20
0.0
 30
0.0
 40
0.047
 41
0.047
  0
VERTEX
  5
898B
  8
DETAIL
  6
CONTINUOUS
 10
31.035
 20
29.838
 30
0.0
 40
0.0
 41
0.0
  0
VERTEX
  5
898C
  8
DETAIL
  6
CONTINUOUS
 10
31.09
 20
29.823
 30
0.0
 40
0.0
 41
0.0
  0
VERTEX
  5
898D
  8
DETAIL
  6
CONTINUOUS
 10
31.128
 20
29.785
 30
0.0
 40
0.0
 41
0.0
  0
VERTEX
  5
898E
  8
DETAIL
  6
CONTINUOUS
 10
31.143
 20
29.73
 30
0.0
 40
0.0
 41
0.0
  0
SEQEND
  5
898F
  8
DETAIL
  6
CONTINUOUS
  0
POLYLINE
  5
8990
  8
DETAIL
  6
CONTINUOUS
 66
     1
 10
0.0
 20
0.0
 30
0.0
 70
     1
 40
0.07
 41
0.07
  0
VERTEX
  5
8991
  8
DETAIL
  6
CONTINUOUS
 10
25.516
 20
27.8
 30
0.0
 40
0.0
 41
0.0
  0
VERTEX
  5
8992
  8
DETAIL
  6
CONTINUOUS
 10
25.516
 20
29.529
 30
0.0
 40
0.0
 41
0.0
  0
VERTEX
  5
8993
  8
DETAIL
  6
CONTINUOUS
 10
25.531
 20
29.611
 30
0.0
 40
0.0
 41
0.0
  0
VERTEX
  5
8994
  8
DETAIL
  6
CONTINUOUS
 10
25.614
 20
29.76
 30
0.0
 40
0.0
 41
0.0
  0
VERTEX
  5
8995
  8
DETAIL
  6
CONTINUOUS
 10
25.821
 20
29.834
 30
0.0
 40
0.0
 41
0.0
  0
VERTEX
  5
8996
  8
DETAIL
  6
CONTINUOUS
 10
26.031
 20
29.766
 30
0.0
 40
0.0
 41
0.0
  0
VERTEX
  5
8997
  8
DETAIL
  6
CONTINUOUS
 10
26.119
 20
29.653
 30
0.0
 40
0.0
 41
0.0
  0
VERTEX
  5
8998
  8
DETAIL
  6
CONTINUOUS
 10
26.137
 20
29.593
 30
0.0
 40
0.0
 41
0.0
  0
VERTEX
  5
8999
  8
DETAIL
  6
CONTINUOUS
 10
26.143
 20
27.8
 30
0.0
 40
0.0
 41
0.0
  0
SEQEND
  5
899A
  8
DETAIL
  6
CONTINUOUS
  0
POLYLINE
  5
899B
  8
DETAIL
  6
CONTINUOUS
 66
     1
 10
0.0
 20
0.0
 30
0.0
 70
     1
 40
0.02
 41
0.02
  0
VERTEX
  5
899C
  8
DETAIL
  6
CONTINUOUS
 10
25.516
 20
28.251
 30
0.0
 40
0.0
 41
0.0
  0
VERTEX
  5
899D
  8
DETAIL
  6
CONTINUOUS
 10
25.529
 20
28.33
 30
0.0
 40
0.0
 41
0.0
  0
VERTEX
  5
899E
  8
DETAIL
  6
CONTINUOUS
 10
25.613
 20
28.475
 30
0.0
 40
0.0
 41
0.0
  0
VERTEX
  5
899F
  8
DETAIL
  6
CONTINUOUS
 10
25.833
 20
28.55
 30
0.0
 40
0.0
 41
0.0
  0
VERTEX
  5
89A0
  8
DETAIL
  6
CONTINUOUS
 10
26.05
 20
28.472
 30
0.0
 40
0.0
 41
0.0
  0
VERTEX
  5
89A1
  8
DETAIL
  6
CONTINUOUS
 10
26.127
 20
28.332
 30
0.0
 40
0.0
 41
0.0
  0
VERTEX
  5
89A2
  8
DETAIL
  6
CONTINUOUS
 10
26.142
 20
28.252
 30
0.0
 40
0.0
 41
0.0
  0
SEQEND
  5
89A3
  8
DETAIL
  6
CONTINUOUS
  0
POLYLINE
  5
89A4
  8
DETAIL
  6
CONTINUOUS
 66
     1
 10
0.0
 20
0.0
 30
0.0
 40
0.047
 41
0.047
  0
VERTEX
  5
89A5
  8
DETAIL
  6
CONTINUOUS
 10
25.969
 20
28.73
 30
0.0
 40
0.0
 41
0.0
  0
VERTEX
  5
89A6
  8
DETAIL
  6
CONTINUOUS
 10
25.949
 20
28.803
 30
0.0
 40
0.0
 41
0.0
  0
VERTEX
  5
89A7
  8
DETAIL
  6
CONTINUOUS
 10
25.896
 20
28.855
 30
0.0
 40
0.0
 41
0.0
  0
VERTEX
  5
89A8
  8
DETAIL
  6
CONTINUOUS
 10
25.821
 20
28.875
 30
0.0
 40
0.0
 41
0.0
  0
SEQEND
  5
89A9
  8
DETAIL
  6
CONTINUOUS
  0
POLYLINE
  5
89AA
  8
DETAIL
  6
CONTINUOUS
 66
     1
 10
0.0
 20
0.0
 30
0.0
 40
0.047
 41
0.047
  0
VERTEX
  5
89AB
  8
DETAIL
  6
CONTINUOUS
 10
25.926
 20
28.73
 30
0.0
 40
0.0
 41
0.0
  0
VERTEX
  5
89AC
  8
DETAIL
  6
CONTINUOUS
 10
25.926
 20
28.753
 30
0.0
 40
0.0
 41
0.0
  0
VERTEX
  5
89AD
  8
DETAIL
  6
CONTINUOUS
 10
25.862
 20
28.753
 30
0.0
 40
0.0
 41
0.0
  0
VERTEX
  5
89AE
  8
DETAIL
  6
CONTINUOUS
 10
25.849
 20
28.758
 30
0.0
 40
0.0
 41
0.0
  0
SEQEND
  5
89AF
  8
DETAIL
  6
CONTINUOUS
  0
POLYLINE
  5
89B0
  8
DETAIL
  6
CONTINUOUS
 66
     1
 10
0.0
 20
0.0
 30
0.0
 40
0.047
 41
0.047
  0
VERTEX
  5
89B1
  8
DETAIL
  6
CONTINUOUS
 10
25.926
 20
28.73
 30
0.0
 40
0.0
 41
0.0
  0
VERTEX
  5
89B2
  8
DETAIL
  6
CONTINUOUS
 10
25.926
 20
28.706
 30
0.0
 40
0.0
 41
0.0
  0
VERTEX
  5
89B3
  8
DETAIL
  6
CONTINUOUS
 10
25.862
 20
28.706
 30
0.0
 40
0.0
 41
0.0
  0
VERTEX
  5
89B4
  8
DETAIL
  6
CONTINUOUS
 10
25.849
 20
28.701
 30
0.0
 40
0.0
 41
0.0
  0
SEQEND
  5
89B5
  8
DETAIL
  6
CONTINUOUS
  0
POLYLINE
  5
89B6
  8
DETAIL
  6
CONTINUOUS
 66
     1
 10
0.0
 20
0.0
 30
0.0
 40
0.047
 41
0.047
  0
VERTEX
  5
89B7
  8
DETAIL
  6
CONTINUOUS
 10
25.821
 20
28.584
 30
0.0
 40
0.0
 41
0.0
  0
VERTEX
  5
89B8
  8
DETAIL
  6
CONTINUOUS
 10
25.896
 20
28.604
 30
0.0
 40
0.0
 41
0.0
  0
VERTEX
  5
89B9
  8
DETAIL
  6
CONTINUOUS
 10
25.949
 20
28.656
 30
0.0
 40
0.0
 41
0.0
  0
VERTEX
  5
89BA
  8
DETAIL
  6
CONTINUOUS
 10
25.969
 20
28.73
 30
0.0
 40
0.0
 41
0.0
  0
SEQEND
  5
89BB
  8
DETAIL
  6
CONTINUOUS
  0
POLYLINE
  5
89BC
  8
DETAIL
  6
CONTINUOUS
 66
     1
 10
0.0
 20
0.0
 30
0.0
 40
0.047
 41
0.047
  0
VERTEX
  5
89BD
  8
DETAIL
  6
CONTINUOUS
 10
25.821
 20
28.624
 30
0.0
 40
0.0
 41
0.0
  0
VERTEX
  5
89BE
  8
DETAIL
  6
CONTINUOUS
 10
25.844
 20
28.624
 30
0.0
 40
0.0
 41
0.0
  0
VERTEX
  5
89BF
  8
DETAIL
  6
CONTINUOUS
 10
25.844
 20
28.688
 30
0.0
 40
0.0
 41
0.0
  0
VERTEX
  5
89C0
  8
DETAIL
  6
CONTINUOUS
 10
25.849
 20
28.701
 30
0.0
 40
0.0
 41
0.0
  0
SEQEND
  5
89C1
  8
DETAIL
  6
CONTINUOUS
  0
POLYLINE
  5
89C2
  8
DETAIL
  6
CONTINUOUS
 66
     1
 10
0.0
 20
0.0
 30
0.0
 40
0.047
 41
0.047
  0
VERTEX
  5
89C3
  8
DETAIL
  6
CONTINUOUS
 10
25.821
 20
28.835
 30
0.0
 40
0.0
 41
0.0
  0
VERTEX
  5
89C4
  8
DETAIL
  6
CONTINUOUS
 10
25.844
 20
28.835
 30
0.0
 40
0.0
 41
0.0
  0
VERTEX
  5
89C5
  8
DETAIL
  6
CONTINUOUS
 10
25.844
 20
28.771
 30
0.0
 40
0.0
 41
0.0
  0
VERTEX
  5
89C6
  8
DETAIL
  6
CONTINUOUS
 10
25.849
 20
28.758
 30
0.0
 40
0.0
 41
0.0
  0
SEQEND
  5
89C7
  8
DETAIL
  6
CONTINUOUS
  0
POLYLINE
  5
89C8
  8
DETAIL
  6
CONTINUOUS
 66
     1
 10
0.0
 20
0.0
 30
0.0
 40
0.047
 41
0.047
  0
VERTEX
  5
89C9
  8
DETAIL
  6
CONTINUOUS
 10
25.821
 20
29.248
 30
0.0
 40
0.0
 41
0.0
  0
VERTEX
  5
89CA
  8
DETAIL
  6
CONTINUOUS
 10
25.844
 20
29.248
 30
0.0
 40
0.0
 41
0.0
  0
VERTEX
  5
89CB
  8
DETAIL
  6
CONTINUOUS
 10
25.844
 20
29.312
 30
0.0
 40
0.0
 41
0.0
  0
VERTEX
  5
89CC
  8
DETAIL
  6
CONTINUOUS
 10
25.849
 20
29.325
 30
0.0
 40
0.0
 41
0.0
  0
SEQEND
  5
89CD
  8
DETAIL
  6
CONTINUOUS
  0
POLYLINE
  5
89CE
  8
DETAIL
  6
CONTINUOUS
 66
     1
 10
0.0
 20
0.0
 30
0.0
 40
0.047
 41
0.047
  0
VERTEX
  5
89CF
  8
DETAIL
  6
CONTINUOUS
 10
25.821
 20
29.208
 30
0.0
 40
0.0
 41
0.0
  0
VERTEX
  5
89D0
  8
DETAIL
  6
CONTINUOUS
 10
25.896
 20
29.228
 30
0.0
 40
0.0
 41
0.0
  0
VERTEX
  5
89D1
  8
DETAIL
  6
CONTINUOUS
 10
25.949
 20
29.28
 30
0.0
 40
0.0
 41
0.0
  0
VERTEX
  5
89D2
  8
DETAIL
  6
CONTINUOUS
 10
25.969
 20
29.353
 30
0.0
 40
0.0
 41
0.0
  0
SEQEND
  5
89D3
  8
DETAIL
  6
CONTINUOUS
  0
POLYLINE
  5
89D4
  8
DETAIL
  6
CONTINUOUS
 66
     1
 10
0.0
 20
0.0
 30
0.0
 40
0.047
 41
0.047
  0
VERTEX
  5
89D5
  8
DETAIL
  6
CONTINUOUS
 10
25.926
 20
29.353
 30
0.0
 40
0.0
 41
0.0
  0
VERTEX
  5
89D6
  8
DETAIL
  6
CONTINUOUS
 10
25.926
 20
29.33
 30
0.0
 40
0.0
 41
0.0
  0
VERTEX
  5
89D7
  8
DETAIL
  6
CONTINUOUS
 10
25.862
 20
29.33
 30
0.0
 40
0.0
 41
0.0
  0
VERTEX
  5
89D8
  8
DETAIL
  6
CONTINUOUS
 10
25.849
 20
29.325
 30
0.0
 40
0.0
 41
0.0
  0
SEQEND
  5
89D9
  8
DETAIL
  6
CONTINUOUS
  0
POLYLINE
  5
89DA
  8
DETAIL
  6
CONTINUOUS
 66
     1
 10
0.0
 20
0.0
 30
0.0
 40
0.047
 41
0.047
  0
VERTEX
  5
89DB
  8
DETAIL
  6
CONTINUOUS
 10
25.926
 20
29.353
 30
0.0
 40
0.0
 41
0.0
  0
VERTEX
  5
89DC
  8
DETAIL
  6
CONTINUOUS
 10
25.926
 20
29.377
 30
0.0
 40
0.0
 41
0.0
  0
VERTEX
  5
89DD
  8
DETAIL
  6
CONTINUOUS
 10
25.862
 20
29.377
 30
0.0
 40
0.0
 41
0.0
  0
VERTEX
  5
89DE
  8
DETAIL
  6
CONTINUOUS
 10
25.849
 20
29.381
 30
0.0
 40
0.0
 41
0.0
  0
SEQEND
  5
89DF
  8
DETAIL
  6
CONTINUOUS
  0
POLYLINE
  5
89E0
  8
DETAIL
  6
CONTINUOUS
 66
     1
 10
0.0
 20
0.0
 30
0.0
 40
0.047
 41
0.047
  0
VERTEX
  5
89E1
  8
DETAIL
  6
CONTINUOUS
 10
25.969
 20
29.353
 30
0.0
 40
0.0
 41
0.0
  0
VERTEX
  5
89E2
  8
DETAIL
  6
CONTINUOUS
 10
25.949
 20
29.426
 30
0.0
 40
0.0
 41
0.0
  0
VERTEX
  5
89E3
  8
DETAIL
  6
CONTINUOUS
 10
25.896
 20
29.478
 30
0.0
 40
0.0
 41
0.0
  0
VERTEX
  5
89E4
  8
DETAIL
  6
CONTINUOUS
 10
25.821
 20
29.498
 30
0.0
 40
0.0
 41
0.0
  0
SEQEND
  5
89E5
  8
DETAIL
  6
CONTINUOUS
  0
POLYLINE
  5
89E6
  8
DETAIL
  6
CONTINUOUS
 66
     1
 10
0.0
 20
0.0
 30
0.0
 40
0.047
 41
0.047
  0
VERTEX
  5
89E7
  8
DETAIL
  6
CONTINUOUS
 10
25.821
 20
29.459
 30
0.0
 40
0.0
 41
0.0
  0
VERTEX
  5
89E8
  8
DETAIL
  6
CONTINUOUS
 10
25.844
 20
29.459
 30
0.0
 40
0.0
 41
0.0
  0
VERTEX
  5
89E9
  8
DETAIL
  6
CONTINUOUS
 10
25.844
 20
29.394
 30
0.0
 40
0.0
 41
0.0
  0
VERTEX
  5
89EA
  8
DETAIL
  6
CONTINUOUS
 10
25.849
 20
29.381
 30
0.0
 40
0.0
 41
0.0
  0
SEQEND
  5
89EB
  8
DETAIL
  6
CONTINUOUS
  0
POLYLINE
  5
89EC
  8
DETAIL
  6
CONTINUOUS
 66
     1
 10
0.0
 20
0.0
 30
0.0
 40
0.047
 41
0.047
  0
VERTEX
  5
89ED
  8
DETAIL
  6
CONTINUOUS
 10
25.821
 20
29.248
 30
0.0
 40
0.0
 41
0.0
  0
VERTEX
  5
89EE
  8
DETAIL
  6
CONTINUOUS
 10
25.797
 20
29.248
 30
0.0
 40
0.0
 41
0.0
  0
VERTEX
  5
89EF
  8
DETAIL
  6
CONTINUOUS
 10
25.797
 20
29.312
 30
0.0
 40
0.0
 41
0.0
  0
VERTEX
  5
89F0
  8
DETAIL
  6
CONTINUOUS
 10
25.792
 20
29.325
 30
0.0
 40
0.0
 41
0.0
  0
SEQEND
  5
89F1
  8
DETAIL
  6
CONTINUOUS
  0
POLYLINE
  5
89F2
  8
DETAIL
  6
CONTINUOUS
 66
     1
 10
0.0
 20
0.0
 30
0.0
 40
0.047
 41
0.047
  0
VERTEX
  5
89F3
  8
DETAIL
  6
CONTINUOUS
 10
25.673
 20
29.353
 30
0.0
 40
0.0
 41
0.0
  0
VERTEX
  5
89F4
  8
DETAIL
  6
CONTINUOUS
 10
25.693
 20
29.28
 30
0.0
 40
0.0
 41
0.0
  0
VERTEX
  5
89F5
  8
DETAIL
  6
CONTINUOUS
 10
25.746
 20
29.228
 30
0.0
 40
0.0
 41
0.0
  0
VERTEX
  5
89F6
  8
DETAIL
  6
CONTINUOUS
 10
25.821
 20
29.208
 30
0.0
 40
0.0
 41
0.0
  0
SEQEND
  5
89F7
  8
DETAIL
  6
CONTINUOUS
  0
POLYLINE
  5
89F8
  8
DETAIL
  6
CONTINUOUS
 66
     1
 10
0.0
 20
0.0
 30
0.0
 40
0.047
 41
0.047
  0
VERTEX
  5
89F9
  8
DETAIL
  6
CONTINUOUS
 10
25.715
 20
29.353
 30
0.0
 40
0.0
 41
0.0
  0
VERTEX
  5
89FA
  8
DETAIL
  6
CONTINUOUS
 10
25.715
 20
29.377
 30
0.0
 40
0.0
 41
0.0
  0
VERTEX
  5
89FB
  8
DETAIL
  6
CONTINUOUS
 10
25.78
 20
29.377
 30
0.0
 40
0.0
 41
0.0
  0
VERTEX
  5
89FC
  8
DETAIL
  6
CONTINUOUS
 10
25.793
 20
29.382
 30
0.0
 40
0.0
 41
0.0
  0
SEQEND
  5
89FD
  8
DETAIL
  6
CONTINUOUS
  0
POLYLINE
  5
89FE
  8
DETAIL
  6
CONTINUOUS
 66
     1
 10
0.0
 20
0.0
 30
0.0
 40
0.047
 41
0.047
  0
VERTEX
  5
89FF
  8
DETAIL
  6
CONTINUOUS
 10
25.715
 20
29.353
 30
0.0
 40
0.0
 41
0.0
  0
VERTEX
  5
8A00
  8
DETAIL
  6
CONTINUOUS
 10
25.715
 20
29.33
 30
0.0
 40
0.0
 41
0.0
  0
VERTEX
  5
8A01
  8
DETAIL
  6
CONTINUOUS
 10
25.78
 20
29.33
 30
0.0
 40
0.0
 41
0.0
  0
VERTEX
  5
8A02
  8
DETAIL
  6
CONTINUOUS
 10
25.792
 20
29.325
 30
0.0
 40
0.0
 41
0.0
  0
SEQEND
  5
8A03
  8
DETAIL
  6
CONTINUOUS
  0
POLYLINE
  5
8A04
  8
DETAIL
  6
CONTINUOUS
 66
     1
 10
0.0
 20
0.0
 30
0.0
 40
0.047
 41
0.047
  0
VERTEX
  5
8A05
  8
DETAIL
  6
CONTINUOUS
 10
25.821
 20
29.498
 30
0.0
 40
0.0
 41
0.0
  0
VERTEX
  5
8A06
  8
DETAIL
  6
CONTINUOUS
 10
25.746
 20
29.478
 30
0.0
 40
0.0
 41
0.0
  0
VERTEX
  5
8A07
  8
DETAIL
  6
CONTINUOUS
 10
25.693
 20
29.426
 30
0.0
 40
0.0
 41
0.0
  0
VERTEX
  5
8A08
  8
DETAIL
  6
CONTINUOUS
 10
25.673
 20
29.353
 30
0.0
 40
0.0
 41
0.0
  0
SEQEND
  5
8A09
  8
DETAIL
  6
CONTINUOUS
  0
POLYLINE
  5
8A0A
  8
DETAIL
  6
CONTINUOUS
 66
     1
 10
0.0
 20
0.0
 30
0.0
 40
0.047
 41
0.047
  0
VERTEX
  5
8A0B
  8
DETAIL
  6
CONTINUOUS
 10
25.821
 20
29.459
 30
0.0
 40
0.0
 41
0.0
  0
VERTEX
  5
8A0C
  8
DETAIL
  6
CONTINUOUS
 10
25.797
 20
29.459
 30
0.0
 40
0.0
 41
0.0
  0
VERTEX
  5
8A0D
  8
DETAIL
  6
CONTINUOUS
 10
25.797
 20
29.394
 30
0.0
 40
0.0
 41
0.0
  0
VERTEX
  5
8A0E
  8
DETAIL
  6
CONTINUOUS
 10
25.793
 20
29.382
 30
0.0
 40
0.0
 41
0.0
  0
SEQEND
  5
8A0F
  8
DETAIL
  6
CONTINUOUS
  0
POLYLINE
  5
8A10
  8
DETAIL
  6
CONTINUOUS
 66
     1
 10
0.0
 20
0.0
 30
0.0
 40
0.047
 41
0.047
  0
VERTEX
  5
8A11
  8
DETAIL
  6
CONTINUOUS
 10
25.821
 20
28.835
 30
0.0
 40
0.0
 41
0.0
  0
VERTEX
  5
8A12
  8
DETAIL
  6
CONTINUOUS
 10
25.797
 20
28.835
 30
0.0
 40
0.0
 41
0.0
  0
VERTEX
  5
8A13
  8
DETAIL
  6
CONTINUOUS
 10
25.797
 20
28.771
 30
0.0
 40
0.0
 41
0.0
  0
VERTEX
  5
8A14
  8
DETAIL
  6
CONTINUOUS
 10
25.793
 20
28.758
 30
0.0
 40
0.0
 41
0.0
  0
SEQEND
  5
8A15
  8
DETAIL
  6
CONTINUOUS
  0
POLYLINE
  5
8A16
  8
DETAIL
  6
CONTINUOUS
 66
     1
 10
0.0
 20
0.0
 30
0.0
 40
0.047
 41
0.047
  0
VERTEX
  5
8A17
  8
DETAIL
  6
CONTINUOUS
 10
25.715
 20
28.73
 30
0.0
 40
0.0
 41
0.0
  0
VERTEX
  5
8A18
  8
DETAIL
  6
CONTINUOUS
 10
25.715
 20
28.706
 30
0.0
 40
0.0
 41
0.0
  0
VERTEX
  5
8A19
  8
DETAIL
  6
CONTINUOUS
 10
25.78
 20
28.706
 30
0.0
 40
0.0
 41
0.0
  0
VERTEX
  5
8A1A
  8
DETAIL
  6
CONTINUOUS
 10
25.792
 20
28.702
 30
0.0
 40
0.0
 41
0.0
  0
SEQEND
  5
8A1B
  8
DETAIL
  6
CONTINUOUS
  0
POLYLINE
  5
8A1C
  8
DETAIL
  6
CONTINUOUS
 66
     1
 10
0.0
 20
0.0
 30
0.0
 40
0.047
 41
0.047
  0
VERTEX
  5
8A1D
  8
DETAIL
  6
CONTINUOUS
 10
25.673
 20
28.73
 30
0.0
 40
0.0
 41
0.0
  0
VERTEX
  5
8A1E
  8
DETAIL
  6
CONTINUOUS
 10
25.693
 20
28.656
 30
0.0
 40
0.0
 41
0.0
  0
VERTEX
  5
8A1F
  8
DETAIL
  6
CONTINUOUS
 10
25.746
 20
28.604
 30
0.0
 40
0.0
 41
0.0
  0
VERTEX
  5
8A20
  8
DETAIL
  6
CONTINUOUS
 10
25.821
 20
28.584
 30
0.0
 40
0.0
 41
0.0
  0
SEQEND
  5
8A21
  8
DETAIL
  6
CONTINUOUS
  0
POLYLINE
  5
8A22
  8
DETAIL
  6
CONTINUOUS
 66
     1
 10
0.0
 20
0.0
 30
0.0
 40
0.047
 41
0.047
  0
VERTEX
  5
8A23
  8
DETAIL
  6
CONTINUOUS
 10
25.821
 20
28.624
 30
0.0
 40
0.0
 41
0.0
  0
VERTEX
  5
8A24
  8
DETAIL
  6
CONTINUOUS
 10
25.797
 20
28.624
 30
0.0
 40
0.0
 41
0.0
  0
VERTEX
  5
8A25
  8
DETAIL
  6
CONTINUOUS
 10
25.797
 20
28.688
 30
0.0
 40
0.0
 41
0.0
  0
VERTEX
  5
8A26
  8
DETAIL
  6
CONTINUOUS
 10
25.792
 20
28.702
 30
0.0
 40
0.0
 41
0.0
  0
SEQEND
  5
8A27
  8
DETAIL
  6
CONTINUOUS
  0
POLYLINE
  5
8A28
  8
DETAIL
  6
CONTINUOUS
 66
     1
 10
0.0
 20
0.0
 30
0.0
 40
0.047
 41
0.047
  0
VERTEX
  5
8A29
  8
DETAIL
  6
CONTINUOUS
 10
25.821
 20
28.875
 30
0.0
 40
0.0
 41
0.0
  0
VERTEX
  5
8A2A
  8
DETAIL
  6
CONTINUOUS
 10
25.746
 20
28.855
 30
0.0
 40
0.0
 41
0.0
  0
VERTEX
  5
8A2B
  8
DETAIL
  6
CONTINUOUS
 10
25.693
 20
28.803
 30
0.0
 40
0.0
 41
0.0
  0
VERTEX
  5
8A2C
  8
DETAIL
  6
CONTINUOUS
 10
25.673
 20
28.73
 30
0.0
 40
0.0
 41
0.0
  0
SEQEND
  5
8A2D
  8
DETAIL
  6
CONTINUOUS
  0
POLYLINE
  5
8A2E
  8
DETAIL
  6
CONTINUOUS
 66
     1
 10
0.0
 20
0.0
 30
0.0
 40
0.047
 41
0.047
  0
VERTEX
  5
8A2F
  8
DETAIL
  6
CONTINUOUS
 10
25.715
 20
28.73
 30
0.0
 40
0.0
 41
0.0
  0
VERTEX
  5
8A30
  8
DETAIL
  6
CONTINUOUS
 10
25.715
 20
28.753
 30
0.0
 40
0.0
 41
0.0
  0
VERTEX
  5
8A31
  8
DETAIL
  6
CONTINUOUS
 10
25.78
 20
28.753
 30
0.0
 40
0.0
 41
0.0
  0
VERTEX
  5
8A32
  8
DETAIL
  6
CONTINUOUS
 10
25.793
 20
28.758
 30
0.0
 40
0.0
 41
0.0
  0
SEQEND
  5
8A33
  8
DETAIL
  6
CONTINUOUS
  0
LINE
  5
8A34
  8
DETAIL
  6
CONTINUOUS
 10
8.368
 20
27.129
 30
0.0
 11
26.274
 21
27.129
 31
0.0
  0
LINE
  5
8A35
  8
DETAIL
  6
CONTINUOUS
 10
8.368
 20
26.879
 30
0.0
 11
26.274
 21
26.879
 31
0.0
  0
POLYLINE
  5
8A36
  8
DETAIL
  6
CONTINUOUS
 66
     1
 10
0.0
 20
0.0
 30
0.0
 70
     1
 40
0.047
 41
0.047
  0
VERTEX
  5
8A37
  8
DETAIL
  6
CONTINUOUS
 10
8.243
 20
26.554
 30
0.0
 40
0.0
 41
0.0
  0
VERTEX
  5
8A38
  8
DETAIL
  6
CONTINUOUS
 10
8.243
 20
27.453
 30
0.0
 40
0.0
 41
0.0
  0
VERTEX
  5
8A39
  8
DETAIL
  6
CONTINUOUS
 10
8.321
 20
27.453
 30
0.0
 40
0.0
 41
0.0
  0
VERTEX
  5
8A3A
  8
DETAIL
  6
CONTINUOUS
 10
8.321
 20
26.554
 30
0.0
 40
0.0
 41
0.0
  0
SEQEND
  5
8A3B
  8
DETAIL
  6
CONTINUOUS
  0
POLYLINE
  5
8A3C
  8
DETAIL
  6
CONTINUOUS
 66
     1
 10
0.0
 20
0.0
 30
0.0
 40
0.047
 41
0.047
  0
VERTEX
  5
8A3D
  8
DETAIL
  6
CONTINUOUS
 10
8.021
 20
27.004
 30
0.0
 40
0.0
 41
0.0
  0
VERTEX
  5
8A3E
  8
DETAIL
  6
CONTINUOUS
 10
8.063
 20
27.128
 30
0.0
 40
0.0
 41
0.0
  0
VERTEX
  5
8A3F
  8
DETAIL
  6
CONTINUOUS
 10
8.18
 20
27.267
 30
0.0
 40
0.0
 41
0.0
  0
VERTEX
  5
8A40
  8
DETAIL
  6
CONTINUOUS
 10
8.243
 20
27.324
 30
0.0
 40
0.0
 41
0.0
  0
SEQEND
  5
8A41
  8
DETAIL
  6
CONTINUOUS
  0
POLYLINE
  5
8A42
  8
DETAIL
  6
CONTINUOUS
 66
     1
 10
0.0
 20
0.0
 30
0.0
 40
0.047
 41
0.047
  0
VERTEX
  5
8A43
  8
DETAIL
  6
CONTINUOUS
 10
8.021
 20
27.004
 30
0.0
 40
0.0
 41
0.0
  0
VERTEX
  5
8A44
  8
DETAIL
  6
CONTINUOUS
 10
8.063
 20
26.879
 30
0.0
 40
0.0
 41
0.0
  0
VERTEX
  5
8A45
  8
DETAIL
  6
CONTINUOUS
 10
8.18
 20
26.74
 30
0.0
 40
0.0
 41
0.0
  0
VERTEX
  5
8A46
  8
DETAIL
  6
CONTINUOUS
 10
8.243
 20
26.683
 30
0.0
 40
0.0
 41
0.0
  0
SEQEND
  5
8A47
  8
DETAIL
  6
CONTINUOUS
  0
POLYLINE
  5
8A48
  8
DETAIL
  6
CONTINUOUS
 66
     1
 10
0.0
 20
0.0
 30
0.0
 70
     1
 40
0.047
 41
0.047
  0
VERTEX
  5
8A49
  8
DETAIL
  6
CONTINUOUS
 10
26.399
 20
26.554
 30
0.0
 40
0.0
 41
0.0
  0
VERTEX
  5
8A4A
  8
DETAIL
  6
CONTINUOUS
 10
26.399
 20
27.453
 30
0.0
 40
0.0
 41
0.0
  0
VERTEX
  5
8A4B
  8
DETAIL
  6
CONTINUOUS
 10
26.321
 20
27.453
 30
0.0
 40
0.0
 41
0.0
  0
VERTEX
  5
8A4C
  8
DETAIL
  6
CONTINUOUS
 10
26.321
 20
26.554
 30
0.0
 40
0.0
 41
0.0
  0
SEQEND
  5
8A4D
  8
DETAIL
  6
CONTINUOUS
  0
POLYLINE
  5
8A4E
  8
DETAIL
  6
CONTINUOUS
 66
     1
 10
0.0
 20
0.0
 30
0.0
 40
0.047
 41
0.047
  0
VERTEX
  5
8A4F
  8
DETAIL
  6
CONTINUOUS
 10
26.621
 20
27.004
 30
0.0
 40
0.0
 41
0.0
  0
VERTEX
  5
8A50
  8
DETAIL
  6
CONTINUOUS
 10
26.578
 20
27.128
 30
0.0
 40
0.0
 41
0.0
  0
VERTEX
  5
8A51
  8
DETAIL
  6
CONTINUOUS
 10
26.462
 20
27.267
 30
0.0
 40
0.0
 41
0.0
  0
VERTEX
  5
8A52
  8
DETAIL
  6
CONTINUOUS
 10
26.399
 20
27.324
 30
0.0
 40
0.0
 41
0.0
  0
SEQEND
  5
8A53
  8
DETAIL
  6
CONTINUOUS
  0
POLYLINE
  5
8A54
  8
DETAIL
  6
CONTINUOUS
 66
     1
 10
0.0
 20
0.0
 30
0.0
 40
0.047
 41
0.047
  0
VERTEX
  5
8A55
  8
DETAIL
  6
CONTINUOUS
 10
26.621
 20
27.004
 30
0.0
 40
0.0
 41
0.0
  0
VERTEX
  5
8A56
  8
DETAIL
  6
CONTINUOUS
 10
26.578
 20
26.879
 30
0.0
 40
0.0
 41
0.0
  0
VERTEX
  5
8A57
  8
DETAIL
  6
CONTINUOUS
 10
26.462
 20
26.74
 30
0.0
 40
0.0
 41
0.0
  0
VERTEX
  5
8A58
  8
DETAIL
  6
CONTINUOUS
 10
26.399
 20
26.683
 30
0.0
 40
0.0
 41
0.0
  0
SEQEND
  5
8A59
  8
DETAIL
  6
CONTINUOUS
  0
LINE
  5
8A5A
  8
DETAIL
  6
CONTINUOUS
 10
25.321
 20
24.004
 30
0.0
 11
26.321
 21
24.004
 31
0.0
  0
LINE
  5
8A5B
  8
DETAIL
  6
CONTINUOUS
 10
43.295
 20
29.879
 30
0.0
 11
43.295
 21
29.504
 31
0.0
  0
LINE
  5
8A5C
  8
DETAIL
  6
CONTINUOUS
 10
35.295
 20
29.879
 30
0.0
 11
35.295
 21
28.504
 31
0.0
  0
LINE
  5
8A5D
  8
DETAIL
  6
CONTINUOUS
 10
35.42
 20
30.004
 30
0.0
 11
43.17
 21
30.004
 31
0.0
  0
LINE
  5
8A5E
  8
DETAIL
  6
CONTINUOUS
 10
35.467
 20
29.956
 30
0.0
 11
43.123
 21
29.956
 31
0.0
  0
LINE
  5
8A5F
  8
DETAIL
  6
CONTINUOUS
 10
35.295
 20
28.504
 30
0.0
 11
43.248
 21
28.504
 31
0.0
  0
LINE
  5
8A60
  8
DETAIL
  6
CENTER2
 10
8.071
 20
28.004
 30
0.0
 11
9.571
 21
28.004
 31
0.0
  0
LINE
  5
8A61
  8
DETAIL
  6
CENTER2
 10
8.071
 20
25.004
 30
0.0
 11
9.571
 21
25.004
 31
0.0
  0
LINE
  5
8A62
  8
DETAIL
  6
CONTINUOUS
 10
35.342
 20
29.831
 30
0.0
 11
35.342
 21
28.504
 31
0.0
  0
LINE
  5
8A63
  8
DETAIL
  6
CONTINUOUS
 10
43.248
 20
29.831
 30
0.0
 11
43.248
 21
29.504
 31
0.0
  0
ARC
  5
8A64
  8
DETAIL
  6
CONTINUOUS
 10
35.42
 20
29.879
 30
0.0
 40
0.125
 50
90.0
 51
180.0
  0
ARC
  5
8A65
  8
DETAIL
  6
CONTINUOUS
 10
35.467
 20
29.831
 30
0.0
 40
0.125
 50
90.0
 51
180.0
  0
ARC
  5
8A66
  8
DETAIL
  6
CONTINUOUS
 10
43.123
 20
29.831
 30
0.0
 40
0.125
 50
0.0
 51
90.0
  0
ARC
  5
8A67
  8
DETAIL
  6
CONTINUOUS
 10
43.17
 20
29.879
 30
0.0
 40
0.125
 50
0.0
 51
90.0
  0
LINE
  5
8A68
  8
DETAIL
  6
CONTINUOUS
 10
43.2
 20
29.504
 30
0.0
 11
43.295
 21
29.504
 31
0.0
  0
LINE
  5
8A69
  8
DETAIL
  6
CONTINUOUS
 10
43.2
 20
29.847
 30
0.0
 11
43.2
 21
29.456
 31
0.0
  0
LINE
  5
8A6A
  8
DETAIL
  6
CONTINUOUS
 10
43.2
 20
29.456
 30
0.0
 11
43.295
 21
29.456
 31
0.0
  0
LINE
  5
8A6B
  8
DETAIL
  6
CONTINUOUS
 10
43.248
 20
29.456
 30
0.0
 11
43.248
 21
24.004
 31
0.0
  0
LINE
  5
8A6C
  8
DETAIL
  6
CONTINUOUS
 10
43.295
 20
29.456
 30
0.0
 11
43.295
 21
24.004
 31
0.0
  0
LINE
  5
8A6D
  8
DETAIL
  6
CONTINUOUS
 10
35.452
 20
29.909
 30
0.0
 11
43.138
 21
29.909
 31
0.0
  0
LINE
  5
8A6E
  8
DETAIL
  6
CONTINUOUS
 10
35.389
 20
29.847
 30
0.0
 11
35.389
 21
28.62
 31
0.0
  0
ARC
  5
8A6F
  8
DETAIL
  6
CONTINUOUS
 10
35.452
 20
29.847
 30
0.0
 40
0.063
 50
90.0
 51
180.0
  0
ARC
  5
8A70
  8
DETAIL
  6
CONTINUOUS
 10
43.138
 20
29.847
 30
0.0
 40
0.063
 50
0.0
 51
90.0
  0
LINE
  5
8A71
  8
DETAIL
  6
CONTINUOUS
 10
35.342
 20
28.62
 30
0.0
 11
35.389
 21
28.62
 31
0.0
  0
LINE
  5
8A72
  8
DETAIL
  6
CONTINUOUS
 10
43.248
 20
24.004
 30
0.0
 11
43.295
 21
24.004
 31
0.0
  0
LINE
  5
8A73
  8
DETAIL
  6
CONTINUOUS
 10
35.389
 20
28.62
 30
0.0
 11
43.248
 21
24.004
 31
0.0
  0
POLYLINE
  5
8A74
  8
DETAIL
  6
CONTINUOUS
 66
     1
 10
0.0
 20
0.0
 30
0.0
 40
0.07
 41
0.07
  0
VERTEX
  5
8A75
  8
DETAIL
  6
CONTINUOUS
 10
34.489
 20
28.39
 30
0.0
 40
0.0
 41
0.0
  0
VERTEX
  5
8A76
  8
DETAIL
  6
CONTINUOUS
 10
35.08
 20
28.39
 30
0.0
 40
0.0
 41
0.0
  0
SEQEND
  5
8A77
  8
DETAIL
  6
CONTINUOUS
  0
POLYLINE
  5
8A78
  8
DETAIL
  6
CONTINUOUS
 66
     1
 10
0.0
 20
0.0
 30
0.0
 40
0.07
 41
0.07
  0
VERTEX
  5
8A79
  8
DETAIL
  6
CONTINUOUS
 10
35.013
 20
29.398
 30
0.0
 40
0.0
 41
0.0
  0
VERTEX
  5
8A7A
  8
DETAIL
  6
CONTINUOUS
 10
34.489
 20
29.399
 30
0.0
 40
0.0
 41
0.0
  0
SEQEND
  5
8A7B
  8
DETAIL
  6
CONTINUOUS
  0
POLYLINE
  5
8A7C
  8
DETAIL
  6
CONTINUOUS
 66
     1
 10
0.0
 20
0.0
 30
0.0
 40
0.07
 41
0.07
  0
VERTEX
  5
8A7D
  8
DETAIL
  6
CONTINUOUS
 10
34.421
 20
29.331
 30
0.0
 40
0.0
 41
0.0
  0
VERTEX
  5
8A7E
  8
DETAIL
  6
CONTINUOUS
 10
34.421
 20
28.458
 30
0.0
 40
0.0
 41
0.0
  0
SEQEND
  5
8A7F
  8
DETAIL
  6
CONTINUOUS
  0
POLYLINE
  5
8A80
  8
DETAIL
  6
CONTINUOUS
 66
     1
 10
0.0
 20
0.0
 30
0.0
 40
0.07
 41
0.07
  0
VERTEX
  5
8A81
  8
DETAIL
  6
CONTINUOUS
 10
34.421
 20
28.458
 30
0.0
 40
0.0
 41
0.0
  0
VERTEX
  5
8A82
  8
DETAIL
  6
CONTINUOUS
 10
34.431
 20
28.424
 30
0.0
 40
0.0
 41
0.0
  0
VERTEX
  5
8A83
  8
DETAIL
  6
CONTINUOUS
 10
34.455
 20
28.399
 30
0.0
 40
0.0
 41
0.0
  0
VERTEX
  5
8A84
  8
DETAIL
  6
CONTINUOUS
 10
34.489
 20
28.39
 30
0.0
 40
0.0
 41
0.0
  0
SEQEND
  5
8A85
  8
DETAIL
  6
CONTINUOUS
  0
POLYLINE
  5
8A86
  8
DETAIL
  6
CONTINUOUS
 66
     1
 10
0.0
 20
0.0
 30
0.0
 40
0.07
 41
0.07
  0
VERTEX
  5
8A87
  8
DETAIL
  6
CONTINUOUS
 10
34.052
 20
28.572
 30
0.0
 40
0.0
 41
0.0
  0
VERTEX
  5
8A88
  8
DETAIL
  6
CONTINUOUS
 10
33.989
 20
28.571
 30
0.0
 40
0.0
 41
0.0
  0
SEQEND
  5
8A89
  8
DETAIL
  6
CONTINUOUS
  0
POLYLINE
  5
8A8A
  8
DETAIL
  6
CONTINUOUS
 66
     1
 10
0.0
 20
0.0
 30
0.0
 40
0.047
 41
0.047
  0
VERTEX
  5
8A8B
  8
DETAIL
  6
CONTINUOUS
 10
34.31
 20
29.108
 30
0.0
 40
0.0
 41
0.0
  0
VERTEX
  5
8A8C
  8
DETAIL
  6
CONTINUOUS
 10
34.31
 20
28.85
 30
0.0
 40
0.0
 41
0.0
  0
SEQEND
  5
8A8D
  8
DETAIL
  6
CONTINUOUS
  0
POLYLINE
  5
8A8E
  8
DETAIL
  6
CONTINUOUS
 66
     1
 10
0.0
 20
0.0
 30
0.0
 40
0.047
 41
0.047
  0
VERTEX
  5
8A8F
  8
DETAIL
  6
CONTINUOUS
 10
34.31
 20
28.85
 30
0.0
 40
0.0
 41
0.0
  0
VERTEX
  5
8A90
  8
DETAIL
  6
CONTINUOUS
 10
34.312
 20
28.811
 30
0.0
 40
0.0
 41
0.0
  0
VERTEX
  5
8A91
  8
DETAIL
  6
CONTINUOUS
 10
34.32
 20
28.774
 30
0.0
 40
0.0
 41
0.0
  0
VERTEX
  5
8A92
  8
DETAIL
  6
CONTINUOUS
 10
34.333
 20
28.751
 30
0.0
 40
0.0
 41
0.0
  0
SEQEND
  5
8A93
  8
DETAIL
  6
CONTINUOUS
  0
POLYLINE
  5
8A94
  8
DETAIL
  6
CONTINUOUS
 66
     1
 10
0.0
 20
0.0
 30
0.0
 40
0.07
 41
0.07
  0
VERTEX
  5
8A95
  8
DETAIL
  6
CONTINUOUS
 10
34.254
 20
28.62
 30
0.0
 40
0.0
 41
0.0
  0
VERTEX
  5
8A96
  8
DETAIL
  6
CONTINUOUS
 10
34.421
 20
28.62
 30
0.0
 40
0.0
 41
0.0
  0
SEQEND
  5
8A97
  8
DETAIL
  6
CONTINUOUS
  0
POLYLINE
  5
8A98
  8
DETAIL
  6
CONTINUOUS
 66
     1
 10
0.0
 20
0.0
 30
0.0
 40
0.07
 41
0.07
  0
VERTEX
  5
8A99
  8
DETAIL
  6
CONTINUOUS
 10
34.187
 20
28.688
 30
0.0
 40
0.0
 41
0.0
  0
VERTEX
  5
8A9A
  8
DETAIL
  6
CONTINUOUS
 10
34.196
 20
28.654
 30
0.0
 40
0.0
 41
0.0
  0
VERTEX
  5
8A9B
  8
DETAIL
  6
CONTINUOUS
 10
34.22
 20
28.63
 30
0.0
 40
0.0
 41
0.0
  0
VERTEX
  5
8A9C
  8
DETAIL
  6
CONTINUOUS
 10
34.254
 20
28.62
 30
0.0
 40
0.0
 41
0.0
  0
SEQEND
  5
8A9D
  8
DETAIL
  6
CONTINUOUS
  0
POLYLINE
  5
8A9E
  8
DETAIL
  6
CONTINUOUS
 66
     1
 10
0.0
 20
0.0
 30
0.0
 40
0.047
 41
0.047
  0
VERTEX
  5
8A9F
  8
DETAIL
  6
CONTINUOUS
 10
34.333
 20
28.751
 30
0.0
 40
0.0
 41
0.0
  0
VERTEX
  5
8AA0
  8
DETAIL
  6
CONTINUOUS
 10
34.369
 20
28.725
 30
0.0
 40
0.0
 41
0.0
  0
VERTEX
  5
8AA1
  8
DETAIL
  6
CONTINUOUS
 10
34.387
 20
28.718
 30
0.0
 40
0.0
 41
0.0
  0
VERTEX
  5
8AA2
  8
DETAIL
  6
CONTINUOUS
 10
34.421
 20
28.711
 30
0.0
 40
0.0
 41
0.0
  0
SEQEND
  5
8AA3
  8
DETAIL
  6
CONTINUOUS
  0
POLYLINE
  5
8AA4
  8
DETAIL
  6
CONTINUOUS
 66
     1
 10
0.0
 20
0.0
 30
0.0
 40
0.047
 41
0.047
  0
VERTEX
  5
8AA5
  8
DETAIL
  6
CONTINUOUS
 10
34.421
 20
29.207
 30
0.0
 40
0.0
 41
0.0
  0
VERTEX
  5
8AA6
  8
DETAIL
  6
CONTINUOUS
 10
34.37
 20
29.182
 30
0.0
 40
0.0
 41
0.0
  0
VERTEX
  5
8AA7
  8
DETAIL
  6
CONTINUOUS
 10
34.333
 20
29.154
 30
0.0
 40
0.0
 41
0.0
  0
VERTEX
  5
8AA8
  8
DETAIL
  6
CONTINUOUS
 10
34.31
 20
29.108
 30
0.0
 40
0.0
 41
0.0
  0
SEQEND
  5
8AA9
  8
DETAIL
  6
CONTINUOUS
  0
POLYLINE
  5
8AAA
  8
DETAIL
  6
CONTINUOUS
 66
     1
 10
0.0
 20
0.0
 30
0.0
 40
0.07
 41
0.07
  0
VERTEX
  5
8AAB
  8
DETAIL
  6
CONTINUOUS
 10
34.489
 20
29.399
 30
0.0
 40
0.0
 41
0.0
  0
VERTEX
  5
8AAC
  8
DETAIL
  6
CONTINUOUS
 10
34.455
 20
29.389
 30
0.0
 40
0.0
 41
0.0
  0
VERTEX
  5
8AAD
  8
DETAIL
  6
CONTINUOUS
 10
34.431
 20
29.365
 30
0.0
 40
0.0
 41
0.0
  0
VERTEX
  5
8AAE
  8
DETAIL
  6
CONTINUOUS
 10
34.421
 20
29.331
 30
0.0
 40
0.0
 41
0.0
  0
SEQEND
  5
8AAF
  8
DETAIL
  6
CONTINUOUS
  0
POLYLINE
  5
8AB0
  8
DETAIL
  6
CONTINUOUS
 66
     1
 10
0.0
 20
0.0
 30
0.0
 40
0.07
 41
0.07
  0
VERTEX
  5
8AB1
  8
DETAIL
  6
CONTINUOUS
 10
34.254
 20
29.837
 30
0.0
 40
0.0
 41
0.0
  0
VERTEX
  5
8AB2
  8
DETAIL
  6
CONTINUOUS
 10
34.22
 20
29.828
 30
0.0
 40
0.0
 41
0.0
  0
VERTEX
  5
8AB3
  8
DETAIL
  6
CONTINUOUS
 10
34.196
 20
29.804
 30
0.0
 40
0.0
 41
0.0
  0
VERTEX
  5
8AB4
  8
DETAIL
  6
CONTINUOUS
 10
34.187
 20
29.77
 30
0.0
 40
0.0
 41
0.0
  0
SEQEND
  5
8AB5
  8
DETAIL
  6
CONTINUOUS
  0
POLYLINE
  5
8AB6
  8
DETAIL
  6
CONTINUOUS
 66
     1
 10
0.0
 20
0.0
 30
0.0
 40
0.047
 41
0.047
  0
VERTEX
  5
8AB7
  8
DETAIL
  6
CONTINUOUS
 10
35.113
 20
29.351
 30
0.0
 40
0.0
 41
0.0
  0
VERTEX
  5
8AB8
  8
DETAIL
  6
CONTINUOUS
 10
35.145
 20
29.249
 30
0.0
 40
0.0
 41
0.0
  0
VERTEX
  5
8AB9
  8
DETAIL
  6
CONTINUOUS
 10
35.204
 20
29.2
 30
0.0
 40
0.0
 41
0.0
  0
VERTEX
  5
8ABA
  8
DETAIL
  6
CONTINUOUS
 10
35.236
 20
29.187
 30
0.0
 40
0.0
 41
0.0
  0
SEQEND
  5
8ABB
  8
DETAIL
  6
CONTINUOUS
  0
POLYLINE
  5
8ABC
  8
DETAIL
  6
CONTINUOUS
 66
     1
 10
0.0
 20
0.0
 30
0.0
 40
0.07
 41
0.07
  0
VERTEX
  5
8ABD
  8
DETAIL
  6
CONTINUOUS
 10
35.146
 20
28.458
 30
0.0
 40
0.0
 41
0.0
  0
VERTEX
  5
8ABE
  8
DETAIL
  6
CONTINUOUS
 10
35.145
 20
28.62
 30
0.0
 40
0.0
 41
0.0
  0
SEQEND
  5
8ABF
  8
DETAIL
  6
CONTINUOUS
  0
POLYLINE
  5
8AC0
  8
DETAIL
  6
CONTINUOUS
 66
     1
 10
0.0
 20
0.0
 30
0.0
 40
0.07
 41
0.07
  0
VERTEX
  5
8AC1
  8
DETAIL
  6
CONTINUOUS
 10
35.08
 20
28.39
 30
0.0
 40
0.0
 41
0.0
  0
VERTEX
  5
8AC2
  8
DETAIL
  6
CONTINUOUS
 10
35.114
 20
28.399
 30
0.0
 40
0.0
 41
0.0
  0
VERTEX
  5
8AC3
  8
DETAIL
  6
CONTINUOUS
 10
35.138
 20
28.424
 30
0.0
 40
0.0
 41
0.0
  0
VERTEX
  5
8AC4
  8
DETAIL
  6
CONTINUOUS
 10
35.146
 20
28.458
 30
0.0
 40
0.0
 41
0.0
  0
SEQEND
  5
8AC5
  8
DETAIL
  6
CONTINUOUS
  0
POLYLINE
  5
8AC6
  8
DETAIL
  6
CONTINUOUS
 66
     1
 10
0.0
 20
0.0
 30
0.0
 40
0.047
 41
0.047
  0
VERTEX
  5
8AC7
  8
DETAIL
  6
CONTINUOUS
 10
35.236
 20
28.871
 30
0.0
 40
0.0
 41
0.0
  0
VERTEX
  5
8AC8
  8
DETAIL
  6
CONTINUOUS
 10
35.205
 20
28.864
 30
0.0
 40
0.0
 41
0.0
  0
VERTEX
  5
8AC9
  8
DETAIL
  6
CONTINUOUS
 10
35.149
 20
28.826
 30
0.0
 40
0.0
 41
0.0
  0
VERTEX
  5
8ACA
  8
DETAIL
  6
CONTINUOUS
 10
35.119
 20
28.73
 30
0.0
 40
0.0
 41
0.0
  0
SEQEND
  5
8ACB
  8
DETAIL
  6
CONTINUOUS
  0
POLYLINE
  5
8ACC
  8
DETAIL
  6
CONTINUOUS
 66
     1
 10
0.0
 20
0.0
 30
0.0
 40
0.047
 41
0.047
  0
VERTEX
  5
8ACD
  8
DETAIL
  6
CONTINUOUS
 10
35.23
 20
29.492
 30
0.0
 40
0.0
 41
0.0
  0
VERTEX
  5
8ACE
  8
DETAIL
  6
CONTINUOUS
 10
35.2
 20
29.485
 30
0.0
 40
0.0
 41
0.0
  0
VERTEX
  5
8ACF
  8
DETAIL
  6
CONTINUOUS
 10
35.143
 20
29.448
 30
0.0
 40
0.0
 41
0.0
  0
VERTEX
  5
8AD0
  8
DETAIL
  6
CONTINUOUS
 10
35.113
 20
29.351
 30
0.0
 40
0.0
 41
0.0
  0
SEQEND
  5
8AD1
  8
DETAIL
  6
CONTINUOUS
  0
LINE
  5
8AD2
  8
DETAIL
  6
CONTINUOUS
 10
34.254
 20
29.837
 30
0.0
 11
35.295
 21
29.837
 31
0.0
  0
POLYLINE
  5
8AD3
  8
DETAIL
  6
CONTINUOUS
 66
     1
 10
0.0
 20
0.0
 30
0.0
 40
0.047
 41
0.047
  0
VERTEX
  5
8AD4
  8
DETAIL
  6
CONTINUOUS
 10
31.035
 20
28.62
 30
0.0
 40
0.0
 41
0.0
  0
VERTEX
  5
8AD5
  8
DETAIL
  6
CONTINUOUS
 10
28.946
 20
28.62
 30
0.0
 40
0.0
 41
0.0
  0
VERTEX
  5
8AD6
  8
DETAIL
  6
CONTINUOUS
 10
28.829
 20
28.855
 30
0.0
 40
0.0
 41
0.0
  0
VERTEX
  5
8AD7
  8
DETAIL
  6
CONTINUOUS
 10
28.829
 20
29.558
 30
0.0
 40
0.0
 41
0.0
  0
VERTEX
  5
8AD8
  8
DETAIL
  6
CONTINUOUS
 10
28.945
 20
29.838
 30
0.0
 40
0.0
 41
0.0
  0
VERTEX
  5
8AD9
  8
DETAIL
  6
CONTINUOUS
 10
31.035
 20
29.838
 30
0.0
 40
0.0
 41
0.0
  0
SEQEND
  5
8ADA
  8
DETAIL
  6
CONTINUOUS
  0
LINE
  5
8ADB
  8
DETAIL
  6
CONTINUOUS
 10
35.013
 20
29.838
 30
0.0
 11
35.013
 21
28.62
 31
0.0
  0
LINE
  5
8ADC
  8
DETAIL
  6
CONTINUOUS
 10
35.013
 20
28.62
 30
0.0
 11
35.275
 21
28.62
 31
0.0
  0
POLYLINE
  5
8ADD
  8
DETAIL
  6
CONTINUOUS
 66
     1
 10
0.0
 20
0.0
 30
0.0
 40
0.07
 41
0.07
  0
VERTEX
  5
8ADE
  8
DETAIL
  6
CONTINUOUS
 10
34.187
 20
29.77
 30
0.0
 40
0.0
 41
0.0
  0
VERTEX
  5
8ADF
  8
DETAIL
  6
CONTINUOUS
 10
34.187
 20
28.688
 30
0.0
 40
0.0
 41
0.0
  0
SEQEND
  5
8AE0
  8
DETAIL
  6
CONTINUOUS
  0
POLYLINE
  5
8AE1
  8
DETAIL
  6
CONTINUOUS
 66
     1
 10
0.0
 20
0.0
 30
0.0
 40
0.047
 41
0.047
  0
VERTEX
  5
8AE2
  8
DETAIL
  6
CONTINUOUS
 10
35.119
 20
28.73
 30
0.0
 40
0.0
 41
0.0
  0
VERTEX
  5
8AE3
  8
DETAIL
  6
CONTINUOUS
 10
35.15
 20
28.628
 30
0.0
 40
0.0
 41
0.0
  0
VERTEX
  5
8AE4
  8
DETAIL
  6
CONTINUOUS
 10
35.21
 20
28.579
 30
0.0
 40
0.0
 41
0.0
  0
VERTEX
  5
8AE5
  8
DETAIL
  6
CONTINUOUS
 10
35.234
 20
28.569
 30
0.0
 40
0.0
 41
0.0
  0
SEQEND
  5
8AE6
  8
DETAIL
  6
CONTINUOUS
  0
POLYLINE
  8
0
  5
8E39
  66
     1
 10
0.000000
 20
0.000000
 30
0.000000
  70
     8
  0
VERTEX
  8
0
  5
8E3A
 10
34.0521
 20
28.5718
 30
0.000000
  70
    32
  0
VERTEX
  8
0
  5
8E3B
 10
34.0521
 20
28.5658
 30
0.000000
  70
    32
  0
VERTEX
  8
0
  5
8E3C
 10
34.0522
 20
28.5598
 30
0.000000
  70
    32
  0
VERTEX
  8
0
  5
8E3D
 10
34.0523
 20
28.5538
 30
0.000000
  70
    32
  0
VERTEX
  8
0
  5
8E3E
 10
34.0524
 20
28.5478
 30
0.000000
  70
    32
  0
VERTEX
  8
0
  5
8E3F
 10
34.0525
 20
28.5418
 30
0.000000
  70
    32
  0
VERTEX
  8
0
  5
8E40
 10
34.0526
 20
28.5358
 30
0.000000
  70
    32
  0
VERTEX
  8
0
  5
8E41
 10
34.0527
 20
28.5298
 30
0.000000
  70
    32
  0
VERTEX
  8
0
  5
8E42
 10
34.0529
 20
28.5239
 30
0.000000
  70
    32
  0
VERTEX
  8
0
  5
8E43
 10
34.0530
 20
28.5179
 30
0.000000
  70
    32
  0
VERTEX
  8
0
  5
8E44
 10
34.0532
 20
28.5119
 30
0.000000
  70
    32
  0
VERTEX
  8
0
  5
8E45
 10
34.0534
 20
28.5059
 30
0.000000
  70
    32
  0
VERTEX
  8
0
  5
8E46
 10
34.0536
 20
28.4999
 30
0.000000
  70
    32
  0
VERTEX
  8
0
  5
8E47
 10
34.0538
 20
28.4939
 30
0.000000
  70
    32
  0
VERTEX
  8
0
  5
8E48
 10
34.0541
 20
28.4879
 30
0.000000
  70
    32
  0
VERTEX
  8
0
  5
8E49
 10
34.0544
 20
28.4820
 30
0.000000
  70
    32
  0
VERTEX
  8
0
  5
8E4A
 10
34.0547
 20
28.4760
 30
0.000000
  70
    32
  0
VERTEX
  8
0
  5
8E4B
 10
34.0551
 20
28.4700
 30
0.000000
  70
    32
  0
VERTEX
  8
0
  5
8E4C
 10
34.0554
 20
28.4640
 30
0.000000
  70
    32
  0
VERTEX
  8
0
  5
8E4D
 10
34.0559
 20
28.4581
 30
0.000000
  70
    32
  0
VERTEX
  8
0
  5
8E4E
 10
34.0563
 20
28.4521
 30
0.000000
  70
    32
  0
VERTEX
  8
0
  5
8E4F
 10
34.0568
 20
28.4461
 30
0.000000
  70
    32
  0
VERTEX
  8
0
  5
8E50
 10
34.0574
 20
28.4402
 30
0.000000
  70
    32
  0
VERTEX
  8
0
  5
8E51
 10
34.0580
 20
28.4342
 30
0.000000
  70
    32
  0
VERTEX
  8
0
  5
8E52
 10
34.0586
 20
28.4283
 30
0.000000
  70
    32
  0
VERTEX
  8
0
  5
8E53
 10
34.0592
 20
28.4223
 30
0.000000
  70
    32
  0
VERTEX
  8
0
  5
8E54
 10
34.0599
 20
28.4164
 30
0.000000
  70
    32
  0
VERTEX
  8
0
  5
8E55
 10
34.0607
 20
28.4104
 30
0.000000
  70
    32
  0
VERTEX
  8
0
  5
8E56
 10
34.0615
 20
28.4045
 30
0.000000
  70
    32
  0
VERTEX
  8
0
  5
8E57
 10
34.0623
 20
28.3986
 30
0.000000
  70
    32
  0
VERTEX
  8
0
  5
8E58
 10
34.0632
 20
28.3926
 30
0.000000
  70
    32
  0
VERTEX
  8
0
  5
8E59
 10
34.0641
 20
28.3867
 30
0.000000
  70
    32
  0
VERTEX
  8
0
  5
8E5A
 10
34.0650
 20
28.3808
 30
0.000000
  70
    32
  0
VERTEX
  8
0
  5
8E5B
 10
34.0660
 20
28.3749
 30
0.000000
  70
    32
  0
VERTEX
  8
0
  5
8E5C
 10
34.0670
 20
28.3690
 30
0.000000
  70
    32
  0
VERTEX
  8
0
  5
8E5D
 10
34.0681
 20
28.3631
 30
0.000000
  70
    32
  0
VERTEX
  8
0
  5
8E5E
 10
34.0692
 20
28.3572
 30
0.000000
  70
    32
  0
VERTEX
  8
0
  5
8E5F
 10
34.0703
 20
28.3513
 30
0.000000
  70
    32
  0
VERTEX
  8
0
  5
8E60
 10
34.0715
 20
28.3454
 30
0.000000
  70
    32
  0
VERTEX
  8
0
  5
8E61
 10
34.0728
 20
28.3396
 30
0.000000
  70
    32
  0
VERTEX
  8
0
  5
8E62
 10
34.0741
 20
28.3337
 30
0.000000
  70
    32
  0
VERTEX
  8
0
  5
8E63
 10
34.0754
 20
28.3278
 30
0.000000
  70
    32
  0
VERTEX
  8
0
  5
8E64
 10
34.0768
 20
28.3220
 30
0.000000
  70
    32
  0
VERTEX
  8
0
  5
8E65
 10
34.0782
 20
28.3162
 30
0.000000
  70
    32
  0
VERTEX
  8
0
  5
8E66
 10
34.0796
 20
28.3103
 30
0.000000
  70
    32
  0
VERTEX
  8
0
  5
8E67
 10
34.0811
 20
28.3045
 30
0.000000
  70
    32
  0
VERTEX
  8
0
  5
8E68
 10
34.0827
 20
28.2987
 30
0.000000
  70
    32
  0
VERTEX
  8
0
  5
8E69
 10
34.0842
 20
28.2929
 30
0.000000
  70
    32
  0
VERTEX
  8
0
  5
8E6A
 10
34.0859
 20
28.2871
 30
0.000000
  70
    32
  0
VERTEX
  8
0
  5
8E6B
 10
34.0876
 20
28.2813
 30
0.000000
  70
    32
  0
VERTEX
  8
0
  5
8E6C
 10
34.0893
 20
28.2755
 30
0.000000
  70
    32
  0
VERTEX
  8
0
  5
8E6D
 10
34.0910
 20
28.2698
 30
0.000000
  70
    32
  0
VERTEX
  8
0
  5
8E6E
 10
34.0929
 20
28.2640
 30
0.000000
  70
    32
  0
VERTEX
  8
0
  5
8E6F
 10
34.0947
 20
28.2583
 30
0.000000
  70
    32
  0
VERTEX
  8
0
  5
8E70
 10
34.0966
 20
28.2525
 30
0.000000
  70
    32
  0
VERTEX
  8
0
  5
8E71
 10
34.0986
 20
28.2468
 30
0.000000
  70
    32
  0
VERTEX
  8
0
  5
8E72
 10
34.1006
 20
28.2411
 30
0.000000
  70
    32
  0
VERTEX
  8
0
  5
8E73
 10
34.1026
 20
28.2354
 30
0.000000
  70
    32
  0
VERTEX
  8
0
  5
8E74
 10
34.1047
 20
28.2297
 30
0.000000
  70
    32
  0
VERTEX
  8
0
  5
8E75
 10
34.1068
 20
28.2240
 30
0.000000
  70
    32
  0
VERTEX
  8
0
  5
8E76
 10
34.1090
 20
28.2184
 30
0.000000
  70
    32
  0
VERTEX
  8
0
  5
8E77
 10
34.1112
 20
28.2127
 30
0.000000
  70
    32
  0
VERTEX
  8
0
  5
8E78
 10
34.1135
 20
28.2071
 30
0.000000
  70
    32
  0
VERTEX
  8
0
  5
8E79
 10
34.1158
 20
28.2014
 30
0.000000
  70
    32
  0
VERTEX
  8
0
  5
8E7A
 10
34.1182
 20
28.1958
 30
0.000000
  70
    32
  0
VERTEX
  8
0
  5
8E7B
 10
34.1206
 20
28.1902
 30
0.000000
  70
    32
  0
VERTEX
  8
0
  5
8E7C
 10
34.1231
 20
28.1846
 30
0.000000
  70
    32
  0
VERTEX
  8
0
  5
8E7D
 10
34.1256
 20
28.1791
 30
0.000000
  70
    32
  0
VERTEX
  8
0
  5
8E7E
 10
34.1282
 20
28.1735
 30
0.000000
  70
    32
  0
VERTEX
  8
0
  5
8E7F
 10
34.1308
 20
28.1680
 30
0.000000
  70
    32
  0
VERTEX
  8
0
  5
8E80
 10
34.1334
 20
28.1625
 30
0.000000
  70
    32
  0
VERTEX
  8
0
  5
8E81
 10
34.1361
 20
28.1570
 30
0.000000
  70
    32
  0
VERTEX
  8
0
  5
8E82
 10
34.1389
 20
28.1515
 30
0.000000
  70
    32
  0
VERTEX
  8
0
  5
8E83
 10
34.1417
 20
28.1461
 30
0.000000
  70
    32
  0
VERTEX
  8
0
  5
8E84
 10
34.1445
 20
28.1407
 30
0.000000
  70
    32
  0
VERTEX
  8
0
  5
8E85
 10
34.1474
 20
28.1353
 30
0.000000
  70
    32
  0
VERTEX
  8
0
  5
8E86
 10
34.1504
 20
28.1299
 30
0.000000
  70
    32
  0
VERTEX
  8
0
  5
8E87
 10
34.1534
 20
28.1246
 30
0.000000
  70
    32
  0
VERTEX
  8
0
  5
8E88
 10
34.1564
 20
28.1193
 30
0.000000
  70
    32
  0
VERTEX
  8
0
  5
8E89
 10
34.1595
 20
28.1140
 30
0.000000
  70
    32
  0
VERTEX
  8
0
  5
8E8A
 10
34.1626
 20
28.1087
 30
0.000000
  70
    32
  0
VERTEX
  8
0
  5
8E8B
 10
34.1658
 20
28.1035
 30
0.000000
  70
    32
  0
VERTEX
  8
0
  5
8E8C
 10
34.1690
 20
28.0983
 30
0.000000
  70
    32
  0
VERTEX
  8
0
  5
8E8D
 10
34.1723
 20
28.0932
 30
0.000000
  70
    32
  0
VERTEX
  8
0
  5
8E8E
 10
34.1756
 20
28.0881
 30
0.000000
  70
    32
  0
VERTEX
  8
0
  5
8E8F
 10
34.1790
 20
28.0830
 30
0.000000
  70
    32
  0
VERTEX
  8
0
  5
8E90
 10
34.1824
 20
28.0779
 30
0.000000
  70
    32
  0
VERTEX
  8
0
  5
8E91
 10
34.1859
 20
28.0729
 30
0.000000
  70
    32
  0
VERTEX
  8
0
  5
8E92
 10
34.1894
 20
28.0680
 30
0.000000
  70
    32
  0
VERTEX
  8
0
  5
8E93
 10
34.1930
 20
28.0630
 30
0.000000
  70
    32
  0
VERTEX
  8
0
  5
8E94
 10
34.1966
 20
28.0582
 30
0.000000
  70
    32
  0
VERTEX
  8
0
  5
8E95
 10
34.2002
 20
28.0533
 30
0.000000
  70
    32
  0
VERTEX
  8
0
  5
8E96
 10
34.2040
 20
28.0485
 30
0.000000
  70
    32
  0
VERTEX
  8
0
  5
8E97
 10
34.2077
 20
28.0438
 30
0.000000
  70
    32
  0
VERTEX
  8
0
  5
8E98
 10
34.2115
 20
28.0391
 30
0.000000
  70
    32
  0
VERTEX
  8
0
  5
8E99
 10
34.2154
 20
28.0344
 30
0.000000
  70
    32
  0
VERTEX
  8
0
  5
8E9A
 10
34.2193
 20
28.0298
 30
0.000000
  70
    32
  0
VERTEX
  8
0
  5
8E9B
 10
34.2232
 20
28.0252
 30
0.000000
  70
    32
  0
VERTEX
  8
0
  5
8E9C
 10
34.2272
 20
28.0207
 30
0.000000
  70
    32
  0
VERTEX
  8
0
  5
8E9D
 10
34.2312
 20
28.0162
 30
0.000000
  70
    32
  0
VERTEX
  8
0
  5
8E9E
 10
34.2353
 20
28.0118
 30
0.000000
  70
    32
  0
VERTEX
  8
0
  5
8E9F
 10
34.2395
 20
28.0075
 30
0.000000
  70
    32
  0
VERTEX
  8
0
  5
8EA0
 10
34.2436
 20
28.0031
 30
0.000000
  70
    32
  0
VERTEX
  8
0
  5
8EA1
 10
34.2479
 20
27.9989
 30
0.000000
  70
    32
  0
VERTEX
  8
0
  5
8EA2
 10
34.2521
 20
27.9947
 30
0.000000
  70
    32
  0
VERTEX
  8
0
  5
8EA3
 10
34.2565
 20
27.9906
 30
0.000000
  70
    32
  0
VERTEX
  8
0
  5
8EA4
 10
34.2608
 20
27.9865
 30
0.000000
  70
    32
  0
VERTEX
  8
0
  5
8EA5
 10
34.2653
 20
27.9825
 30
0.000000
  70
    32
  0
VERTEX
  8
0
  5
8EA6
 10
34.2697
 20
27.9785
 30
0.000000
  70
    32
  0
VERTEX
  8
0
  5
8EA7
 10
34.2743
 20
27.9746
 30
0.000000
  70
    32
  0
VERTEX
  8
0
  5
8EA8
 10
34.2788
 20
27.9708
 30
0.000000
  70
    32
  0
VERTEX
  8
0
  5
8EA9
 10
34.2834
 20
27.9670
 30
0.000000
  70
    32
  0
VERTEX
  8
0
  5
8EAA
 10
34.2881
 20
27.9633
 30
0.000000
  70
    32
  0
VERTEX
  8
0
  5
8EAB
 10
34.2928
 20
27.9596
 30
0.000000
  70
    32
  0
VERTEX
  8
0
  5
8EAC
 10
34.2976
 20
27.9561
 30
0.000000
  70
    32
  0
VERTEX
  8
0
  5
8EAD
 10
34.3024
 20
27.9525
 30
0.000000
  70
    32
  0
VERTEX
  8
0
  5
8EAE
 10
34.3072
 20
27.9491
 30
0.000000
  70
    32
  0
VERTEX
  8
0
  5
8EAF
 10
34.3121
 20
27.9457
 30
0.000000
  70
    32
  0
VERTEX
  8
0
  5
8EB0
 10
34.3170
 20
27.9424
 30
0.000000
  70
    32
  0
VERTEX
  8
0
  5
8EB1
 10
34.3220
 20
27.9392
 30
0.000000
  70
    32
  0
VERTEX
  8
0
  5
8EB2
 10
34.3271
 20
27.9360
 30
0.000000
  70
    32
  0
VERTEX
  8
0
  5
8EB3
 10
34.3321
 20
27.9329
 30
0.000000
  70
    32
  0
VERTEX
  8
0
  5
8EB4
 10
34.3372
 20
27.9298
 30
0.000000
  70
    32
  0
VERTEX
  8
0
  5
8EB5
 10
34.3424
 20
27.9268
 30
0.000000
  70
    32
  0
VERTEX
  8
0
  5
8EB6
 10
34.3476
 20
27.9239
 30
0.000000
  70
    32
  0
VERTEX
  8
0
  5
8EB7
 10
34.3528
 20
27.9210
 30
0.000000
  70
    32
  0
VERTEX
  8
0
  5
8EB8
 10
34.3581
 20
27.9182
 30
0.000000
  70
    32
  0
VERTEX
  8
0
  5
8EB9
 10
34.3634
 20
27.9155
 30
0.000000
  70
    32
  0
VERTEX
  8
0
  5
8EBA
 10
34.3688
 20
27.9128
 30
0.000000
  70
    32
  0
VERTEX
  8
0
  5
8EBB
 10
34.3741
 20
27.9102
 30
0.000000
  70
    32
  0
VERTEX
  8
0
  5
8EBC
 10
34.3796
 20
27.9077
 30
0.000000
  70
    32
  0
VERTEX
  8
0
  5
8EBD
 10
34.3850
 20
27.9052
 30
0.000000
  70
    32
  0
VERTEX
  8
0
  5
8EBE
 10
34.3905
 20
27.9027
 30
0.000000
  70
    32
  0
VERTEX
  8
0
  5
8EBF
 10
34.3960
 20
27.9004
 30
0.000000
  70
    32
  0
VERTEX
  8
0
  5
8EC0
 10
34.4016
 20
27.8981
 30
0.000000
  70
    32
  0
VERTEX
  8
0
  5
8EC1
 10
34.4072
 20
27.8958
 30
0.000000
  70
    32
  0
VERTEX
  8
0
  5
8EC2
 10
34.4128
 20
27.8936
 30
0.000000
  70
    32
  0
VERTEX
  8
0
  5
8EC3
 10
34.4184
 20
27.8915
 30
0.000000
  70
    32
  0
VERTEX
  8
0
  5
8EC4
 10
34.4241
 20
27.8894
 30
0.000000
  70
    32
  0
VERTEX
  8
0
  5
8EC5
 10
34.4298
 20
27.8874
 30
0.000000
  70
    32
  0
VERTEX
  8
0
  5
8EC6
 10
34.4355
 20
27.8855
 30
0.000000
  70
    32
  0
VERTEX
  8
0
  5
8EC7
 10
34.4413
 20
27.8836
 30
0.000000
  70
    32
  0
VERTEX
  8
0
  5
8EC8
 10
34.4471
 20
27.8817
 30
0.000000
  70
    32
  0
VERTEX
  8
0
  5
8EC9
 10
34.4529
 20
27.8800
 30
0.000000
  70
    32
  0
VERTEX
  8
0
  5
8ECA
 10
34.4587
 20
27.8782
 30
0.000000
  70
    32
  0
VERTEX
  8
0
  5
8ECB
 10
34.4646
 20
27.8766
 30
0.000000
  70
    32
  0
VERTEX
  8
0
  5
8ECC
 10
34.4705
 20
27.8750
 30
0.000000
  70
    32
  0
VERTEX
  8
0
  5
8ECD
 10
34.4764
 20
27.8734
 30
0.000000
  70
    32
  0
VERTEX
  8
0
  5
8ECE
 10
34.4823
 20
27.8719
 30
0.000000
  70
    32
  0
VERTEX
  8
0
  5
8ECF
 10
34.4883
 20
27.8705
 30
0.000000
  70
    32
  0
VERTEX
  8
0
  5
8ED0
 10
34.4942
 20
27.8691
 30
0.000000
  70
    32
  0
VERTEX
  8
0
  5
8ED1
 10
34.5002
 20
27.8677
 30
0.000000
  70
    32
  0
VERTEX
  8
0
  5
8ED2
 10
34.5062
 20
27.8665
 30
0.000000
  70
    32
  0
VERTEX
  8
0
  5
8ED3
 10
34.5123
 20
27.8652
 30
0.000000
  70
    32
  0
VERTEX
  8
0
  5
8ED4
 10
34.5183
 20
27.8641
 30
0.000000
  70
    32
  0
VERTEX
  8
0
  5
8ED5
 10
34.5244
 20
27.8629
 30
0.000000
  70
    32
  0
VERTEX
  8
0
  5
8ED6
 10
34.5305
 20
27.8619
 30
0.000000
  70
    32
  0
VERTEX
  8
0
  5
8ED7
 10
34.5365
 20
27.8609
 30
0.000000
  70
    32
  0
VERTEX
  8
0
  5
8ED8
 10
34.5427
 20
27.8599
 30
0.000000
  70
    32
  0
VERTEX
  8
0
  5
8ED9
 10
34.5488
 20
27.8590
 30
0.000000
  70
    32
  0
VERTEX
  8
0
  5
8EDA
 10
34.5549
 20
27.8581
 30
0.000000
  70
    32
  0
VERTEX
  8
0
  5
8EDB
 10
34.5610
 20
27.8573
 30
0.000000
  70
    32
  0
VERTEX
  8
0
  5
8EDC
 10
34.5672
 20
27.8566
 30
0.000000
  70
    32
  0
VERTEX
  8
0
  5
8EDD
 10
34.5734
 20
27.8558
 30
0.000000
  70
    32
  0
VERTEX
  8
0
  5
8EDE
 10
34.5795
 20
27.8552
 30
0.000000
  70
    32
  0
VERTEX
  8
0
  5
8EDF
 10
34.5857
 20
27.8546
 30
0.000000
  70
    32
  0
VERTEX
  8
0
  5
8EE0
 10
34.5919
 20
27.8540
 30
0.000000
  70
    32
  0
VERTEX
  8
0
  5
8EE1
 10
34.5981
 20
27.8535
 30
0.000000
  70
    32
  0
VERTEX
  8
0
  5
8EE2
 10
34.6043
 20
27.8530
 30
0.000000
  70
    32
  0
VERTEX
  8
0
  5
8EE3
 10
34.6105
 20
27.8526
 30
0.000000
  70
    32
  0
VERTEX
  8
0
  5
8EE4
 10
34.6167
 20
27.8523
 30
0.000000
  70
    32
  0
VERTEX
  8
0
  5
8EE5
 10
34.6229
 20
27.8520
 30
0.000000
  70
    32
  0
VERTEX
  8
0
  5
8EE6
 10
34.6292
 20
27.8517
 30
0.000000
  70
    32
  0
VERTEX
  8
0
  5
8EE7
 10
34.6354
 20
27.8515
 30
0.000000
  70
    32
  0
VERTEX
  8
0
  5
8EE8
 10
34.6416
 20
27.8513
 30
0.000000
  70
    32
  0
VERTEX
  8
0
  5
8EE9
 10
34.6478
 20
27.8512
 30
0.000000
  70
    32
  0
VERTEX
  8
0
  5
8EEA
 10
34.6541
 20
27.8511
 30
0.000000
  70
    32
  0
VERTEX
  8
0
  5
8EEB
 10
34.6603
 20
27.8510
 30
0.000000
  70
    32
  0
VERTEX
  8
0
  5
8EEC
 10
34.6665
 20
27.8510
 30
0.000000
  70
    32
  0
VERTEX
  8
0
  5
8EED
 10
34.6727
 20
27.8511
 30
0.000000
  70
    32
  0
VERTEX
  8
0
  5
8EEE
 10
34.6790
 20
27.8512
 30
0.000000
  70
    32
  0
VERTEX
  8
0
  5
8EEF
 10
34.6852
 20
27.8513
 30
0.000000
  70
    32
  0
VERTEX
  8
0
  5
8EF0
 10
34.6914
 20
27.8515
 30
0.000000
  70
    32
  0
VERTEX
  8
0
  5
8EF1
 10
34.6976
 20
27.8518
 30
0.000000
  70
    32
  0
VERTEX
  8
0
  5
8EF2
 10
34.7038
 20
27.8520
 30
0.000000
  70
    32
  0
VERTEX
  8
0
  5
8EF3
 10
34.7100
 20
27.8524
 30
0.000000
  70
    32
  0
VERTEX
  8
0
  5
8EF4
 10
34.7162
 20
27.8527
 30
0.000000
  70
    32
  0
VERTEX
  8
0
  5
8EF5
 10
34.7224
 20
27.8532
 30
0.000000
  70
    32
  0
VERTEX
  8
0
  5
8EF6
 10
34.7285
 20
27.8536
 30
0.000000
  70
    32
  0
VERTEX
  8
0
  5
8EF7
 10
34.7347
 20
27.8542
 30
0.000000
  70
    32
  0
VERTEX
  8
0
  5
8EF8
 10
34.7409
 20
27.8547
 30
0.000000
  70
    32
  0
VERTEX
  8
0
  5
8EF9
 10
34.7470
 20
27.8554
 30
0.000000
  70
    32
  0
VERTEX
  8
0
  5
8EFA
 10
34.7531
 20
27.8560
 30
0.000000
  70
    32
  0
VERTEX
  8
0
  5
8EFB
 10
34.7593
 20
27.8568
 30
0.000000
  70
    32
  0
VERTEX
  8
0
  5
8EFC
 10
34.7654
 20
27.8575
 30
0.000000
  70
    32
  0
VERTEX
  8
0
  5
8EFD
 10
34.7715
 20
27.8583
 30
0.000000
  70
    32
  0
VERTEX
  8
0
  5
8EFE
 10
34.7776
 20
27.8592
 30
0.000000
  70
    32
  0
VERTEX
  8
0
  5
8EFF
 10
34.7836
 20
27.8601
 30
0.000000
  70
    32
  0
VERTEX
  8
0
  5
8F00
 10
34.7897
 20
27.8611
 30
0.000000
  70
    32
  0
VERTEX
  8
0
  5
8F01
 10
34.7958
 20
27.8622
 30
0.000000
  70
    32
  0
VERTEX
  8
0
  5
8F02
 10
34.8018
 20
27.8632
 30
0.000000
  70
    32
  0
VERTEX
  8
0
  5
8F03
 10
34.8078
 20
27.8644
 30
0.000000
  70
    32
  0
VERTEX
  8
0
  5
8F04
 10
34.8138
 20
27.8656
 30
0.000000
  70
    32
  0
VERTEX
  8
0
  5
8F05
 10
34.8198
 20
27.8668
 30
0.000000
  70
    32
  0
VERTEX
  8
0
  5
8F06
 10
34.8257
 20
27.8681
 30
0.000000
  70
    32
  0
VERTEX
  8
0
  5
8F07
 10
34.8317
 20
27.8695
 30
0.000000
  70
    32
  0
VERTEX
  8
0
  5
8F08
 10
34.8376
 20
27.8709
 30
0.000000
  70
    32
  0
VERTEX
  8
0
  5
8F09
 10
34.8435
 20
27.8724
 30
0.000000
  70
    32
  0
VERTEX
  8
0
  5
8F0A
 10
34.8494
 20
27.8739
 30
0.000000
  70
    32
  0
VERTEX
  8
0
  5
8F0B
 10
34.8552
 20
27.8755
 30
0.000000
  70
    32
  0
VERTEX
  8
0
  5
8F0C
 10
34.8611
 20
27.8771
 30
0.000000
  70
    32
  0
VERTEX
  8
0
  5
8F0D
 10
34.8669
 20
27.8788
 30
0.000000
  70
    32
  0
VERTEX
  8
0
  5
8F0E
 10
34.8727
 20
27.8805
 30
0.000000
  70
    32
  0
VERTEX
  8
0
  5
8F0F
 10
34.8784
 20
27.8824
 30
0.000000
  70
    32
  0
VERTEX
  8
0
  5
8F10
 10
34.8842
 20
27.8842
 30
0.000000
  70
    32
  0
VERTEX
  8
0
  5
8F11
 10
34.8899
 20
27.8862
 30
0.000000
  70
    32
  0
VERTEX
  8
0
  5
8F12
 10
34.8956
 20
27.8881
 30
0.000000
  70
    32
  0
VERTEX
  8
0
  5
8F13
 10
34.9013
 20
27.8902
 30
0.000000
  70
    32
  0
VERTEX
  8
0
  5
8F14
 10
34.9069
 20
27.8923
 30
0.000000
  70
    32
  0
VERTEX
  8
0
  5
8F15
 10
34.9125
 20
27.8945
 30
0.000000
  70
    32
  0
VERTEX
  8
0
  5
8F16
 10
34.9181
 20
27.8967
 30
0.000000
  70
    32
  0
VERTEX
  8
0
  5
8F17
 10
34.9237
 20
27.8990
 30
0.000000
  70
    32
  0
VERTEX
  8
0
  5
8F18
 10
34.9292
 20
27.9013
 30
0.000000
  70
    32
  0
VERTEX
  8
0
  5
8F19
 10
34.9347
 20
27.9038
 30
0.000000
  70
    32
  0
VERTEX
  8
0
  5
8F1A
 10
34.9401
 20
27.9062
 30
0.000000
  70
    32
  0
VERTEX
  8
0
  5
8F1B
 10
34.9456
 20
27.9088
 30
0.000000
  70
    32
  0
VERTEX
  8
0
  5
8F1C
 10
34.9510
 20
27.9114
 30
0.000000
  70
    32
  0
VERTEX
  8
0
  5
8F1D
 10
34.9563
 20
27.9141
 30
0.000000
  70
    32
  0
VERTEX
  8
0
  5
8F1E
 10
34.9616
 20
27.9168
 30
0.000000
  70
    32
  0
VERTEX
  8
0
  5
8F1F
 10
34.9669
 20
27.9196
 30
0.000000
  70
    32
  0
VERTEX
  8
0
  5
8F20
 10
34.9722
 20
27.9224
 30
0.000000
  70
    32
  0
VERTEX
  8
0
  5
8F21
 10
34.9774
 20
27.9254
 30
0.000000
  70
    32
  0
VERTEX
  8
0
  5
8F22
 10
34.9826
 20
27.9284
 30
0.000000
  70
    32
  0
VERTEX
  8
0
  5
8F23
 10
34.9878
 20
27.9314
 30
0.000000
  70
    32
  0
VERTEX
  8
0
  5
8F24
 10
34.9929
 20
27.9345
 30
0.000000
  70
    32
  0
VERTEX
  8
0
  5
8F25
 10
34.9980
 20
27.9377
 30
0.000000
  70
    32
  0
VERTEX
  8
0
  5
8F26
 10
35.0030
 20
27.9410
 30
0.000000
  70
    32
  0
VERTEX
  8
0
  5
8F27
 10
35.0080
 20
27.9443
 30
0.000000
  70
    32
  0
VERTEX
  8
0
  5
8F28
 10
35.0130
 20
27.9477
 30
0.000000
  70
    32
  0
VERTEX
  8
0
  5
8F29
 10
35.0179
 20
27.9512
 30
0.000000
  70
    32
  0
VERTEX
  8
0
  5
8F2A
 10
35.0228
 20
27.9547
 30
0.000000
  70
    32
  0
VERTEX
  8
0
  5
8F2B
 10
35.0276
 20
27.9583
 30
0.000000
  70
    32
  0
VERTEX
  8
0
  5
8F2C
 10
35.0324
 20
27.9620
 30
0.000000
  70
    32
  0
VERTEX
  8
0
  5
8F2D
 10
35.0371
 20
27.9657
 30
0.000000
  70
    32
  0
VERTEX
  8
0
  5
8F2E
 10
35.0418
 20
27.9695
 30
0.000000
  70
    32
  0
VERTEX
  8
0
  5
8F2F
 10
35.0465
 20
27.9734
 30
0.000000
  70
    32
  0
VERTEX
  8
0
  5
8F30
 10
35.0511
 20
27.9773
 30
0.000000
  70
    32
  0
VERTEX
  8
0
  5
8F31
 10
35.0557
 20
27.9813
 30
0.000000
  70
    32
  0
VERTEX
  8
0
  5
8F32
 10
35.0602
 20
27.9853
 30
0.000000
  70
    32
  0
VERTEX
  8
0
  5
8F33
 10
35.0647
 20
27.9894
 30
0.000000
  70
    32
  0
VERTEX
  8
0
  5
8F34
 10
35.0691
 20
27.9936
 30
0.000000
  70
    32
  0
VERTEX
  8
0
  5
8F35
 10
35.0735
 20
27.9978
 30
0.000000
  70
    32
  0
VERTEX
  8
0
  5
8F36
 10
35.0778
 20
28.0021
 30
0.000000
  70
    32
  0
VERTEX
  8
0
  5
8F37
 10
35.0821
 20
28.0064
 30
0.000000
  70
    32
  0
VERTEX
  8
0
  5
8F38
 10
35.0863
 20
28.0108
 30
0.000000
  70
    32
  0
VERTEX
  8
0
  5
8F39
 10
35.0904
 20
28.0153
 30
0.000000
  70
    32
  0
VERTEX
  8
0
  5
8F3A
 10
35.0946
 20
28.0198
 30
0.000000
  70
    32
  0
VERTEX
  8
0
  5
8F3B
 10
35.0986
 20
28.0243
 30
0.000000
  70
    32
  0
VERTEX
  8
0
  5
8F3C
 10
35.1026
 20
28.0289
 30
0.000000
  70
    32
  0
VERTEX
  8
0
  5
8F3D
 10
35.1066
 20
28.0336
 30
0.000000
  70
    32
  0
VERTEX
  8
0
  5
8F3E
 10
35.1104
 20
28.0383
 30
0.000000
  70
    32
  0
VERTEX
  8
0
  5
8F3F
 10
35.1143
 20
28.0430
 30
0.000000
  70
    32
  0
VERTEX
  8
0
  5
8F40
 10
35.1180
 20
28.0478
 30
0.000000
  70
    32
  0
VERTEX
  8
0
  5
8F41
 10
35.1218
 20
28.0526
 30
0.000000
  70
    32
  0
VERTEX
  8
0
  5
8F42
 10
35.1254
 20
28.0575
 30
0.000000
  70
    32
  0
VERTEX
  8
0
  5
8F43
 10
35.1290
 20
28.0624
 30
0.000000
  70
    32
  0
VERTEX
  8
0
  5
8F44
 10
35.1325
 20
28.0674
 30
0.000000
  70
    32
  0
VERTEX
  8
0
  5
8F45
 10
35.1360
 20
28.0724
 30
0.000000
  70
    32
  0
VERTEX
  8
0
  5
8F46
 10
35.1394
 20
28.0774
 30
0.000000
  70
    32
  0
VERTEX
  8
0
  5
8F47
 10
35.1427
 20
28.0825
 30
0.000000
  70
    32
  0
VERTEX
  8
0
  5
8F48
 10
35.1460
 20
28.0876
 30
0.000000
  70
    32
  0
VERTEX
  8
0
  5
8F49
 10
35.1492
 20
28.0928
 30
0.000000
  70
    32
  0
VERTEX
  8
0
  5
8F4A
 10
35.1524
 20
28.0980
 30
0.000000
  70
    32
  0
VERTEX
  8
0
  5
8F4B
 10
35.1554
 20
28.1032
 30
0.000000
  70
    32
  0
VERTEX
  8
0
  5
8F4C
 10
35.1584
 20
28.1085
 30
0.000000
  70
    32
  0
VERTEX
  8
0
  5
8F4D
 10
35.1614
 20
28.1138
 30
0.000000
  70
    32
  0
VERTEX
  8
0
  5
8F4E
 10
35.1643
 20
28.1191
 30
0.000000
  70
    32
  0
VERTEX
  8
0
  5
8F4F
 10
35.1671
 20
28.1245
 30
0.000000
  70
    32
  0
VERTEX
  8
0
  5
8F50
 10
35.1698
 20
28.1299
 30
0.000000
  70
    32
  0
VERTEX
  8
0
  5
8F51
 10
35.1724
 20
28.1353
 30
0.000000
  70
    32
  0
VERTEX
  8
0
  5
8F52
 10
35.1750
 20
28.1408
 30
0.000000
  70
    32
  0
VERTEX
  8
0
  5
8F53
 10
35.1775
 20
28.1462
 30
0.000000
  70
    32
  0
VERTEX
  8
0
  5
8F54
 10
35.1800
 20
28.1517
 30
0.000000
  70
    32
  0
VERTEX
  8
0
  5
8F55
 10
35.1823
 20
28.1573
 30
0.000000
  70
    32
  0
VERTEX
  8
0
  5
8F56
 10
35.1846
 20
28.1628
 30
0.000000
  70
    32
  0
VERTEX
  8
0
  5
8F57
 10
35.1868
 20
28.1684
 30
0.000000
  70
    32
  0
VERTEX
  8
0
  5
8F58
 10
35.1890
 20
28.1740
 30
0.000000
  70
    32
  0
VERTEX
  8
0
  5
8F59
 10
35.1910
 20
28.1796
 30
0.000000
  70
    32
  0
VERTEX
  8
0
  5
8F5A
 10
35.1930
 20
28.1852
 30
0.000000
  70
    32
  0
VERTEX
  8
0
  5
8F5B
 10
35.1950
 20
28.1909
 30
0.000000
  70
    32
  0
VERTEX
  8
0
  5
8F5C
 10
35.1968
 20
28.1966
 30
0.000000
  70
    32
  0
VERTEX
  8
0
  5
8F5D
 10
35.1986
 20
28.2023
 30
0.000000
  70
    32
  0
VERTEX
  8
0
  5
8F5E
 10
35.2004
 20
28.2080
 30
0.000000
  70
    32
  0
VERTEX
  8
0
  5
8F5F
 10
35.2021
 20
28.2137
 30
0.000000
  70
    32
  0
VERTEX
  8
0
  5
8F60
 10
35.2037
 20
28.2195
 30
0.000000
  70
    32
  0
VERTEX
  8
0
  5
8F61
 10
35.2053
 20
28.2252
 30
0.000000
  70
    32
  0
VERTEX
  8
0
  5
8F62
 10
35.2068
 20
28.2310
 30
0.000000
  70
    32
  0
VERTEX
  8
0
  5
8F63
 10
35.2083
 20
28.2368
 30
0.000000
  70
    32
  0
VERTEX
  8
0
  5
8F64
 10
35.2097
 20
28.2426
 30
0.000000
  70
    32
  0
VERTEX
  8
0
  5
8F65
 10
35.2111
 20
28.2485
 30
0.000000
  70
    32
  0
VERTEX
  8
0
  5
8F66
 10
35.2125
 20
28.2543
 30
0.000000
  70
    32
  0
VERTEX
  8
0
  5
8F67
 10
35.2138
 20
28.2602
 30
0.000000
  70
    32
  0
VERTEX
  8
0
  5
8F68
 10
35.2150
 20
28.2660
 30
0.000000
  70
    32
  0
VERTEX
  8
0
  5
8F69
 10
35.2162
 20
28.2719
 30
0.000000
  70
    32
  0
VERTEX
  8
0
  5
8F6A
 10
35.2174
 20
28.2778
 30
0.000000
  70
    32
  0
VERTEX
  8
0
  5
8F6B
 10
35.2186
 20
28.2837
 30
0.000000
  70
    32
  0
VERTEX
  8
0
  5
8F6C
 10
35.2197
 20
28.2896
 30
0.000000
  70
    32
  0
VERTEX
  8
0
  5
8F6D
 10
35.2208
 20
28.2955
 30
0.000000
  70
    32
  0
VERTEX
  8
0
  5
8F6E
 10
35.2219
 20
28.3014
 30
0.000000
  70
    32
  0
VERTEX
  8
0
  5
8F6F
 10
35.2230
 20
28.3074
 30
0.000000
  70
    32
  0
VERTEX
  8
0
  5
8F70
 10
35.2240
 20
28.3133
 30
0.000000
  70
    32
  0
VERTEX
  8
0
  5
8F71
 10
35.2250
 20
28.3192
 30
0.000000
  70
    32
  0
VERTEX
  8
0
  5
8F72
 10
35.2260
 20
28.3252
 30
0.000000
  70
    32
  0
VERTEX
  8
0
  5
8F73
 10
35.2270
 20
28.3311
 30
0.000000
  70
    32
  0
VERTEX
  8
0
  5
8F74
 10
35.2280
 20
28.3371
 30
0.000000
  70
    32
  0
VERTEX
  8
0
  5
8F75
 10
35.2289
 20
28.3430
 30
0.000000
  70
    32
  0
VERTEX
  8
0
  5
8F76
 10
35.2299
 20
28.3490
 30
0.000000
  70
    32
  0
VERTEX
  8
0
  5
8F77
 10
35.2308
 20
28.3550
 30
0.000000
  70
    32
  0
VERTEX
  8
0
  5
8F78
 10
35.2317
 20
28.3609
 30
0.000000
  70
    32
  0
VERTEX
  8
0
  5
8F79
 10
35.2327
 20
28.3669
 30
0.000000
  70
    32
  0
SEQEND
  8
0
  5
8F7A
  0
POLYLINE
  8
0
  5
8F7B
  66
     1
 10
0.000000
 20
0.000000
 30
0.000000
  70
     8
  0
VERTEX
  8
0
  5
8F7C
 10
33.9891
 20
28.5710
 30
0.000000
  70
    32
  0
VERTEX
  8
0
  5
8F7D
 10
33.9891
 20
28.5672
 30
0.000000
  70
    32
  0
VERTEX
  8
0
  5
8F7E
 10
33.9892
 20
28.5635
 30
0.000000
  70
    32
  0
VERTEX
  8
0
  5
8F7F
 10
33.9892
 20
28.5597
 30
0.000000
  70
    32
  0
VERTEX
  8
0
  5
8F80
 10
33.9893
 20
28.5559
 30
0.000000
  70
    32
  0
VERTEX
  8
0
  5
8F81
 10
33.9894
 20
28.5521
 30
0.000000
  70
    32
  0
VERTEX
  8
0
  5
8F82
 10
33.9894
 20
28.5483
 30
0.000000
  70
    32
  0
VERTEX
  8
0
  5
8F83
 10
33.9895
 20
28.5445
 30
0.000000
  70
    32
  0
VERTEX
  8
0
  5
8F84
 10
33.9896
 20
28.5407
 30
0.000000
  70
    32
  0
VERTEX
  8
0
  5
8F85
 10
33.9897
 20
28.5369
 30
0.000000
  70
    32
  0
VERTEX
  8
0
  5
8F86
 10
33.9898
 20
28.5331
 30
0.000000
  70
    32
  0
VERTEX
  8
0
  5
8F87
 10
33.9899
 20
28.5292
 30
0.000000
  70
    32
  0
VERTEX
  8
0
  5
8F88
 10
33.9900
 20
28.5254
 30
0.000000
  70
    32
  0
VERTEX
  8
0
  5
8F89
 10
33.9901
 20
28.5215
 30
0.000000
  70
    32
  0
VERTEX
  8
0
  5
8F8A
 10
33.9902
 20
28.5177
 30
0.000000
  70
    32
  0
VERTEX
  8
0
  5
8F8B
 10
33.9904
 20
28.5138
 30
0.000000
  70
    32
  0
VERTEX
  8
0
  5
8F8C
 10
33.9905
 20
28.5099
 30
0.000000
  70
    32
  0
VERTEX
  8
0
  5
8F8D
 10
33.9907
 20
28.5060
 30
0.000000
  70
    32
  0
VERTEX
  8
0
  5
8F8E
 10
33.9908
 20
28.5021
 30
0.000000
  70
    32
  0
VERTEX
  8
0
  5
8F8F
 10
33.9910
 20
28.4982
 30
0.000000
  70
    32
  0
VERTEX
  8
0
  5
8F90
 10
33.9911
 20
28.4943
 30
0.000000
  70
    32
  0
VERTEX
  8
0
  5
8F91
 10
33.9913
 20
28.4904
 30
0.000000
  70
    32
  0
VERTEX
  8
0
  5
8F92
 10
33.9915
 20
28.4865
 30
0.000000
  70
    32
  0
VERTEX
  8
0
  5
8F93
 10
33.9917
 20
28.4826
 30
0.000000
  70
    32
  0
VERTEX
  8
0
  5
8F94
 10
33.9919
 20
28.4787
 30
0.000000
  70
    32
  0
VERTEX
  8
0
  5
8F95
 10
33.9922
 20
28.4748
 30
0.000000
  70
    32
  0
VERTEX
  8
0
  5
8F96
 10
33.9924
 20
28.4708
 30
0.000000
  70
    32
  0
VERTEX
  8
0
  5
8F97
 10
33.9926
 20
28.4669
 30
0.000000
  70
    32
  0
VERTEX
  8
0
  5
8F98
 10
33.9929
 20
28.4629
 30
0.000000
  70
    32
  0
VERTEX
  8
0
  5
8F99
 10
33.9932
 20
28.4590
 30
0.000000
  70
    32
  0
VERTEX
  8
0
  5
8F9A
 10
33.9935
 20
28.4551
 30
0.000000
  70
    32
  0
VERTEX
  8
0
  5
8F9B
 10
33.9938
 20
28.4511
 30
0.000000
  70
    32
  0
VERTEX
  8
0
  5
8F9C
 10
33.9941
 20
28.4471
 30
0.000000
  70
    32
  0
VERTEX
  8
0
  5
8F9D
 10
33.9944
 20
28.4432
 30
0.000000
  70
    32
  0
VERTEX
  8
0
  5
8F9E
 10
33.9947
 20
28.4392
 30
0.000000
  70
    32
  0
VERTEX
  8
0
  5
8F9F
 10
33.9951
 20
28.4353
 30
0.000000
  70
    32
  0
VERTEX
  8
0
  5
8FA0
 10
33.9954
 20
28.4313
 30
0.000000
  70
    32
  0
VERTEX
  8
0
  5
8FA1
 10
33.9958
 20
28.4273
 30
0.000000
  70
    32
  0
VERTEX
  8
0
  5
8FA2
 10
33.9962
 20
28.4234
 30
0.000000
  70
    32
  0
VERTEX
  8
0
  5
8FA3
 10
33.9966
 20
28.4194
 30
0.000000
  70
    32
  0
VERTEX
  8
0
  5
8FA4
 10
33.9970
 20
28.4154
 30
0.000000
  70
    32
  0
VERTEX
  8
0
  5
8FA5
 10
33.9975
 20
28.4114
 30
0.000000
  70
    32
  0
VERTEX
  8
0
  5
8FA6
 10
33.9979
 20
28.4075
 30
0.000000
  70
    32
  0
VERTEX
  8
0
  5
8FA7
 10
33.9984
 20
28.4035
 30
0.000000
  70
    32
  0
VERTEX
  8
0
  5
8FA8
 10
33.9989
 20
28.3995
 30
0.000000
  70
    32
  0
VERTEX
  8
0
  5
8FA9
 10
33.9994
 20
28.3955
 30
0.000000
  70
    32
  0
VERTEX
  8
0
  5
8FAA
 10
33.9999
 20
28.3916
 30
0.000000
  70
    32
  0
VERTEX
  8
0
  5
8FAB
 10
34.0004
 20
28.3876
 30
0.000000
  70
    32
  0
VERTEX
  8
0
  5
8FAC
 10
34.0010
 20
28.3836
 30
0.000000
  70
    32
  0
VERTEX
  8
0
  5
8FAD
 10
34.0016
 20
28.3797
 30
0.000000
  70
    32
  0
VERTEX
  8
0
  5
8FAE
 10
34.0022
 20
28.3757
 30
0.000000
  70
    32
  0
VERTEX
  8
0
  5
8FAF
 10
34.0028
 20
28.3717
 30
0.000000
  70
    32
  0
VERTEX
  8
0
  5
8FB0
 10
34.0034
 20
28.3677
 30
0.000000
  70
    32
  0
VERTEX
  8
0
  5
8FB1
 10
34.0040
 20
28.3638
 30
0.000000
  70
    32
  0
VERTEX
  8
0
  5
8FB2
 10
34.0047
 20
28.3598
 30
0.000000
  70
    32
  0
VERTEX
  8
0
  5
8FB3
 10
34.0054
 20
28.3559
 30
0.000000
  70
    32
  0
VERTEX
  8
0
  5
8FB4
 10
34.0061
 20
28.3519
 30
0.000000
  70
    32
  0
VERTEX
  8
0
  5
8FB5
 10
34.0068
 20
28.3479
 30
0.000000
  70
    32
  0
VERTEX
  8
0
  5
8FB6
 10
34.0076
 20
28.3440
 30
0.000000
  70
    32
  0
VERTEX
  8
0
  5
8FB7
 10
34.0084
 20
28.3400
 30
0.000000
  70
    32
  0
VERTEX
  8
0
  5
8FB8
 10
34.0092
 20
28.3361
 30
0.000000
  70
    32
  0
VERTEX
  8
0
  5
8FB9
 10
34.0100
 20
28.3321
 30
0.000000
  70
    32
  0
VERTEX
  8
0
  5
8FBA
 10
34.0108
 20
28.3282
 30
0.000000
  70
    32
  0
VERTEX
  8
0
  5
8FBB
 10
34.0116
 20
28.3243
 30
0.000000
  70
    32
  0
VERTEX
  8
0
  5
8FBC
 10
34.0125
 20
28.3203
 30
0.000000
  70
    32
  0
VERTEX
  8
0
  5
8FBD
 10
34.0134
 20
28.3164
 30
0.000000
  70
    32
  0
VERTEX
  8
0
  5
8FBE
 10
34.0143
 20
28.3124
 30
0.000000
  70
    32
  0
VERTEX
  8
0
  5
8FBF
 10
34.0152
 20
28.3085
 30
0.000000
  70
    32
  0
VERTEX
  8
0
  5
8FC0
 10
34.0162
 20
28.3046
 30
0.000000
  70
    32
  0
VERTEX
  8
0
  5
8FC1
 10
34.0171
 20
28.3006
 30
0.000000
  70
    32
  0
VERTEX
  8
0
  5
8FC2
 10
34.0181
 20
28.2967
 30
0.000000
  70
    32
  0
VERTEX
  8
0
  5
8FC3
 10
34.0191
 20
28.2928
 30
0.000000
  70
    32
  0
VERTEX
  8
0
  5
8FC4
 10
34.0201
 20
28.2889
 30
0.000000
  70
    32
  0
VERTEX
  8
0
  5
8FC5
 10
34.0211
 20
28.2849
 30
0.000000
  70
    32
  0
VERTEX
  8
0
  5
8FC6
 10
34.0222
 20
28.2810
 30
0.000000
  70
    32
  0
VERTEX
  8
0
  5
8FC7
 10
34.0232
 20
28.2771
 30
0.000000
  70
    32
  0
VERTEX
  8
0
  5
8FC8
 10
34.0243
 20
28.2732
 30
0.000000
  70
    32
  0
VERTEX
  8
0
  5
8FC9
 10
34.0254
 20
28.2693
 30
0.000000
  70
    32
  0
VERTEX
  8
0
  5
8FCA
 10
34.0266
 20
28.2654
 30
0.000000
  70
    32
  0
VERTEX
  8
0
  5
8FCB
 10
34.0277
 20
28.2615
 30
0.000000
  70
    32
  0
VERTEX
  8
0
  5
8FCC
 10
34.0289
 20
28.2576
 30
0.000000
  70
    32
  0
VERTEX
  8
0
  5
8FCD
 10
34.0301
 20
28.2537
 30
0.000000
  70
    32
  0
VERTEX
  8
0
  5
8FCE
 10
34.0313
 20
28.2498
 30
0.000000
  70
    32
  0
VERTEX
  8
0
  5
8FCF
 10
34.0325
 20
28.2459
 30
0.000000
  70
    32
  0
VERTEX
  8
0
  5
8FD0
 10
34.0337
 20
28.2420
 30
0.000000
  70
    32
  0
VERTEX
  8
0
  5
8FD1
 10
34.0350
 20
28.2382
 30
0.000000
  70
    32
  0
VERTEX
  8
0
  5
8FD2
 10
34.0363
 20
28.2343
 30
0.000000
  70
    32
  0
VERTEX
  8
0
  5
8FD3
 10
34.0376
 20
28.2304
 30
0.000000
  70
    32
  0
VERTEX
  8
0
  5
8FD4
 10
34.0389
 20
28.2266
 30
0.000000
  70
    32
  0
VERTEX
  8
0
  5
8FD5
 10
34.0402
 20
28.2227
 30
0.000000
  70
    32
  0
VERTEX
  8
0
  5
8FD6
 10
34.0416
 20
28.2188
 30
0.000000
  70
    32
  0
VERTEX
  8
0
  5
8FD7
 10
34.0430
 20
28.2150
 30
0.000000
  70
    32
  0
VERTEX
  8
0
  5
8FD8
 10
34.0444
 20
28.2111
 30
0.000000
  70
    32
  0
VERTEX
  8
0
  5
8FD9
 10
34.0458
 20
28.2073
 30
0.000000
  70
    32
  0
VERTEX
  8
0
  5
8FDA
 10
34.0472
 20
28.2035
 30
0.000000
  70
    32
  0
VERTEX
  8
0
  5
8FDB
 10
34.0487
 20
28.1996
 30
0.000000
  70
    32
  0
VERTEX
  8
0
  5
8FDC
 10
34.0502
 20
28.1958
 30
0.000000
  70
    32
  0
VERTEX
  8
0
  5
8FDD
 10
34.0517
 20
28.1920
 30
0.000000
  70
    32
  0
VERTEX
  8
0
  5
8FDE
 10
34.0532
 20
28.1882
 30
0.000000
  70
    32
  0
VERTEX
  8
0
  5
8FDF
 10
34.0547
 20
28.1843
 30
0.000000
  70
    32
  0
VERTEX
  8
0
  5
8FE0
 10
34.0563
 20
28.1805
 30
0.000000
  70
    32
  0
VERTEX
  8
0
  5
8FE1
 10
34.0579
 20
28.1767
 30
0.000000
  70
    32
  0
VERTEX
  8
0
  5
8FE2
 10
34.0595
 20
28.1729
 30
0.000000
  70
    32
  0
VERTEX
  8
0
  5
8FE3
 10
34.0611
 20
28.1692
 30
0.000000
  70
    32
  0
VERTEX
  8
0
  5
8FE4
 10
34.0627
 20
28.1654
 30
0.000000
  70
    32
  0
VERTEX
  8
0
  5
8FE5
 10
34.0644
 20
28.1616
 30
0.000000
  70
    32
  0
VERTEX
  8
0
  5
8FE6
 10
34.0661
 20
28.1578
 30
0.000000
  70
    32
  0
VERTEX
  8
0
  5
8FE7
 10
34.0678
 20
28.1541
 30
0.000000
  70
    32
  0
VERTEX
  8
0
  5
8FE8
 10
34.0695
 20
28.1503
 30
0.000000
  70
    32
  0
VERTEX
  8
0
  5
8FE9
 10
34.0712
 20
28.1466
 30
0.000000
  70
    32
  0
VERTEX
  8
0
  5
8FEA
 10
34.0730
 20
28.1428
 30
0.000000
  70
    32
  0
VERTEX
  8
0
  5
8FEB
 10
34.0748
 20
28.1391
 30
0.000000
  70
    32
  0
VERTEX
  8
0
  5
8FEC
 10
34.0766
 20
28.1353
 30
0.000000
  70
    32
  0
VERTEX
  8
0
  5
8FED
 10
34.0784
 20
28.1316
 30
0.000000
  70
    32
  0
VERTEX
  8
0
  5
8FEE
 10
34.0803
 20
28.1279
 30
0.000000
  70
    32
  0
VERTEX
  8
0
  5
8FEF
 10
34.0821
 20
28.1242
 30
0.000000
  70
    32
  0
VERTEX
  8
0
  5
8FF0
 10
34.0840
 20
28.1205
 30
0.000000
  70
    32
  0
VERTEX
  8
0
  5
8FF1
 10
34.0859
 20
28.1168
 30
0.000000
  70
    32
  0
VERTEX
  8
0
  5
8FF2
 10
34.0879
 20
28.1131
 30
0.000000
  70
    32
  0
VERTEX
  8
0
  5
8FF3
 10
34.0898
 20
28.1094
 30
0.000000
  70
    32
  0
VERTEX
  8
0
  5
8FF4
 10
34.0918
 20
28.1057
 30
0.000000
  70
    32
  0
VERTEX
  8
0
  5
8FF5
 10
34.0938
 20
28.1021
 30
0.000000
  70
    32
  0
VERTEX
  8
0
  5
8FF6
 10
34.0958
 20
28.0984
 30
0.000000
  70
    32
  0
VERTEX
  8
0
  5
8FF7
 10
34.0979
 20
28.0948
 30
0.000000
  70
    32
  0
VERTEX
  8
0
  5
8FF8
 10
34.0999
 20
28.0911
 30
0.000000
  70
    32
  0
VERTEX
  8
0
  5
8FF9
 10
34.1020
 20
28.0875
 30
0.000000
  70
    32
  0
VERTEX
  8
0
  5
8FFA
 10
34.1041
 20
28.0839
 30
0.000000
  70
    32
  0
VERTEX
  8
0
  5
8FFB
 10
34.1063
 20
28.0803
 30
0.000000
  70
    32
  0
VERTEX
  8
0
  5
8FFC
 10
34.1084
 20
28.0767
 30
0.000000
  70
    32
  0
VERTEX
  8
0
  5
8FFD
 10
34.1106
 20
28.0731
 30
0.000000
  70
    32
  0
VERTEX
  8
0
  5
8FFE
 10
34.1128
 20
28.0695
 30
0.000000
  70
    32
  0
VERTEX
  8
0
  5
8FFF
 10
34.1150
 20
28.0660
 30
0.000000
  70
    32
  0
VERTEX
  8
0
  5
9000
 10
34.1172
 20
28.0624
 30
0.000000
  70
    32
  0
VERTEX
  8
0
  5
9001
 10
34.1195
 20
28.0589
 30
0.000000
  70
    32
  0
VERTEX
  8
0
  5
9002
 10
34.1218
 20
28.0554
 30
0.000000
  70
    32
  0
VERTEX
  8
0
  5
9003
 10
34.1241
 20
28.0518
 30
0.000000
  70
    32
  0
VERTEX
  8
0
  5
9004
 10
34.1264
 20
28.0483
 30
0.000000
  70
    32
  0
VERTEX
  8
0
  5
9005
 10
34.1288
 20
28.0449
 30
0.000000
  70
    32
  0
VERTEX
  8
0
  5
9006
 10
34.1312
 20
28.0414
 30
0.000000
  70
    32
  0
VERTEX
  8
0
  5
9007
 10
34.1336
 20
28.0379
 30
0.000000
  70
    32
  0
VERTEX
  8
0
  5
9008
 10
34.1360
 20
28.0345
 30
0.000000
  70
    32
  0
VERTEX
  8
0
  5
9009
 10
34.1385
 20
28.0310
 30
0.000000
  70
    32
  0
VERTEX
  8
0
  5
900A
 10
34.1409
 20
28.0276
 30
0.000000
  70
    32
  0
VERTEX
  8
0
  5
900B
 10
34.1434
 20
28.0242
 30
0.000000
  70
    32
  0
VERTEX
  8
0
  5
900C
 10
34.1459
 20
28.0208
 30
0.000000
  70
    32
  0
VERTEX
  8
0
  5
900D
 10
34.1485
 20
28.0175
 30
0.000000
  70
    32
  0
VERTEX
  8
0
  5
900E
 10
34.1510
 20
28.0141
 30
0.000000
  70
    32
  0
VERTEX
  8
0
  5
900F
 10
34.1536
 20
28.0108
 30
0.000000
  70
    32
  0
VERTEX
  8
0
  5
9010
 10
34.1562
 20
28.0075
 30
0.000000
  70
    32
  0
VERTEX
  8
0
  5
9011
 10
34.1588
 20
28.0042
 30
0.000000
  70
    32
  0
VERTEX
  8
0
  5
9012
 10
34.1615
 20
28.0009
 30
0.000000
  70
    32
  0
VERTEX
  8
0
  5
9013
 10
34.1641
 20
27.9976
 30
0.000000
  70
    32
  0
VERTEX
  8
0
  5
9014
 10
34.1668
 20
27.9944
 30
0.000000
  70
    32
  0
VERTEX
  8
0
  5
9015
 10
34.1695
 20
27.9911
 30
0.000000
  70
    32
  0
VERTEX
  8
0
  5
9016
 10
34.1723
 20
27.9879
 30
0.000000
  70
    32
  0
VERTEX
  8
0
  5
9017
 10
34.1750
 20
27.9847
 30
0.000000
  70
    32
  0
VERTEX
  8
0
  5
9018
 10
34.1778
 20
27.9816
 30
0.000000
  70
    32
  0
VERTEX
  8
0
  5
9019
 10
34.1806
 20
27.9784
 30
0.000000
  70
    32
  0
VERTEX
  8
0
  5
901A
 10
34.1834
 20
27.9753
 30
0.000000
  70
    32
  0
VERTEX
  8
0
  5
901B
 10
34.1863
 20
27.9722
 30
0.000000
  70
    32
  0
VERTEX
  8
0
  5
901C
 10
34.1892
 20
27.9691
 30
0.000000
  70
    32
  0
VERTEX
  8
0
  5
901D
 10
34.1921
 20
27.9660
 30
0.000000
  70
    32
  0
VERTEX
  8
0
  5
901E
 10
34.1950
 20
27.9630
 30
0.000000
  70
    32
  0
VERTEX
  8
0
  5
901F
 10
34.1979
 20
27.9599
 30
0.000000
  70
    32
  0
VERTEX
  8
0
  5
9020
 10
34.2009
 20
27.9569
 30
0.000000
  70
    32
  0
VERTEX
  8
0
  5
9021
 10
34.2039
 20
27.9540
 30
0.000000
  70
    32
  0
VERTEX
  8
0
  5
9022
 10
34.2069
 20
27.9510
 30
0.000000
  70
    32
  0
VERTEX
  8
0
  5
9023
 10
34.2099
 20
27.9481
 30
0.000000
  70
    32
  0
VERTEX
  8
0
  5
9024
 10
34.2130
 20
27.9452
 30
0.000000
  70
    32
  0
VERTEX
  8
0
  5
9025
 10
34.2160
 20
27.9423
 30
0.000000
  70
    32
  0
VERTEX
  8
0
  5
9026
 10
34.2191
 20
27.9394
 30
0.000000
  70
    32
  0
VERTEX
  8
0
  5
9027
 10
34.2222
 20
27.9366
 30
0.000000
  70
    32
  0
VERTEX
  8
0
  5
9028
 10
34.2254
 20
27.9337
 30
0.000000
  70
    32
  0
VERTEX
  8
0
  5
9029
 10
34.2285
 20
27.9309
 30
0.000000
  70
    32
  0
VERTEX
  8
0
  5
902A
 10
34.2317
 20
27.9282
 30
0.000000
  70
    32
  0
VERTEX
  8
0
  5
902B
 10
34.2349
 20
27.9254
 30
0.000000
  70
    32
  0
VERTEX
  8
0
  5
902C
 10
34.2382
 20
27.9227
 30
0.000000
  70
    32
  0
VERTEX
  8
0
  5
902D
 10
34.2414
 20
27.9200
 30
0.000000
  70
    32
  0
VERTEX
  8
0
  5
902E
 10
34.2447
 20
27.9174
 30
0.000000
  70
    32
  0
VERTEX
  8
0
  5
902F
 10
34.2480
 20
27.9147
 30
0.000000
  70
    32
  0
VERTEX
  8
0
  5
9030
 10
34.2513
 20
27.9121
 30
0.000000
  70
    32
  0
VERTEX
  8
0
  5
9031
 10
34.2547
 20
27.9095
 30
0.000000
  70
    32
  0
VERTEX
  8
0
  5
9032
 10
34.2580
 20
27.9070
 30
0.000000
  70
    32
  0
VERTEX
  8
0
  5
9033
 10
34.2614
 20
27.9045
 30
0.000000
  70
    32
  0
VERTEX
  8
0
  5
9034
 10
34.2648
 20
27.9020
 30
0.000000
  70
    32
  0
VERTEX
  8
0
  5
9035
 10
34.2683
 20
27.8995
 30
0.000000
  70
    32
  0
VERTEX
  8
0
  5
9036
 10
34.2717
 20
27.8971
 30
0.000000
  70
    32
  0
VERTEX
  8
0
  5
9037
 10
34.2752
 20
27.8946
 30
0.000000
  70
    32
  0
VERTEX
  8
0
  5
9038
 10
34.2787
 20
27.8923
 30
0.000000
  70
    32
  0
VERTEX
  8
0
  5
9039
 10
34.2822
 20
27.8899
 30
0.000000
  70
    32
  0
VERTEX
  8
0
  5
903A
 10
34.2858
 20
27.8876
 30
0.000000
  70
    32
  0
VERTEX
  8
0
  5
903B
 10
34.2893
 20
27.8853
 30
0.000000
  70
    32
  0
VERTEX
  8
0
  5
903C
 10
34.2929
 20
27.8830
 30
0.000000
  70
    32
  0
VERTEX
  8
0
  5
903D
 10
34.2965
 20
27.8808
 30
0.000000
  70
    32
  0
VERTEX
  8
0
  5
903E
 10
34.3001
 20
27.8786
 30
0.000000
  70
    32
  0
VERTEX
  8
0
  5
903F
 10
34.3037
 20
27.8764
 30
0.000000
  70
    32
  0
VERTEX
  8
0
  5
9040
 10
34.3074
 20
27.8743
 30
0.000000
  70
    32
  0
VERTEX
  8
0
  5
9041
 10
34.3110
 20
27.8722
 30
0.000000
  70
    32
  0
VERTEX
  8
0
  5
9042
 10
34.3147
 20
27.8701
 30
0.000000
  70
    32
  0
VERTEX
  8
0
  5
9043
 10
34.3183
 20
27.8681
 30
0.000000
  70
    32
  0
VERTEX
  8
0
  5
9044
 10
34.3220
 20
27.8661
 30
0.000000
  70
    32
  0
VERTEX
  8
0
  5
9045
 10
34.3257
 20
27.8641
 30
0.000000
  70
    32
  0
VERTEX
  8
0
  5
9046
 10
34.3295
 20
27.8621
 30
0.000000
  70
    32
  0
VERTEX
  8
0
  5
9047
 10
34.3332
 20
27.8602
 30
0.000000
  70
    32
  0
VERTEX
  8
0
  5
9048
 10
34.3369
 20
27.8583
 30
0.000000
  70
    32
  0
VERTEX
  8
0
  5
9049
 10
34.3407
 20
27.8564
 30
0.000000
  70
    32
  0
VERTEX
  8
0
  5
904A
 10
34.3445
 20
27.8546
 30
0.000000
  70
    32
  0
VERTEX
  8
0
  5
904B
 10
34.3483
 20
27.8527
 30
0.000000
  70
    32
  0
VERTEX
  8
0
  5
904C
 10
34.3521
 20
27.8509
 30
0.000000
  70
    32
  0
VERTEX
  8
0
  5
904D
 10
34.3559
 20
27.8492
 30
0.000000
  70
    32
  0
VERTEX
  8
0
  5
904E
 10
34.3597
 20
27.8475
 30
0.000000
  70
    32
  0
VERTEX
  8
0
  5
904F
 10
34.3635
 20
27.8457
 30
0.000000
  70
    32
  0
VERTEX
  8
0
  5
9050
 10
34.3674
 20
27.8441
 30
0.000000
  70
    32
  0
VERTEX
  8
0
  5
9051
 10
34.3712
 20
27.8424
 30
0.000000
  70
    32
  0
VERTEX
  8
0
  5
9052
 10
34.3751
 20
27.8408
 30
0.000000
  70
    32
  0
VERTEX
  8
0
  5
9053
 10
34.3790
 20
27.8392
 30
0.000000
  70
    32
  0
VERTEX
  8
0
  5
9054
 10
34.3829
 20
27.8376
 30
0.000000
  70
    32
  0
VERTEX
  8
0
  5
9055
 10
34.3868
 20
27.8361
 30
0.000000
  70
    32
  0
VERTEX
  8
0
  5
9056
 10
34.3907
 20
27.8346
 30
0.000000
  70
    32
  0
VERTEX
  8
0
  5
9057
 10
34.3946
 20
27.8331
 30
0.000000
  70
    32
  0
VERTEX
  8
0
  5
9058
 10
34.3986
 20
27.8317
 30
0.000000
  70
    32
  0
VERTEX
  8
0
  5
9059
 10
34.4025
 20
27.8302
 30
0.000000
  70
    32
  0
VERTEX
  8
0
  5
905A
 10
34.4065
 20
27.8288
 30
0.000000
  70
    32
  0
VERTEX
  8
0
  5
905B
 10
34.4104
 20
27.8274
 30
0.000000
  70
    32
  0
VERTEX
  8
0
  5
905C
 10
34.4144
 20
27.8261
 30
0.000000
  70
    32
  0
VERTEX
  8
0
  5
905D
 10
34.4184
 20
27.8248
 30
0.000000
  70
    32
  0
VERTEX
  8
0
  5
905E
 10
34.4224
 20
27.8235
 30
0.000000
  70
    32
  0
VERTEX
  8
0
  5
905F
 10
34.4264
 20
27.8222
 30
0.000000
  70
    32
  0
VERTEX
  8
0
  5
9060
 10
34.4304
 20
27.8209
 30
0.000000
  70
    32
  0
VERTEX
  8
0
  5
9061
 10
34.4344
 20
27.8197
 30
0.000000
  70
    32
  0
VERTEX
  8
0
  5
9062
 10
34.4384
 20
27.8185
 30
0.000000
  70
    32
  0
VERTEX
  8
0
  5
9063
 10
34.4425
 20
27.8173
 30
0.000000
  70
    32
  0
VERTEX
  8
0
  5
9064
 10
34.4465
 20
27.8162
 30
0.000000
  70
    32
  0
VERTEX
  8
0
  5
9065
 10
34.4505
 20
27.8151
 30
0.000000
  70
    32
  0
VERTEX
  8
0
  5
9066
 10
34.4546
 20
27.8140
 30
0.000000
  70
    32
  0
VERTEX
  8
0
  5
9067
 10
34.4587
 20
27.8129
 30
0.000000
  70
    32
  0
VERTEX
  8
0
  5
9068
 10
34.4627
 20
27.8119
 30
0.000000
  70
    32
  0
VERTEX
  8
0
  5
9069
 10
34.4668
 20
27.8108
 30
0.000000
  70
    32
  0
VERTEX
  8
0
  5
906A
 10
34.4709
 20
27.8098
 30
0.000000
  70
    32
  0
VERTEX
  8
0
  5
906B
 10
34.4750
 20
27.8089
 30
0.000000
  70
    32
  0
VERTEX
  8
0
  5
906C
 10
34.4791
 20
27.8079
 30
0.000000
  70
    32
  0
VERTEX
  8
0
  5
906D
 10
34.4832
 20
27.8070
 30
0.000000
  70
    32
  0
VERTEX
  8
0
  5
906E
 10
34.4873
 20
27.8061
 30
0.000000
  70
    32
  0
VERTEX
  8
0
  5
906F
 10
34.4914
 20
27.8052
 30
0.000000
  70
    32
  0
VERTEX
  8
0
  5
9070
 10
34.4955
 20
27.8043
 30
0.000000
  70
    32
  0
VERTEX
  8
0
  5
9071
 10
34.4996
 20
27.8035
 30
0.000000
  70
    32
  0
VERTEX
  8
0
  5
9072
 10
34.5037
 20
27.8027
 30
0.000000
  70
    32
  0
VERTEX
  8
0
  5
9073
 10
34.5078
 20
27.8019
 30
0.000000
  70
    32
  0
VERTEX
  8
0
  5
9074
 10
34.5120
 20
27.8012
 30
0.000000
  70
    32
  0
VERTEX
  8
0
  5
9075
 10
34.5161
 20
27.8004
 30
0.000000
  70
    32
  0
VERTEX
  8
0
  5
9076
 10
34.5203
 20
27.7997
 30
0.000000
  70
    32
  0
VERTEX
  8
0
  5
9077
 10
34.5244
 20
27.7990
 30
0.000000
  70
    32
  0
VERTEX
  8
0
  5
9078
 10
34.5285
 20
27.7983
 30
0.000000
  70
    32
  0
VERTEX
  8
0
  5
9079
 10
34.5327
 20
27.7977
 30
0.000000
  70
    32
  0
VERTEX
  8
0
  5
907A
 10
34.5368
 20
27.7971
 30
0.000000
  70
    32
  0
VERTEX
  8
0
  5
907B
 10
34.5410
 20
27.7965
 30
0.000000
  70
    32
  0
VERTEX
  8
0
  5
907C
 10
34.5452
 20
27.7959
 30
0.000000
  70
    32
  0
VERTEX
  8
0
  5
907D
 10
34.5493
 20
27.7953
 30
0.000000
  70
    32
  0
VERTEX
  8
0
  5
907E
 10
34.5535
 20
27.7948
 30
0.000000
  70
    32
  0
VERTEX
  8
0
  5
907F
 10
34.5576
 20
27.7943
 30
0.000000
  70
    32
  0
VERTEX
  8
0
  5
9080
 10
34.5618
 20
27.7937
 30
0.000000
  70
    32
  0
VERTEX
  8
0
  5
9081
 10
34.5660
 20
27.7933
 30
0.000000
  70
    32
  0
VERTEX
  8
0
  5
9082
 10
34.5702
 20
27.7928
 30
0.000000
  70
    32
  0
VERTEX
  8
0
  5
9083
 10
34.5743
 20
27.7924
 30
0.000000
  70
    32
  0
VERTEX
  8
0
  5
9084
 10
34.5785
 20
27.7919
 30
0.000000
  70
    32
  0
VERTEX
  8
0
  5
9085
 10
34.5827
 20
27.7915
 30
0.000000
  70
    32
  0
VERTEX
  8
0
  5
9086
 10
34.5869
 20
27.7911
 30
0.000000
  70
    32
  0
VERTEX
  8
0
  5
9087
 10
34.5911
 20
27.7908
 30
0.000000
  70
    32
  0
VERTEX
  8
0
  5
9088
 10
34.5952
 20
27.7904
 30
0.000000
  70
    32
  0
VERTEX
  8
0
  5
9089
 10
34.5994
 20
27.7901
 30
0.000000
  70
    32
  0
VERTEX
  8
0
  5
908A
 10
34.6036
 20
27.7898
 30
0.000000
  70
    32
  0
VERTEX
  8
0
  5
908B
 10
34.6078
 20
27.7895
 30
0.000000
  70
    32
  0
VERTEX
  8
0
  5
908C
 10
34.6120
 20
27.7892
 30
0.000000
  70
    32
  0
VERTEX
  8
0
  5
908D
 10
34.6162
 20
27.7889
 30
0.000000
  70
    32
  0
VERTEX
  8
0
  5
908E
 10
34.6204
 20
27.7887
 30
0.000000
  70
    32
  0
VERTEX
  8
0
  5
908F
 10
34.6246
 20
27.7885
 30
0.000000
  70
    32
  0
VERTEX
  8
0
  5
9090
 10
34.6287
 20
27.7883
 30
0.000000
  70
    32
  0
VERTEX
  8
0
  5
9091
 10
34.6329
 20
27.7881
 30
0.000000
  70
    32
  0
VERTEX
  8
0
  5
9092
 10
34.6371
 20
27.7879
 30
0.000000
  70
    32
  0
VERTEX
  8
0
  5
9093
 10
34.6413
 20
27.7878
 30
0.000000
  70
    32
  0
VERTEX
  8
0
  5
9094
 10
34.6455
 20
27.7877
 30
0.000000
  70
    32
  0
VERTEX
  8
0
  5
9095
 10
34.6497
 20
27.7876
 30
0.000000
  70
    32
  0
VERTEX
  8
0
  5
9096
 10
34.6539
 20
27.7875
 30
0.000000
  70
    32
  0
VERTEX
  8
0
  5
9097
 10
34.6581
 20
27.7875
 30
0.000000
  70
    32
  0
VERTEX
  8
0
  5
9098
 10
34.6623
 20
27.7874
 30
0.000000
  70
    32
  0
VERTEX
  8
0
  5
9099
 10
34.6665
 20
27.7874
 30
0.000000
  70
    32
  0
VERTEX
  8
0
  5
909A
 10
34.6707
 20
27.7874
 30
0.000000
  70
    32
  0
VERTEX
  8
0
  5
909B
 10
34.6749
 20
27.7875
 30
0.000000
  70
    32
  0
VERTEX
  8
0
  5
909C
 10
34.6791
 20
27.7875
 30
0.000000
  70
    32
  0
VERTEX
  8
0
  5
909D
 10
34.6832
 20
27.7876
 30
0.000000
  70
    32
  0
VERTEX
  8
0
  5
909E
 10
34.6874
 20
27.7877
 30
0.000000
  70
    32
  0
VERTEX
  8
0
  5
909F
 10
34.6916
 20
27.7878
 30
0.000000
  70
    32
  0
VERTEX
  8
0
  5
90A0
 10
34.6958
 20
27.7879
 30
0.000000
  70
    32
  0
VERTEX
  8
0
  5
90A1
 10
34.7000
 20
27.7881
 30
0.000000
  70
    32
  0
VERTEX
  8
0
  5
90A2
 10
34.7042
 20
27.7882
 30
0.000000
  70
    32
  0
VERTEX
  8
0
  5
90A3
 10
34.7084
 20
27.7884
 30
0.000000
  70
    32
  0
VERTEX
  8
0
  5
90A4
 10
34.7125
 20
27.7886
 30
0.000000
  70
    32
  0
VERTEX
  8
0
  5
90A5
 10
34.7167
 20
27.7889
 30
0.000000
  70
    32
  0
VERTEX
  8
0
  5
90A6
 10
34.7209
 20
27.7891
 30
0.000000
  70
    32
  0
VERTEX
  8
0
  5
90A7
 10
34.7251
 20
27.7894
 30
0.000000
  70
    32
  0
VERTEX
  8
0
  5
90A8
 10
34.7292
 20
27.7897
 30
0.000000
  70
    32
  0
VERTEX
  8
0
  5
90A9
 10
34.7334
 20
27.7901
 30
0.000000
  70
    32
  0
VERTEX
  8
0
  5
90AA
 10
34.7376
 20
27.7904
 30
0.000000
  70
    32
  0
VERTEX
  8
0
  5
90AB
 10
34.7417
 20
27.7908
 30
0.000000
  70
    32
  0
VERTEX
  8
0
  5
90AC
 10
34.7459
 20
27.7912
 30
0.000000
  70
    32
  0
VERTEX
  8
0
  5
90AD
 10
34.7500
 20
27.7916
 30
0.000000
  70
    32
  0
VERTEX
  8
0
  5
90AE
 10
34.7542
 20
27.7920
 30
0.000000
  70
    32
  0
VERTEX
  8
0
  5
90AF
 10
34.7584
 20
27.7925
 30
0.000000
  70
    32
  0
VERTEX
  8
0
  5
90B0
 10
34.7625
 20
27.7930
 30
0.000000
  70
    32
  0
VERTEX
  8
0
  5
90B1
 10
34.7667
 20
27.7935
 30
0.000000
  70
    32
  0
VERTEX
  8
0
  5
90B2
 10
34.7708
 20
27.7940
 30
0.000000
  70
    32
  0
VERTEX
  8
0
  5
90B3
 10
34.7749
 20
27.7945
 30
0.000000
  70
    32
  0
VERTEX
  8
0
  5
90B4
 10
34.7791
 20
27.7951
 30
0.000000
  70
    32
  0
VERTEX
  8
0
  5
90B5
 10
34.7832
 20
27.7957
 30
0.000000
  70
    32
  0
VERTEX
  8
0
  5
90B6
 10
34.7873
 20
27.7963
 30
0.000000
  70
    32
  0
VERTEX
  8
0
  5
90B7
 10
34.7915
 20
27.7970
 30
0.000000
  70
    32
  0
VERTEX
  8
0
  5
90B8
 10
34.7956
 20
27.7976
 30
0.000000
  70
    32
  0
VERTEX
  8
0
  5
90B9
 10
34.7997
 20
27.7983
 30
0.000000
  70
    32
  0
VERTEX
  8
0
  5
90BA
 10
34.8038
 20
27.7990
 30
0.000000
  70
    32
  0
VERTEX
  8
0
  5
90BB
 10
34.8079
 20
27.7998
 30
0.000000
  70
    32
  0
VERTEX
  8
0
  5
90BC
 10
34.8120
 20
27.8005
 30
0.000000
  70
    32
  0
VERTEX
  8
0
  5
90BD
 10
34.8161
 20
27.8013
 30
0.000000
  70
    32
  0
VERTEX
  8
0
  5
90BE
 10
34.8202
 20
27.8021
 30
0.000000
  70
    32
  0
VERTEX
  8
0
  5
90BF
 10
34.8243
 20
27.8029
 30
0.000000
  70
    32
  0
VERTEX
  8
0
  5
90C0
 10
34.8284
 20
27.8038
 30
0.000000
  70
    32
  0
VERTEX
  8
0
  5
90C1
 10
34.8325
 20
27.8047
 30
0.000000
  70
    32
  0
VERTEX
  8
0
  5
90C2
 10
34.8365
 20
27.8056
 30
0.000000
  70
    32
  0
VERTEX
  8
0
  5
90C3
 10
34.8406
 20
27.8065
 30
0.000000
  70
    32
  0
VERTEX
  8
0
  5
90C4
 10
34.8447
 20
27.8074
 30
0.000000
  70
    32
  0
VERTEX
  8
0
  5
90C5
 10
34.8487
 20
27.8084
 30
0.000000
  70
    32
  0
VERTEX
  8
0
  5
90C6
 10
34.8528
 20
27.8094
 30
0.000000
  70
    32
  0
VERTEX
  8
0
  5
90C7
 10
34.8568
 20
27.8104
 30
0.000000
  70
    32
  0
VERTEX
  8
0
  5
90C8
 10
34.8608
 20
27.8115
 30
0.000000
  70
    32
  0
VERTEX
  8
0
  5
90C9
 10
34.8649
 20
27.8126
 30
0.000000
  70
    32
  0
VERTEX
  8
0
  5
90CA
 10
34.8689
 20
27.8137
 30
0.000000
  70
    32
  0
VERTEX
  8
0
  5
90CB
 10
34.8729
 20
27.8148
 30
0.000000
  70
    32
  0
VERTEX
  8
0
  5
90CC
 10
34.8769
 20
27.8159
 30
0.000000
  70
    32
  0
VERTEX
  8
0
  5
90CD
 10
34.8809
 20
27.8171
 30
0.000000
  70
    32
  0
VERTEX
  8
0
  5
90CE
 10
34.8849
 20
27.8183
 30
0.000000
  70
    32
  0
VERTEX
  8
0
  5
90CF
 10
34.8889
 20
27.8195
 30
0.000000
  70
    32
  0
VERTEX
  8
0
  5
90D0
 10
34.8929
 20
27.8207
 30
0.000000
  70
    32
  0
VERTEX
  8
0
  5
90D1
 10
34.8969
 20
27.8220
 30
0.000000
  70
    32
  0
VERTEX
  8
0
  5
90D2
 10
34.9009
 20
27.8233
 30
0.000000
  70
    32
  0
VERTEX
  8
0
  5
90D3
 10
34.9048
 20
27.8246
 30
0.000000
  70
    32
  0
VERTEX
  8
0
  5
90D4
 10
34.9088
 20
27.8260
 30
0.000000
  70
    32
  0
VERTEX
  8
0
  5
90D5
 10
34.9128
 20
27.8274
 30
0.000000
  70
    32
  0
VERTEX
  8
0
  5
90D6
 10
34.9167
 20
27.8288
 30
0.000000
  70
    32
  0
VERTEX
  8
0
  5
90D7
 10
34.9206
 20
27.8302
 30
0.000000
  70
    32
  0
VERTEX
  8
0
  5
90D8
 10
34.9246
 20
27.8316
 30
0.000000
  70
    32
  0
VERTEX
  8
0
  5
90D9
 10
34.9285
 20
27.8331
 30
0.000000
  70
    32
  0
VERTEX
  8
0
  5
90DA
 10
34.9324
 20
27.8346
 30
0.000000
  70
    32
  0
VERTEX
  8
0
  5
90DB
 10
34.9363
 20
27.8361
 30
0.000000
  70
    32
  0
VERTEX
  8
0
  5
90DC
 10
34.9402
 20
27.8377
 30
0.000000
  70
    32
  0
VERTEX
  8
0
  5
90DD
 10
34.9441
 20
27.8393
 30
0.000000
  70
    32
  0
VERTEX
  8
0
  5
90DE
 10
34.9479
 20
27.8409
 30
0.000000
  70
    32
  0
VERTEX
  8
0
  5
90DF
 10
34.9518
 20
27.8425
 30
0.000000
  70
    32
  0
VERTEX
  8
0
  5
90E0
 10
34.9557
 20
27.8442
 30
0.000000
  70
    32
  0
VERTEX
  8
0
  5
90E1
 10
34.9595
 20
27.8459
 30
0.000000
  70
    32
  0
VERTEX
  8
0
  5
90E2
 10
34.9633
 20
27.8477
 30
0.000000
  70
    32
  0
VERTEX
  8
0
  5
90E3
 10
34.9672
 20
27.8494
 30
0.000000
  70
    32
  0
VERTEX
  8
0
  5
90E4
 10
34.9710
 20
27.8512
 30
0.000000
  70
    32
  0
VERTEX
  8
0
  5
90E5
 10
34.9747
 20
27.8531
 30
0.000000
  70
    32
  0
VERTEX
  8
0
  5
90E6
 10
34.9785
 20
27.8550
 30
0.000000
  70
    32
  0
VERTEX
  8
0
  5
90E7
 10
34.9823
 20
27.8569
 30
0.000000
  70
    32
  0
VERTEX
  8
0
  5
90E8
 10
34.9860
 20
27.8588
 30
0.000000
  70
    32
  0
VERTEX
  8
0
  5
90E9
 10
34.9898
 20
27.8608
 30
0.000000
  70
    32
  0
VERTEX
  8
0
  5
90EA
 10
34.9935
 20
27.8627
 30
0.000000
  70
    32
  0
VERTEX
  8
0
  5
90EB
 10
34.9972
 20
27.8648
 30
0.000000
  70
    32
  0
VERTEX
  8
0
  5
90EC
 10
35.0009
 20
27.8668
 30
0.000000
  70
    32
  0
VERTEX
  8
0
  5
90ED
 10
35.0046
 20
27.8689
 30
0.000000
  70
    32
  0
VERTEX
  8
0
  5
90EE
 10
35.0083
 20
27.8710
 30
0.000000
  70
    32
  0
VERTEX
  8
0
  5
90EF
 10
35.0119
 20
27.8732
 30
0.000000
  70
    32
  0
VERTEX
  8
0
  5
90F0
 10
35.0156
 20
27.8753
 30
0.000000
  70
    32
  0
VERTEX
  8
0
  5
90F1
 10
35.0192
 20
27.8775
 30
0.000000
  70
    32
  0
VERTEX
  8
0
  5
90F2
 10
35.0228
 20
27.8798
 30
0.000000
  70
    32
  0
VERTEX
  8
0
  5
90F3
 10
35.0264
 20
27.8820
 30
0.000000
  70
    32
  0
VERTEX
  8
0
  5
90F4
 10
35.0300
 20
27.8843
 30
0.000000
  70
    32
  0
VERTEX
  8
0
  5
90F5
 10
35.0335
 20
27.8866
 30
0.000000
  70
    32
  0
VERTEX
  8
0
  5
90F6
 10
35.0371
 20
27.8890
 30
0.000000
  70
    32
  0
VERTEX
  8
0
  5
90F7
 10
35.0406
 20
27.8913
 30
0.000000
  70
    32
  0
VERTEX
  8
0
  5
90F8
 10
35.0441
 20
27.8937
 30
0.000000
  70
    32
  0
VERTEX
  8
0
  5
90F9
 10
35.0476
 20
27.8962
 30
0.000000
  70
    32
  0
VERTEX
  8
0
  5
90FA
 10
35.0511
 20
27.8986
 30
0.000000
  70
    32
  0
VERTEX
  8
0
  5
90FB
 10
35.0546
 20
27.9011
 30
0.000000
  70
    32
  0
VERTEX
  8
0
  5
90FC
 10
35.0580
 20
27.9036
 30
0.000000
  70
    32
  0
VERTEX
  8
0
  5
90FD
 10
35.0614
 20
27.9062
 30
0.000000
  70
    32
  0
VERTEX
  8
0
  5
90FE
 10
35.0648
 20
27.9087
 30
0.000000
  70
    32
  0
VERTEX
  8
0
  5
90FF
 10
35.0682
 20
27.9113
 30
0.000000
  70
    32
  0
VERTEX
  8
0
  5
9100
 10
35.0716
 20
27.9139
 30
0.000000
  70
    32
  0
VERTEX
  8
0
  5
9101
 10
35.0750
 20
27.9166
 30
0.000000
  70
    32
  0
VERTEX
  8
0
  5
9102
 10
35.0783
 20
27.9192
 30
0.000000
  70
    32
  0
VERTEX
  8
0
  5
9103
 10
35.0816
 20
27.9219
 30
0.000000
  70
    32
  0
VERTEX
  8
0
  5
9104
 10
35.0849
 20
27.9246
 30
0.000000
  70
    32
  0
VERTEX
  8
0
  5
9105
 10
35.0882
 20
27.9274
 30
0.000000
  70
    32
  0
VERTEX
  8
0
  5
9106
 10
35.0914
 20
27.9302
 30
0.000000
  70
    32
  0
VERTEX
  8
0
  5
9107
 10
35.0947
 20
27.9330
 30
0.000000
  70
    32
  0
VERTEX
  8
0
  5
9108
 10
35.0979
 20
27.9358
 30
0.000000
  70
    32
  0
VERTEX
  8
0
  5
9109
 10
35.1011
 20
27.9386
 30
0.000000
  70
    32
  0
VERTEX
  8
0
  5
910A
 10
35.1042
 20
27.9415
 30
0.000000
  70
    32
  0
VERTEX
  8
0
  5
910B
 10
35.1074
 20
27.9444
 30
0.000000
  70
    32
  0
VERTEX
  8
0
  5
910C
 10
35.1105
 20
27.9473
 30
0.000000
  70
    32
  0
VERTEX
  8
0
  5
910D
 10
35.1136
 20
27.9503
 30
0.000000
  70
    32
  0
VERTEX
  8
0
  5
910E
 10
35.1167
 20
27.9532
 30
0.000000
  70
    32
  0
VERTEX
  8
0
  5
910F
 10
35.1198
 20
27.9562
 30
0.000000
  70
    32
  0
VERTEX
  8
0
  5
9110
 10
35.1228
 20
27.9592
 30
0.000000
  70
    32
  0
VERTEX
  8
0
  5
9111
 10
35.1258
 20
27.9623
 30
0.000000
  70
    32
  0
VERTEX
  8
0
  5
9112
 10
35.1288
 20
27.9653
 30
0.000000
  70
    32
  0
VERTEX
  8
0
  5
9113
 10
35.1318
 20
27.9684
 30
0.000000
  70
    32
  0
VERTEX
  8
0
  5
9114
 10
35.1348
 20
27.9715
 30
0.000000
  70
    32
  0
VERTEX
  8
0
  5
9115
 10
35.1377
 20
27.9746
 30
0.000000
  70
    32
  0
VERTEX
  8
0
  5
9116
 10
35.1406
 20
27.9778
 30
0.000000
  70
    32
  0
VERTEX
  8
0
  5
9117
 10
35.1435
 20
27.9809
 30
0.000000
  70
    32
  0
VERTEX
  8
0
  5
9118
 10
35.1463
 20
27.9841
 30
0.000000
  70
    32
  0
VERTEX
  8
0
  5
9119
 10
35.1491
 20
27.9874
 30
0.000000
  70
    32
  0
VERTEX
  8
0
  5
911A
 10
35.1520
 20
27.9906
 30
0.000000
  70
    32
  0
VERTEX
  8
0
  5
911B
 10
35.1547
 20
27.9939
 30
0.000000
  70
    32
  0
VERTEX
  8
0
  5
911C
 10
35.1575
 20
27.9971
 30
0.000000
  70
    32
  0
VERTEX
  8
0
  5
911D
 10
35.1602
 20
28.0004
 30
0.000000
  70
    32
  0
VERTEX
  8
0
  5
911E
 10
35.1629
 20
28.0037
 30
0.000000
  70
    32
  0
VERTEX
  8
0
  5
911F
 10
35.1656
 20
28.0071
 30
0.000000
  70
    32
  0
VERTEX
  8
0
  5
9120
 10
35.1683
 20
28.0105
 30
0.000000
  70
    32
  0
VERTEX
  8
0
  5
9121
 10
35.1709
 20
28.0138
 30
0.000000
  70
    32
  0
VERTEX
  8
0
  5
9122
 10
35.1735
 20
28.0172
 30
0.000000
  70
    32
  0
VERTEX
  8
0
  5
9123
 10
35.1761
 20
28.0207
 30
0.000000
  70
    32
  0
VERTEX
  8
0
  5
9124
 10
35.1786
 20
28.0241
 30
0.000000
  70
    32
  0
VERTEX
  8
0
  5
9125
 10
35.1811
 20
28.0276
 30
0.000000
  70
    32
  0
VERTEX
  8
0
  5
9126
 10
35.1836
 20
28.0310
 30
0.000000
  70
    32
  0
VERTEX
  8
0
  5
9127
 10
35.1861
 20
28.0345
 30
0.000000
  70
    32
  0
VERTEX
  8
0
  5
9128
 10
35.1885
 20
28.0381
 30
0.000000
  70
    32
  0
VERTEX
  8
0
  5
9129
 10
35.1910
 20
28.0416
 30
0.000000
  70
    32
  0
VERTEX
  8
0
  5
912A
 10
35.1933
 20
28.0451
 30
0.000000
  70
    32
  0
VERTEX
  8
0
  5
912B
 10
35.1957
 20
28.0487
 30
0.000000
  70
    32
  0
VERTEX
  8
0
  5
912C
 10
35.1980
 20
28.0523
 30
0.000000
  70
    32
  0
VERTEX
  8
0
  5
912D
 10
35.2003
 20
28.0559
 30
0.000000
  70
    32
  0
VERTEX
  8
0
  5
912E
 10
35.2026
 20
28.0596
 30
0.000000
  70
    32
  0
VERTEX
  8
0
  5
912F
 10
35.2048
 20
28.0632
 30
0.000000
  70
    32
  0
VERTEX
  8
0
  5
9130
 10
35.2070
 20
28.0669
 30
0.000000
  70
    32
  0
VERTEX
  8
0
  5
9131
 10
35.2092
 20
28.0705
 30
0.000000
  70
    32
  0
VERTEX
  8
0
  5
9132
 10
35.2114
 20
28.0742
 30
0.000000
  70
    32
  0
VERTEX
  8
0
  5
9133
 10
35.2135
 20
28.0779
 30
0.000000
  70
    32
  0
VERTEX
  8
0
  5
9134
 10
35.2156
 20
28.0817
 30
0.000000
  70
    32
  0
VERTEX
  8
0
  5
9135
 10
35.2176
 20
28.0854
 30
0.000000
  70
    32
  0
VERTEX
  8
0
  5
9136
 10
35.2197
 20
28.0892
 30
0.000000
  70
    32
  0
VERTEX
  8
0
  5
9137
 10
35.2216
 20
28.0930
 30
0.000000
  70
    32
  0
VERTEX
  8
0
  5
9138
 10
35.2236
 20
28.0968
 30
0.000000
  70
    32
  0
VERTEX
  8
0
  5
9139
 10
35.2255
 20
28.1006
 30
0.000000
  70
    32
  0
VERTEX
  8
0
  5
913A
 10
35.2274
 20
28.1044
 30
0.000000
  70
    32
  0
VERTEX
  8
0
  5
913B
 10
35.2293
 20
28.1082
 30
0.000000
  70
    32
  0
VERTEX
  8
0
  5
913C
 10
35.2312
 20
28.1121
 30
0.000000
  70
    32
  0
VERTEX
  8
0
  5
913D
 10
35.2329
 20
28.1160
 30
0.000000
  70
    32
  0
VERTEX
  8
0
  5
913E
 10
35.2347
 20
28.1198
 30
0.000000
  70
    32
  0
VERTEX
  8
0
  5
913F
 10
35.2364
 20
28.1237
 30
0.000000
  70
    32
  0
VERTEX
  8
0
  5
9140
 10
35.2381
 20
28.1276
 30
0.000000
  70
    32
  0
VERTEX
  8
0
  5
9141
 10
35.2398
 20
28.1315
 30
0.000000
  70
    32
  0
VERTEX
  8
0
  5
9142
 10
35.2414
 20
28.1354
 30
0.000000
  70
    32
  0
VERTEX
  8
0
  5
9143
 10
35.2430
 20
28.1393
 30
0.000000
  70
    32
  0
VERTEX
  8
0
  5
9144
 10
35.2445
 20
28.1432
 30
0.000000
  70
    32
  0
VERTEX
  8
0
  5
9145
 10
35.2460
 20
28.1471
 30
0.000000
  70
    32
  0
VERTEX
  8
0
  5
9146
 10
35.2475
 20
28.1510
 30
0.000000
  70
    32
  0
VERTEX
  8
0
  5
9147
 10
35.2490
 20
28.1549
 30
0.000000
  70
    32
  0
VERTEX
  8
0
  5
9148
 10
35.2504
 20
28.1588
 30
0.000000
  70
    32
  0
VERTEX
  8
0
  5
9149
 10
35.2518
 20
28.1627
 30
0.000000
  70
    32
  0
VERTEX
  8
0
  5
914A
 10
35.2532
 20
28.1667
 30
0.000000
  70
    32
  0
VERTEX
  8
0
  5
914B
 10
35.2545
 20
28.1706
 30
0.000000
  70
    32
  0
VERTEX
  8
0
  5
914C
 10
35.2558
 20
28.1745
 30
0.000000
  70
    32
  0
VERTEX
  8
0
  5
914D
 10
35.2571
 20
28.1785
 30
0.000000
  70
    32
  0
VERTEX
  8
0
  5
914E
 10
35.2583
 20
28.1824
 30
0.000000
  70
    32
  0
VERTEX
  8
0
  5
914F
 10
35.2595
 20
28.1864
 30
0.000000
  70
    32
  0
VERTEX
  8
0
  5
9150
 10
35.2607
 20
28.1903
 30
0.000000
  70
    32
  0
VERTEX
  8
0
  5
9151
 10
35.2619
 20
28.1942
 30
0.000000
  70
    32
  0
VERTEX
  8
0
  5
9152
 10
35.2630
 20
28.1982
 30
0.000000
  70
    32
  0
VERTEX
  8
0
  5
9153
 10
35.2642
 20
28.2021
 30
0.000000
  70
    32
  0
VERTEX
  8
0
  5
9154
 10
35.2653
 20
28.2061
 30
0.000000
  70
    32
  0
VERTEX
  8
0
  5
9155
 10
35.2663
 20
28.2100
 30
0.000000
  70
    32
  0
VERTEX
  8
0
  5
9156
 10
35.2674
 20
28.2140
 30
0.000000
  70
    32
  0
VERTEX
  8
0
  5
9157
 10
35.2684
 20
28.2179
 30
0.000000
  70
    32
  0
VERTEX
  8
0
  5
9158
 10
35.2694
 20
28.2219
 30
0.000000
  70
    32
  0
VERTEX
  8
0
  5
9159
 10
35.2704
 20
28.2258
 30
0.000000
  70
    32
  0
VERTEX
  8
0
  5
915A
 10
35.2713
 20
28.2298
 30
0.000000
  70
    32
  0
VERTEX
  8
0
  5
915B
 10
35.2723
 20
28.2337
 30
0.000000
  70
    32
  0
VERTEX
  8
0
  5
915C
 10
35.2732
 20
28.2376
 30
0.000000
  70
    32
  0
VERTEX
  8
0
  5
915D
 10
35.2741
 20
28.2416
 30
0.000000
  70
    32
  0
VERTEX
  8
0
  5
915E
 10
35.2750
 20
28.2455
 30
0.000000
  70
    32
  0
VERTEX
  8
0
  5
915F
 10
35.2758
 20
28.2494
 30
0.000000
  70
    32
  0
VERTEX
  8
0
  5
9160
 10
35.2767
 20
28.2534
 30
0.000000
  70
    32
  0
VERTEX
  8
0
  5
9161
 10
35.2775
 20
28.2573
 30
0.000000
  70
    32
  0
VERTEX
  8
0
  5
9162
 10
35.2783
 20
28.2612
 30
0.000000
  70
    32
  0
VERTEX
  8
0
  5
9163
 10
35.2791
 20
28.2651
 30
0.000000
  70
    32
  0
VERTEX
  8
0
  5
9164
 10
35.2799
 20
28.2690
 30
0.000000
  70
    32
  0
VERTEX
  8
0
  5
9165
 10
35.2807
 20
28.2729
 30
0.000000
  70
    32
  0
VERTEX
  8
0
  5
9166
 10
35.2814
 20
28.2769
 30
0.000000
  70
    32
  0
VERTEX
  8
0
  5
9167
 10
35.2821
 20
28.2807
 30
0.000000
  70
    32
  0
VERTEX
  8
0
  5
9168
 10
35.2829
 20
28.2846
 30
0.000000
  70
    32
  0
VERTEX
  8
0
  5
9169
 10
35.2836
 20
28.2885
 30
0.000000
  70
    32
  0
VERTEX
  8
0
  5
916A
 10
35.2843
 20
28.2924
 30
0.000000
  70
    32
  0
VERTEX
  8
0
  5
916B
 10
35.2850
 20
28.2963
 30
0.000000
  70
    32
  0
VERTEX
  8
0
  5
916C
 10
35.2856
 20
28.3001
 30
0.000000
  70
    32
  0
VERTEX
  8
0
  5
916D
 10
35.2863
 20
28.3040
 30
0.000000
  70
    32
  0
VERTEX
  8
0
  5
916E
 10
35.2870
 20
28.3079
 30
0.000000
  70
    32
  0
VERTEX
  8
0
  5
916F
 10
35.2876
 20
28.3117
 30
0.000000
  70
    32
  0
VERTEX
  8
0
  5
9170
 10
35.2883
 20
28.3155
 30
0.000000
  70
    32
  0
VERTEX
  8
0
  5
9171
 10
35.2889
 20
28.3194
 30
0.000000
  70
    32
  0
VERTEX
  8
0
  5
9172
 10
35.2895
 20
28.3232
 30
0.000000
  70
    32
  0
VERTEX
  8
0
  5
9173
 10
35.2901
 20
28.3270
 30
0.000000
  70
    32
  0
VERTEX
  8
0
  5
9174
 10
35.2907
 20
28.3308
 30
0.000000
  70
    32
  0
VERTEX
  8
0
  5
9175
 10
35.2914
 20
28.3346
 30
0.000000
  70
    32
  0
VERTEX
  8
0
  5
9176
 10
35.2920
 20
28.3384
 30
0.000000
  70
    32
  0
VERTEX
  8
0
  5
9177
 10
35.2926
 20
28.3422
 30
0.000000
  70
    32
  0
VERTEX
  8
0
  5
9178
 10
35.2931
 20
28.3459
 30
0.000000
  70
    32
  0
VERTEX
  8
0
  5
9179
 10
35.2937
 20
28.3497
 30
0.000000
  70
    32
  0
VERTEX
  8
0
  5
917A
 10
35.2943
 20
28.3534
 30
0.000000
  70
    32
  0
VERTEX
  8
0
  5
917B
 10
35.2949
 20
28.3571
 30
0.000000
  70
    32
  0
SEQEND
  8
0
  5
917C
  0
LINE
  5
8AE9
  8
DETAIL
  6
CONTINUOUS
 10
35.295
 20
28.357
 30
0.0
 11
35.295
 21
29.837
 31
0.0
  0
POLYLINE
  5
8AEA
  8
DETAIL
  6
CONTINUOUS
 66
     1
 10
0.0
 20
0.0
 30
0.0
 40
0.07
 41
0.07
  0
VERTEX
  5
8AEB
  8
DETAIL
  6
CONTINUOUS
 10
35.234
 20
29.837
 30
0.0
 40
0.0
 41
0.0
  0
VERTEX
  5
8AEC
  8
DETAIL
  6
CONTINUOUS
 10
35.233
 20
28.367
 30
0.0
 40
0.0
 41
0.0
  0
SEQEND
  5
8AED
  8
DETAIL
  6
CONTINUOUS
  0
POLYLINE
  5
8AEE
  8
DETAIL
  6
CONTINUOUS
 66
     1
 10
0.0
 20
0.0
 30
0.0
 40
0.023
 41
0.023
  0
VERTEX
  5
8AEF
  8
DETAIL
  6
CONTINUOUS
 10
35.741
 20
29.287
 30
0.0
 40
0.0
 41
0.0
  0
VERTEX
  5
8AF0
  8
DETAIL
  6
CONTINUOUS
 10
35.735
 20
29.262
 30
0.0
 40
0.0
 41
0.0
  0
VERTEX
  5
8AF1
  8
DETAIL
  6
CONTINUOUS
 10
35.724
 20
29.253
 30
0.0
 40
0.0
 41
0.0
  0
VERTEX
  5
8AF2
  8
DETAIL
  6
CONTINUOUS
 10
35.718
 20
29.252
 30
0.0
 40
0.0
 41
0.0
  0
SEQEND
  5
8AF3
  8
DETAIL
  6
CONTINUOUS
  0
POLYLINE
  5
8AF4
  8
DETAIL
  6
CONTINUOUS
 66
     1
 10
0.0
 20
0.0
 30
0.0
 40
0.047
 41
0.047
  0
VERTEX
  5
8AF5
  8
DETAIL
  6
CONTINUOUS
 10
35.589
 20
29.334
 30
0.0
 40
0.0
 41
0.0
  0
VERTEX
  5
8AF6
  8
DETAIL
  6
CONTINUOUS
 10
35.561
 20
29.288
 30
0.0
 40
0.0
 41
0.0
  0
VERTEX
  5
8AF7
  8
DETAIL
  6
CONTINUOUS
 10
35.525
 20
29.274
 30
0.0
 40
0.0
 41
0.0
  0
VERTEX
  5
8AF8
  8
DETAIL
  6
CONTINUOUS
 10
35.471
 20
29.268
 30
0.0
 40
0.0
 41
0.0
  0
SEQEND
  5
8AF9
  8
DETAIL
  6
CONTINUOUS
  0
POLYLINE
  5
8AFA
  8
DETAIL
  6
CONTINUOUS
 66
     1
 10
0.0
 20
0.0
 30
0.0
 70
     1
 40
0.047
 41
0.047
  0
VERTEX
  5
8AFB
  8
DETAIL
  6
CONTINUOUS
 10
35.471
 20
29.152
 30
0.0
 40
0.0
 41
0.0
  0
VERTEX
  5
8AFC
  8
DETAIL
  6
CONTINUOUS
 10
35.471
 20
29.539
 30
0.0
 40
0.0
 41
0.0
  0
VERTEX
  5
8AFD
  8
DETAIL
  6
CONTINUOUS
 10
35.389
 20
29.539
 30
0.0
 40
0.0
 41
0.0
  0
VERTEX
  5
8AFE
  8
DETAIL
  6
CONTINUOUS
 10
35.389
 20
29.152
 30
0.0
 40
0.0
 41
0.0
  0
SEQEND
  5
8AFF
  8
DETAIL
  6
CONTINUOUS
  0
POLYLINE
  5
8B00
  8
DETAIL
  6
CONTINUOUS
 66
     1
 10
0.0
 20
0.0
 30
0.0
 40
0.023
 41
0.023
  0
VERTEX
  5
8B01
  8
DETAIL
  6
CONTINUOUS
 10
35.718
 20
29.252
 30
0.0
 40
0.0
 41
0.0
  0
VERTEX
  5
8B02
  8
DETAIL
  6
CONTINUOUS
 10
35.589
 20
29.252
 30
0.0
 40
0.0
 41
0.0
  0
SEQEND
  5
8B03
  8
DETAIL
  6
CONTINUOUS
  0
POLYLINE
  5
8B04
  8
DETAIL
  6
CONTINUOUS
 66
     1
 10
0.0
 20
0.0
 30
0.0
 40
0.023
 41
0.023
  0
VERTEX
  5
8B05
  8
DETAIL
  6
CONTINUOUS
 10
35.718
 20
28.642
 30
0.0
 40
0.0
 41
0.0
  0
VERTEX
  5
8B06
  8
DETAIL
  6
CONTINUOUS
 10
35.589
 20
28.642
 30
0.0
 40
0.0
 41
0.0
  0
SEQEND
  5
8B07
  8
DETAIL
  6
CONTINUOUS
  0
POLYLINE
  5
8B08
  8
DETAIL
  6
CONTINUOUS
 66
     1
 10
0.0
 20
0.0
 30
0.0
 40
0.023
 41
0.023
  0
VERTEX
  5
8B09
  8
DETAIL
  6
CONTINUOUS
 10
35.589
 20
28.8
 30
0.0
 40
0.0
 41
0.0
  0
VERTEX
  5
8B0A
  8
DETAIL
  6
CONTINUOUS
 10
35.7
 20
28.8
 30
0.0
 40
0.0
 41
0.0
  0
SEQEND
  5
8B0B
  8
DETAIL
  6
CONTINUOUS
  0
POLYLINE
  5
8B0C
  8
DETAIL
  6
CONTINUOUS
 66
     1
 10
0.0
 20
0.0
 30
0.0
 40
0.047
 41
0.047
  0
VERTEX
  5
8B0D
  8
DETAIL
  6
CONTINUOUS
 10
35.501
 20
28.918
 30
0.0
 40
0.0
 41
0.0
  0
VERTEX
  5
8B0E
  8
DETAIL
  6
CONTINUOUS
 10
35.525
 20
28.917
 30
0.0
 40
0.0
 41
0.0
  0
VERTEX
  5
8B0F
  8
DETAIL
  6
CONTINUOUS
 10
35.57
 20
28.905
 30
0.0
 40
0.0
 41
0.0
  0
VERTEX
  5
8B10
  8
DETAIL
  6
CONTINUOUS
 10
35.594
 20
28.865
 30
0.0
 40
0.0
 41
0.0
  0
SEQEND
  5
8B11
  8
DETAIL
  6
CONTINUOUS
  0
POLYLINE
  5
8B12
  8
DETAIL
  6
CONTINUOUS
 66
     1
 10
0.0
 20
0.0
 30
0.0
 70
     1
 40
0.047
 41
0.047
  0
VERTEX
  5
8B13
  8
DETAIL
  6
CONTINUOUS
 10
35.471
 20
28.543
 30
0.0
 40
0.0
 41
0.0
  0
VERTEX
  5
8B14
  8
DETAIL
  6
CONTINUOUS
 10
35.471
 20
28.929
 30
0.0
 40
0.0
 41
0.0
  0
VERTEX
  5
8B15
  8
DETAIL
  6
CONTINUOUS
 10
35.389
 20
28.929
 30
0.0
 40
0.0
 41
0.0
  0
VERTEX
  5
8B16
  8
DETAIL
  6
CONTINUOUS
 10
35.389
 20
28.543
 30
0.0
 40
0.0
 41
0.0
  0
SEQEND
  5
8B17
  8
DETAIL
  6
CONTINUOUS
  0
POLYLINE
  5
8B18
  8
DETAIL
  6
CONTINUOUS
 66
     1
 10
0.0
 20
0.0
 30
0.0
 40
0.047
 41
0.047
  0
VERTEX
  5
8B19
  8
DETAIL
  6
CONTINUOUS
 10
35.589
 20
28.724
 30
0.0
 40
0.0
 41
0.0
  0
VERTEX
  5
8B1A
  8
DETAIL
  6
CONTINUOUS
 10
35.561
 20
28.679
 30
0.0
 40
0.0
 41
0.0
  0
VERTEX
  5
8B1B
  8
DETAIL
  6
CONTINUOUS
 10
35.51
 20
28.662
 30
0.0
 40
0.0
 41
0.0
  0
VERTEX
  5
8B1C
  8
DETAIL
  6
CONTINUOUS
 10
35.483
 20
28.66
 30
0.0
 40
0.0
 41
0.0
  0
SEQEND
  5
8B1D
  8
DETAIL
  6
CONTINUOUS
  0
POLYLINE
  5
8B1E
  8
DETAIL
  6
CONTINUOUS
 66
     1
 10
0.0
 20
0.0
 30
0.0
 40
0.047
 41
0.047
  0
VERTEX
  5
8B1F
  8
DETAIL
  6
CONTINUOUS
 10
35.594
 20
28.613
 30
0.0
 40
0.0
 41
0.0
  0
VERTEX
  5
8B20
  8
DETAIL
  6
CONTINUOUS
 10
35.567
 20
28.567
 30
0.0
 40
0.0
 41
0.0
  0
VERTEX
  5
8B21
  8
DETAIL
  6
CONTINUOUS
 10
35.516
 20
28.551
 30
0.0
 40
0.0
 41
0.0
  0
VERTEX
  5
8B22
  8
DETAIL
  6
CONTINUOUS
 10
35.489
 20
28.549
 30
0.0
 40
0.0
 41
0.0
  0
SEQEND
  5
8B23
  8
DETAIL
  6
CONTINUOUS
  0
POLYLINE
  5
8B24
  8
DETAIL
  6
CONTINUOUS
 66
     1
 10
0.0
 20
0.0
 30
0.0
 40
0.047
 41
0.047
  0
VERTEX
  5
8B25
  8
DETAIL
  6
CONTINUOUS
 10
35.501
 20
28.666
 30
0.0
 40
0.0
 41
0.0
  0
VERTEX
  5
8B26
  8
DETAIL
  6
CONTINUOUS
 10
35.525
 20
28.665
 30
0.0
 40
0.0
 41
0.0
  0
VERTEX
  5
8B27
  8
DETAIL
  6
CONTINUOUS
 10
35.57
 20
28.653
 30
0.0
 40
0.0
 41
0.0
  0
VERTEX
  5
8B28
  8
DETAIL
  6
CONTINUOUS
 10
35.594
 20
28.613
 30
0.0
 40
0.0
 41
0.0
  0
SEQEND
  5
8B29
  8
DETAIL
  6
CONTINUOUS
  0
POLYLINE
  5
8B2A
  8
DETAIL
  6
CONTINUOUS
 66
     1
 10
0.0
 20
0.0
 30
0.0
 40
0.047
 41
0.047
  0
VERTEX
  5
8B2B
  8
DETAIL
  6
CONTINUOUS
 10
35.495
 20
28.777
 30
0.0
 40
0.0
 41
0.0
  0
VERTEX
  5
8B2C
  8
DETAIL
  6
CONTINUOUS
 10
35.519
 20
28.776
 30
0.0
 40
0.0
 41
0.0
  0
VERTEX
  5
8B2D
  8
DETAIL
  6
CONTINUOUS
 10
35.564
 20
28.764
 30
0.0
 40
0.0
 41
0.0
  0
VERTEX
  5
8B2E
  8
DETAIL
  6
CONTINUOUS
 10
35.589
 20
28.724
 30
0.0
 40
0.0
 41
0.0
  0
SEQEND
  5
8B2F
  8
DETAIL
  6
CONTINUOUS
  0
POLYLINE
  5
8B30
  8
DETAIL
  6
CONTINUOUS
 66
     1
 10
0.0
 20
0.0
 30
0.0
 40
0.047
 41
0.047
  0
VERTEX
  5
8B31
  8
DETAIL
  6
CONTINUOUS
 10
35.594
 20
28.865
 30
0.0
 40
0.0
 41
0.0
  0
VERTEX
  5
8B32
  8
DETAIL
  6
CONTINUOUS
 10
35.567
 20
28.819
 30
0.0
 40
0.0
 41
0.0
  0
VERTEX
  5
8B33
  8
DETAIL
  6
CONTINUOUS
 10
35.516
 20
28.803
 30
0.0
 40
0.0
 41
0.0
  0
VERTEX
  5
8B34
  8
DETAIL
  6
CONTINUOUS
 10
35.489
 20
28.8
 30
0.0
 40
0.0
 41
0.0
  0
SEQEND
  5
8B35
  8
DETAIL
  6
CONTINUOUS
  0
POLYLINE
  5
8B36
  8
DETAIL
  6
CONTINUOUS
 66
     1
 10
0.0
 20
0.0
 30
0.0
 40
0.047
 41
0.047
  0
VERTEX
  5
8B37
  8
DETAIL
  6
CONTINUOUS
 10
35.471
 20
29.268
 30
0.0
 40
0.0
 41
0.0
  0
VERTEX
  5
8B38
  8
DETAIL
  6
CONTINUOUS
 10
35.525
 20
29.274
 30
0.0
 40
0.0
 41
0.0
  0
VERTEX
  5
8B39
  8
DETAIL
  6
CONTINUOUS
 10
35.57
 20
29.262
 30
0.0
 40
0.0
 41
0.0
  0
VERTEX
  5
8B3A
  8
DETAIL
  6
CONTINUOUS
 10
35.594
 20
29.222
 30
0.0
 40
0.0
 41
0.0
  0
SEQEND
  5
8B3B
  8
DETAIL
  6
CONTINUOUS
  0
POLYLINE
  5
8B3C
  8
DETAIL
  6
CONTINUOUS
 66
     1
 10
0.0
 20
0.0
 30
0.0
 40
0.047
 41
0.047
  0
VERTEX
  5
8B3D
  8
DETAIL
  6
CONTINUOUS
 10
35.594
 20
29.222
 30
0.0
 40
0.0
 41
0.0
  0
VERTEX
  5
8B3E
  8
DETAIL
  6
CONTINUOUS
 10
35.567
 20
29.177
 30
0.0
 40
0.0
 41
0.0
  0
VERTEX
  5
8B3F
  8
DETAIL
  6
CONTINUOUS
 10
35.516
 20
29.16
 30
0.0
 40
0.0
 41
0.0
  0
VERTEX
  5
8B40
  8
DETAIL
  6
CONTINUOUS
 10
35.471
 20
29.156
 30
0.0
 40
0.0
 41
0.0
  0
SEQEND
  5
8B41
  8
DETAIL
  6
CONTINUOUS
  0
POLYLINE
  5
8B42
  8
DETAIL
  6
CONTINUOUS
 66
     1
 10
0.0
 20
0.0
 30
0.0
 40
0.023
 41
0.023
  0
VERTEX
  5
8B43
  8
DETAIL
  6
CONTINUOUS
 10
35.747
 20
28.754
 30
0.0
 40
0.0
 41
0.0
  0
VERTEX
  5
8B44
  8
DETAIL
  6
CONTINUOUS
 10
35.741
 20
28.677
 30
0.0
 40
0.0
 41
0.0
  0
SEQEND
  5
8B45
  8
DETAIL
  6
CONTINUOUS
  0
POLYLINE
  5
8B46
  8
DETAIL
  6
CONTINUOUS
 66
     1
 10
0.0
 20
0.0
 30
0.0
 40
0.023
 41
0.023
  0
VERTEX
  5
8B47
  8
DETAIL
  6
CONTINUOUS
 10
35.741
 20
28.677
 30
0.0
 40
0.0
 41
0.0
  0
VERTEX
  5
8B48
  8
DETAIL
  6
CONTINUOUS
 10
35.735
 20
28.653
 30
0.0
 40
0.0
 41
0.0
  0
VERTEX
  5
8B49
  8
DETAIL
  6
CONTINUOUS
 10
35.724
 20
28.644
 30
0.0
 40
0.0
 41
0.0
  0
VERTEX
  5
8B4A
  8
DETAIL
  6
CONTINUOUS
 10
35.718
 20
28.642
 30
0.0
 40
0.0
 41
0.0
  0
SEQEND
  5
8B4B
  8
DETAIL
  6
CONTINUOUS
  0
POLYLINE
  5
8B4C
  8
DETAIL
  6
CONTINUOUS
 66
     1
 10
0.0
 20
0.0
 30
0.0
 40
0.023
 41
0.023
  0
VERTEX
  5
8B4D
  8
DETAIL
  6
CONTINUOUS
 10
35.7
 20
28.8
 30
0.0
 40
0.0
 41
0.0
  0
VERTEX
  5
8B4E
  8
DETAIL
  6
CONTINUOUS
 10
35.711
 20
28.799
 30
0.0
 40
0.0
 41
0.0
  0
VERTEX
  5
8B4F
  8
DETAIL
  6
CONTINUOUS
 10
35.732
 20
28.787
 30
0.0
 40
0.0
 41
0.0
  0
VERTEX
  5
8B50
  8
DETAIL
  6
CONTINUOUS
 10
35.747
 20
28.754
 30
0.0
 40
0.0
 41
0.0
  0
SEQEND
  5
8B51
  8
DETAIL
  6
CONTINUOUS
  0
POLYLINE
  5
8B52
  8
DETAIL
  6
CONTINUOUS
 66
     1
 10
0.0
 20
0.0
 30
0.0
 40
0.023
 41
0.023
  0
VERTEX
  5
8B53
  8
DETAIL
  6
CONTINUOUS
 10
35.718
 20
29.504
 30
0.0
 40
0.0
 41
0.0
  0
VERTEX
  5
8B54
  8
DETAIL
  6
CONTINUOUS
 10
35.589
 20
29.504
 30
0.0
 40
0.0
 41
0.0
  0
SEQEND
  5
8B55
  8
DETAIL
  6
CONTINUOUS
  0
POLYLINE
  5
8B56
  8
DETAIL
  6
CONTINUOUS
 66
     1
 10
0.0
 20
0.0
 30
0.0
 40
0.023
 41
0.023
  0
VERTEX
  5
8B57
  8
DETAIL
  6
CONTINUOUS
 10
35.589
 20
29.662
 30
0.0
 40
0.0
 41
0.0
  0
VERTEX
  5
8B58
  8
DETAIL
  6
CONTINUOUS
 10
35.7
 20
29.662
 30
0.0
 40
0.0
 41
0.0
  0
SEQEND
  5
8B59
  8
DETAIL
  6
CONTINUOUS
  0
POLYLINE
  5
8B5A
  8
DETAIL
  6
CONTINUOUS
 66
     1
 10
0.0
 20
0.0
 30
0.0
 40
0.023
 41
0.023
  0
VERTEX
  5
8B5B
  8
DETAIL
  6
CONTINUOUS
 10
35.589
 20
29.41
 30
0.0
 40
0.0
 41
0.0
  0
VERTEX
  5
8B5C
  8
DETAIL
  6
CONTINUOUS
 10
35.7
 20
29.41
 30
0.0
 40
0.0
 41
0.0
  0
SEQEND
  5
8B5D
  8
DETAIL
  6
CONTINUOUS
  0
POLYLINE
  5
8B5E
  8
DETAIL
  6
CONTINUOUS
 66
     1
 10
0.0
 20
0.0
 30
0.0
 40
0.047
 41
0.047
  0
VERTEX
  5
8B5F
  8
DETAIL
  6
CONTINUOUS
 10
35.594
 20
29.726
 30
0.0
 40
0.0
 41
0.0
  0
VERTEX
  5
8B60
  8
DETAIL
  6
CONTINUOUS
 10
35.567
 20
29.681
 30
0.0
 40
0.0
 41
0.0
  0
VERTEX
  5
8B61
  8
DETAIL
  6
CONTINUOUS
 10
35.516
 20
29.664
 30
0.0
 40
0.0
 41
0.0
  0
VERTEX
  5
8B62
  8
DETAIL
  6
CONTINUOUS
 10
35.471
 20
29.66
 30
0.0
 40
0.0
 41
0.0
  0
SEQEND
  5
8B63
  8
DETAIL
  6
CONTINUOUS
  0
POLYLINE
  5
8B64
  8
DETAIL
  6
CONTINUOUS
 66
     1
 10
0.0
 20
0.0
 30
0.0
 70
     1
 40
0.047
 41
0.047
  0
VERTEX
  5
8B65
  8
DETAIL
  6
CONTINUOUS
 10
35.471
 20
29.404
 30
0.0
 40
0.0
 41
0.0
  0
VERTEX
  5
8B66
  8
DETAIL
  6
CONTINUOUS
 10
35.471
 20
29.791
 30
0.0
 40
0.0
 41
0.0
  0
VERTEX
  5
8B67
  8
DETAIL
  6
CONTINUOUS
 10
35.389
 20
29.791
 30
0.0
 40
0.0
 41
0.0
  0
VERTEX
  5
8B68
  8
DETAIL
  6
CONTINUOUS
 10
35.389
 20
29.404
 30
0.0
 40
0.0
 41
0.0
  0
SEQEND
  5
8B69
  8
DETAIL
  6
CONTINUOUS
  0
POLYLINE
  5
8B6A
  8
DETAIL
  6
CONTINUOUS
 66
     1
 10
0.0
 20
0.0
 30
0.0
 40
0.047
 41
0.047
  0
VERTEX
  5
8B6B
  8
DETAIL
  6
CONTINUOUS
 10
35.594
 20
29.474
 30
0.0
 40
0.0
 41
0.0
  0
VERTEX
  5
8B6C
  8
DETAIL
  6
CONTINUOUS
 10
35.567
 20
29.429
 30
0.0
 40
0.0
 41
0.0
  0
VERTEX
  5
8B6D
  8
DETAIL
  6
CONTINUOUS
 10
35.516
 20
29.412
 30
0.0
 40
0.0
 41
0.0
  0
VERTEX
  5
8B6E
  8
DETAIL
  6
CONTINUOUS
 10
35.489
 20
29.41
 30
0.0
 40
0.0
 41
0.0
  0
SEQEND
  5
8B6F
  8
DETAIL
  6
CONTINUOUS
  0
POLYLINE
  5
8B70
  8
DETAIL
  6
CONTINUOUS
 66
     1
 10
0.0
 20
0.0
 30
0.0
 40
0.047
 41
0.047
  0
VERTEX
  5
8B71
  8
DETAIL
  6
CONTINUOUS
 10
35.594
 20
29.474
 30
0.0
 40
0.0
 41
0.0
  0
VERTEX
  5
8B72
  8
DETAIL
  6
CONTINUOUS
 10
35.567
 20
29.429
 30
0.0
 40
0.0
 41
0.0
  0
VERTEX
  5
8B73
  8
DETAIL
  6
CONTINUOUS
 10
35.516
 20
29.412
 30
0.0
 40
0.0
 41
0.0
  0
VERTEX
  5
8B74
  8
DETAIL
  6
CONTINUOUS
 10
35.471
 20
29.408
 30
0.0
 40
0.0
 41
0.0
  0
SEQEND
  5
8B75
  8
DETAIL
  6
CONTINUOUS
  0
POLYLINE
  5
8B76
  8
DETAIL
  6
CONTINUOUS
 66
     1
 10
0.0
 20
0.0
 30
0.0
 40
0.047
 41
0.047
  0
VERTEX
  5
8B77
  8
DETAIL
  6
CONTINUOUS
 10
35.471
 20
29.387
 30
0.0
 40
0.0
 41
0.0
  0
VERTEX
  5
8B78
  8
DETAIL
  6
CONTINUOUS
 10
35.519
 20
29.386
 30
0.0
 40
0.0
 41
0.0
  0
VERTEX
  5
8B79
  8
DETAIL
  6
CONTINUOUS
 10
35.564
 20
29.373
 30
0.0
 40
0.0
 41
0.0
  0
VERTEX
  5
8B7A
  8
DETAIL
  6
CONTINUOUS
 10
35.589
 20
29.334
 30
0.0
 40
0.0
 41
0.0
  0
SEQEND
  5
8B7B
  8
DETAIL
  6
CONTINUOUS
  0
POLYLINE
  5
8B7C
  8
DETAIL
  6
CONTINUOUS
 66
     1
 10
0.0
 20
0.0
 30
0.0
 40
0.047
 41
0.047
  0
VERTEX
  5
8B7D
  8
DETAIL
  6
CONTINUOUS
 10
35.501
 20
29.527
 30
0.0
 40
0.0
 41
0.0
  0
VERTEX
  5
8B7E
  8
DETAIL
  6
CONTINUOUS
 10
35.525
 20
29.526
 30
0.0
 40
0.0
 41
0.0
  0
VERTEX
  5
8B7F
  8
DETAIL
  6
CONTINUOUS
 10
35.57
 20
29.514
 30
0.0
 40
0.0
 41
0.0
  0
VERTEX
  5
8B80
  8
DETAIL
  6
CONTINUOUS
 10
35.594
 20
29.474
 30
0.0
 40
0.0
 41
0.0
  0
SEQEND
  5
8B81
  8
DETAIL
  6
CONTINUOUS
  0
POLYLINE
  5
8B82
  8
DETAIL
  6
CONTINUOUS
 66
     1
 10
0.0
 20
0.0
 30
0.0
 40
0.047
 41
0.047
  0
VERTEX
  5
8B83
  8
DETAIL
  6
CONTINUOUS
 10
35.471
 20
29.528
 30
0.0
 40
0.0
 41
0.0
  0
VERTEX
  5
8B84
  8
DETAIL
  6
CONTINUOUS
 10
35.525
 20
29.526
 30
0.0
 40
0.0
 41
0.0
  0
VERTEX
  5
8B85
  8
DETAIL
  6
CONTINUOUS
 10
35.57
 20
29.514
 30
0.0
 40
0.0
 41
0.0
  0
VERTEX
  5
8B86
  8
DETAIL
  6
CONTINUOUS
 10
35.594
 20
29.474
 30
0.0
 40
0.0
 41
0.0
  0
SEQEND
  5
8B87
  8
DETAIL
  6
CONTINUOUS
  0
POLYLINE
  5
8B88
  8
DETAIL
  6
CONTINUOUS
 66
     1
 10
0.0
 20
0.0
 30
0.0
 40
0.047
 41
0.047
  0
VERTEX
  5
8B89
  8
DETAIL
  6
CONTINUOUS
 10
35.589
 20
29.586
 30
0.0
 40
0.0
 41
0.0
  0
VERTEX
  5
8B8A
  8
DETAIL
  6
CONTINUOUS
 10
35.561
 20
29.54
 30
0.0
 40
0.0
 41
0.0
  0
VERTEX
  5
8B8B
  8
DETAIL
  6
CONTINUOUS
 10
35.525
 20
29.526
 30
0.0
 40
0.0
 41
0.0
  0
VERTEX
  5
8B8C
  8
DETAIL
  6
CONTINUOUS
 10
35.471
 20
29.528
 30
0.0
 40
0.0
 41
0.0
  0
SEQEND
  5
8B8D
  8
DETAIL
  6
CONTINUOUS
  0
POLYLINE
  5
8B8E
  8
DETAIL
  6
CONTINUOUS
 66
     1
 10
0.0
 20
0.0
 30
0.0
 40
0.047
 41
0.047
  0
VERTEX
  5
8B8F
  8
DETAIL
  6
CONTINUOUS
 10
35.471
 20
29.639
 30
0.0
 40
0.0
 41
0.0
  0
VERTEX
  5
8B90
  8
DETAIL
  6
CONTINUOUS
 10
35.519
 20
29.638
 30
0.0
 40
0.0
 41
0.0
  0
VERTEX
  5
8B91
  8
DETAIL
  6
CONTINUOUS
 10
35.564
 20
29.625
 30
0.0
 40
0.0
 41
0.0
  0
VERTEX
  5
8B92
  8
DETAIL
  6
CONTINUOUS
 10
35.589
 20
29.586
 30
0.0
 40
0.0
 41
0.0
  0
SEQEND
  5
8B93
  8
DETAIL
  6
CONTINUOUS
  0
POLYLINE
  5
8B94
  8
DETAIL
  6
CONTINUOUS
 66
     1
 10
0.0
 20
0.0
 30
0.0
 40
0.047
 41
0.047
  0
VERTEX
  5
8B95
  8
DETAIL
  6
CONTINUOUS
 10
35.471
 20
29.78
 30
0.0
 40
0.0
 41
0.0
  0
VERTEX
  5
8B96
  8
DETAIL
  6
CONTINUOUS
 10
35.525
 20
29.778
 30
0.0
 40
0.0
 41
0.0
  0
VERTEX
  5
8B97
  8
DETAIL
  6
CONTINUOUS
 10
35.57
 20
29.766
 30
0.0
 40
0.0
 41
0.0
  0
VERTEX
  5
8B98
  8
DETAIL
  6
CONTINUOUS
 10
35.594
 20
29.726
 30
0.0
 40
0.0
 41
0.0
  0
SEQEND
  5
8B99
  8
DETAIL
  6
CONTINUOUS
  0
POLYLINE
  5
8B9A
  8
DETAIL
  6
CONTINUOUS
 66
     1
 10
0.0
 20
0.0
 30
0.0
 40
0.023
 41
0.023
  0
VERTEX
  5
8B9B
  8
DETAIL
  6
CONTINUOUS
 10
35.747
 20
29.363
 30
0.0
 40
0.0
 41
0.0
  0
VERTEX
  5
8B9C
  8
DETAIL
  6
CONTINUOUS
 10
35.741
 20
29.287
 30
0.0
 40
0.0
 41
0.0
  0
SEQEND
  5
8B9D
  8
DETAIL
  6
CONTINUOUS
  0
POLYLINE
  5
8B9E
  8
DETAIL
  6
CONTINUOUS
 66
     1
 10
0.0
 20
0.0
 30
0.0
 40
0.023
 41
0.023
  0
VERTEX
  5
8B9F
  8
DETAIL
  6
CONTINUOUS
 10
35.7
 20
29.41
 30
0.0
 40
0.0
 41
0.0
  0
VERTEX
  5
8BA0
  8
DETAIL
  6
CONTINUOUS
 10
35.711
 20
29.408
 30
0.0
 40
0.0
 41
0.0
  0
VERTEX
  5
8BA1
  8
DETAIL
  6
CONTINUOUS
 10
35.732
 20
29.396
 30
0.0
 40
0.0
 41
0.0
  0
VERTEX
  5
8BA2
  8
DETAIL
  6
CONTINUOUS
 10
35.747
 20
29.363
 30
0.0
 40
0.0
 41
0.0
  0
SEQEND
  5
8BA3
  8
DETAIL
  6
CONTINUOUS
  0
POLYLINE
  5
8BA4
  8
DETAIL
  6
CONTINUOUS
 66
     1
 10
0.0
 20
0.0
 30
0.0
 40
0.023
 41
0.023
  0
VERTEX
  5
8BA5
  8
DETAIL
  6
CONTINUOUS
 10
35.7
 20
29.662
 30
0.0
 40
0.0
 41
0.0
  0
VERTEX
  5
8BA6
  8
DETAIL
  6
CONTINUOUS
 10
35.711
 20
29.66
 30
0.0
 40
0.0
 41
0.0
  0
VERTEX
  5
8BA7
  8
DETAIL
  6
CONTINUOUS
 10
35.732
 20
29.648
 30
0.0
 40
0.0
 41
0.0
  0
VERTEX
  5
8BA8
  8
DETAIL
  6
CONTINUOUS
 10
35.747
 20
29.615
 30
0.0
 40
0.0
 41
0.0
  0
SEQEND
  5
8BA9
  8
DETAIL
  6
CONTINUOUS
  0
POLYLINE
  5
8BAA
  8
DETAIL
  6
CONTINUOUS
 66
     1
 10
0.0
 20
0.0
 30
0.0
 40
0.023
 41
0.023
  0
VERTEX
  5
8BAB
  8
DETAIL
  6
CONTINUOUS
 10
35.741
 20
29.539
 30
0.0
 40
0.0
 41
0.0
  0
VERTEX
  5
8BAC
  8
DETAIL
  6
CONTINUOUS
 10
35.735
 20
29.514
 30
0.0
 40
0.0
 41
0.0
  0
VERTEX
  5
8BAD
  8
DETAIL
  6
CONTINUOUS
 10
35.724
 20
29.505
 30
0.0
 40
0.0
 41
0.0
  0
VERTEX
  5
8BAE
  8
DETAIL
  6
CONTINUOUS
 10
35.718
 20
29.504
 30
0.0
 40
0.0
 41
0.0
  0
SEQEND
  5
8BAF
  8
DETAIL
  6
CONTINUOUS
  0
POLYLINE
  5
8BB0
  8
DETAIL
  6
CONTINUOUS
 66
     1
 10
0.0
 20
0.0
 30
0.0
 40
0.023
 41
0.023
  0
VERTEX
  5
8BB1
  8
DETAIL
  6
CONTINUOUS
 10
35.747
 20
29.615
 30
0.0
 40
0.0
 41
0.0
  0
VERTEX
  5
8BB2
  8
DETAIL
  6
CONTINUOUS
 10
35.741
 20
29.539
 30
0.0
 40
0.0
 41
0.0
  0
SEQEND
  5
8BB3
  8
DETAIL
  6
CONTINUOUS
  0
CIRCLE
  5
8BB4
  8
DETAIL
  6
CONTINUOUS
 10
39.622
 20
27.004
 30
0.0
 40
0.449
  0
CIRCLE
  5
8BB5
  8
DETAIL
  6
CONTINUOUS
 10
39.622
 20
27.004
 30
0.0
 40
0.32
  0
CIRCLE
  5
8BB7
  8
DETAIL
  6
CONTINUOUS
 10
8.821
 20
25.004
 30
0.0
 40
0.125
  0
CIRCLE
  5
8BB8
  8
DETAIL
  6
CONTINUOUS
 10
25.821
 20
25.004
 30
0.0
 40
0.125
  0
LINE
  5
8BB9
  8
DETAIL
  6
CENTER2
 10
42.748
 20
28.004
 30
0.0
 11
43.795
 21
28.004
 31
0.0
  0
LINE
  5
8BBA
  8
DETAIL
  6
CENTER2
 10
42.748
 20
25.004
 30
0.0
 11
43.795
 21
25.004
 31
0.0
  0
LINE
  5
8BBB
  8
DETAIL
  6
CENTER2
 10
25.071
 20
28.004
 30
0.0
 11
26.571
 21
28.004
 31
0.0
  0
LINE
  5
8BBC
  8
DETAIL
  6
CENTER2
 10
25.071
 20
25.004
 30
0.0
 11
26.571
 21
25.004
 31
0.0
  0
DIMENSION
  5
8BCA
  8
DIM
  6
CONTINUOUS
  2
*D2
 10
43.295
 20
32.184
 30
0.0
 11
39.295
 21
32.218
 31
0.0
 12
-1.924
 22
-9.109
 32
0.0
 70
   128
  1
8"\P[205mm]
 13
35.295
 23
29.879
 33
0.0
 14
43.295
 24
29.879
 34
0.0
  0
DIMENSION
  5
8BF0
  8
DIM
  6
CONTINUOUS
  2
*D3
 10
4.571
 20
31.819
 30
0.0
 11
3.446
 21
31.819
 31
0.0
 12
-1.924
 22
-9.109
 32
0.0
 70
   128
  1
2-1/4"\P[55mm]
 13
2.321
 23
29.879
 33
0.0
 14
4.571
 24
31.081
 34
0.0
  0
DIMENSION
  5
8C76
  8
DIM
  6
CONTINUOUS
  2
*D4
 10
17.321
 20
31.819
 30
0.0
 11
10.946
 21
31.819
 31
0.0
 12
-1.924
 22
-9.109
 32
0.0
 70
   128
  1
X\POverall Length
 13
4.571
 23
31.081
 33
0.0
 14
17.321
 24
30.595
 34
0.0
  0
DIMENSION
  5
8C84
  8
DIM
  6
CONTINUOUS
  2
*D5
 10
0.869
 20
28.504
 30
0.0
 11
0.869
 21
29.254
 31
0.0
 12
-1.924
 22
-9.109
 32
0.0
 70
     0
  1
1-1/2"\P[40mm]
 13
2.446
 23
30.004
 33
0.0
 14
2.446
 24
28.504
 34
0.0
 50
90.0
  0
DIMENSION
  5
8C93
  8
DIM
  6
CONTINUOUS
  2
*D6
 10
8.821
 20
22.222
 30
0.0
 11
5.571
 21
22.275
 31
0.0
 70
   128
  1
A
 13
2.321
 23
28.629
 33
0.0
 14
8.821
 24
23.062
 34
0.0
  0
DIMENSION
  5
8CA1
  8
DIM
  6
CONTINUOUS
  2
*D7
 10
25.821
 20
22.222
 30
0.0
 11
17.321
 21
22.235
 31
0.0
 70
   128
  1
B
 13
8.821
 23
23.062
 33
0.0
 14
25.821
 24
23.037
 34
0.0
  0
DIMENSION
  5
8CAF
  8
DIM
  6
CONTINUOUS
  2
*D8
 10
45.195
 20
28.004
 30
0.0
 11
45.195
 21
29.004
 31
0.0
 70
     0
  1
2"\P[50mm]
 13
43.17
 23
30.004
 33
0.0
 14
44.023
 24
28.004
 34
0.0
 50
90.0
  0
DIMENSION
  5
8CC9
  8
DIM
  6
CONTINUOUS
  2
*D9
 10
45.195
 20
25.004
 30
0.0
 11
45.195
 21
26.504
 31
0.0
 70
     0
  1
3"\P[75mm]
 13
44.023
 23
28.004
 33
0.0
 14
44.017
 24
25.004
 34
0.0
 50
90.0
  0
DIMENSION
  5
8CD7
  8
DIM
  6
CONTINUOUS
  2
*D10
 10
47.434
 20
24.004
 30
0.0
 11
47.434
 21
27.004
 31
0.0
 12
-1.924
 22
-9.109
 32
0.0
 70
     0
  1
6"\P[150mm]
 13
43.17
 23
30.004
 33
0.0
 14
43.295
 24
24.004
 34
0.0
 50
90.0
  0
POLYLINE
  8
0
  5
917D
  66
     1
 10
0.000000
 20
0.000000
 30
0.000000
  70
     8
  0
VERTEX
  8
0
  5
917E
 10
16.4870
 20
26.8720
 30
0.000000
  70
    32
  0
VERTEX
  8
0
  5
917F
 10
17.9960
 20
25.5050
 30
0.000000
  70
    32
  0
VERTEX
  8
0
  5
9180
 10
18.3870
 20
25.5050
 30
0.000000
  70
    32
  0
SEQEND
  8
0
  5
9181
  0
POLYLINE
  8
0
  5
9182
  66
     1
 10
0.000000
 20
0.000000
 30
0.000000
  70
     8
  0
VERTEX
  8
0
  5
9183
 10
19.6820
 20
29.7460
 30
0.000000
  70
    32
  0
VERTEX
  8
0
  5
9184
 10
21.1560
 20
31.0410
 30
0.000000
  70
    32
  0
VERTEX
  8
0
  5
9185
 10
21.7590
 20
31.0410
 30
0.000000
  70
    32
  0
SEQEND
  8
0
  5
9186
  0
POLYLINE
  8
0
  5
9187
  66
     1
 10
0.000000
 20
0.000000
 30
0.000000
  70
     8
  0
VERTEX
  8
0
  5
9188
 10
26.0730
 20
28.3800
 30
0.000000
  70
    32
  0
VERTEX
  8
0
  5
9189
 10
27.2260
 20
31.0410
 30
0.000000
  70
    32
  0
VERTEX
  8
0
  5
918A
 10
27.8120
 20
31.0410
 30
0.000000
  70
    32
  0
SEQEND
  8
0
  5
918B
  0
POLYLINE
  8
0
  5
918C
  66
     1
 10
0.000000
 20
0.000000
 30
0.000000
  70
     8
  0
VERTEX
  8
0
  5
918D
 10
29.3560
 20
28.8230
 30
0.000000
  70
    32
  0
VERTEX
  8
0
  5
918E
 10
29.3560
 20
25.7180
 30
0.000000
  70
    32
  0
VERTEX
  8
0
  5
918F
 10
30.1370
 20
25.7180
 30
0.000000
  70
    32
  0
SEQEND
  8
0
  5
9190
  0
LINE
  5
8DA4
  8
DETAIL
  6
CENTER2
 10
39.622
 20
27.703
 30
0.0
 11
39.622
 21
26.304
 31
0.0
  0
LINE
  5
8DA5
  8
DETAIL
  6
CENTER2
 10
38.923
 20
27.004
 30
0.0
 11
40.321
 21
27.004
 31
0.0
  0
TEXT
  5
8DB3
  8
DIM
  6
CONTINUOUS
 10
8.735
 20
22.913
 30
0.0
 40
0.25
  1
S
  7
DIM_S_5
  0
TEXT
  5
8DCC
  8
DIM
  6
CONTINUOUS
 10
25.735
 20
22.913
 30
0.0
 40
0.25
  1
S
  7
DIM_S_5
  0
TEXT
  5
8DD9
  8
DIM
  6
CONTINUOUS
 10
43.914
 20
27.876
 30
0.0
 40
0.25
  1
S
  7
DIM_S_5
  0
TEXT
  5
8DFE
  8
DIM
  6
CONTINUOUS
 10
43.914
 20
24.887
 30
0.0
 40
0.25
  1
S
  7
DIM_S_5
  0
TEXT
  5
8DFF
  8
DIM
  6
CONTINUOUS
 10
18.347
 20
17.174
 30
0.0
 40
0.188
  1
Holders
  7
DIM_S_5
  0
TEXT
  5
8E0B
  8
DIM
  6
CONTINUOUS
 10
13.23
 20
15.954
 30
0.0
 40
0.188
  1
B-224 x 36     36"[914mm]       4        10-1/2"[267mm]        3        6-1/2"[165mm]        23"[584mm]
  7
DIM_S_5
  0
TEXT
  5
8E0C
  8
DIM
  6
CONTINUOUS
 10
13.23
 20
15.586
 30
0.0
 40
0.188
  1
B-224 x 48     48"[1219mm]      6         8-3/4"[222mm]        5        6-1/2"[165mm]        35"[889mm]
  7
DIM_S_5
  0
LINE
  5
8E0D
  8
DIM
  6
CONTINUOUS
 10
31.924
 20
18.234
 30
0.0
 11
31.924
 21
15.244
 31
0.0
  0
INSERT
  5
2840
 67
     1
  8
BORDER
  6
CONTINUOUS
  2
ADCADD_ZZ
 10
0.0
 20
0.0
 30
0.0
1001
ADCADD_ZZ
1070
   205
1070
     2
1070
   209
1070
     1
1070
   231
1070
     0
1070
   235
1070
     1
1070
   236
1070
     2
1070
   237
1070
     4
1070
   238
1070
     4
1070
   239
1070
     2
1070
   240
1070
     0
1070
   241
1070
  4096
1070
   242
1070
     2
1070
   244
1070
     0
1070
   245
1070
     1
1070
   303
1040
1.0
1070
   304
1040
4.0
1070
   305
1040
40.0
1070
   306
1040
0.125
1070
   337
1040
0.0
1070
   338
1040
0.305
1070
   339
1040
0.063
1070
   340
1040
40.0
1070
   341
1040
4.0
1070
   342
1040
40.0
1070
   530
1010
0.0
1020
0.0
1030
0.0
1070
   531
1010
0.0
1020
0.0
1030
0.0
1070
   107
1000

1070
   108
1000

1070
   135
1000
STANDARD
1070
   136
1000
'
1070
   137
1000
m
1001
SDSK_PMN
1070
   100
1000
ACADARCH
1070
   300
1040
2451521.989
  0
VIEWPORT
  5
2847
 67
     1
  8
0
  6
CONTINUOUS
 10
6.563
 20
5.5
 30
0.0
 40
17.687
 41
11.708
 68
    -1
 69
     1
1001
ACAD
1000
MVIEW
1002
{
1070
    16
1010
0.0
1020
0.0
1030
0.0
1010
0.0
1020
0.0
1030
1.0
1040
0.0
1040
11.708
1040
6.563
1040
5.5
1040
50.0
1040
0.0
1040
0.0
1070
     0
1070
  5000
1070
     1
1070
     1
1070
     0
1070
     0
1070
     0
1070
     0
1040
0.0
1040
0.0
1040
0.0
1040
1.0
1040
1.0
1040
0.0
1040
0.0
1070
     0
1002
{
1002
}
1002
}
  0
ENDSEC
  0
EOF
