  0
SECTION
  2
HEADER
  9
$ACADVER
  1
AC1015
  9
$ACADMAINTVER
 70
    20
  9
$DWGCODEPAGE
  3
ANSI_1252
  9
$INSBASE
 10
0.0
 20
0.0
 30
0.0
  9
$EXTMIN
 10
-1.21702850857342
 20
-1.471569588042328
 30
-0.0000000000112498
  9
$EXTMAX
 10
1.578885834277804
 20
0.4707671847670519
 30
0.0000000000002956
  9
$LIMMIN
 10
0.0
 20
0.0
  9
$LIMMAX
 10
0.0
 20
0.0
  9
$ORTHOMODE
 70
     1
  9
$REGENMODE
 70
     1
  9
$FILLMODE
 70
     1
  9
$QTEXTMODE
 70
     0
  9
$MIRRTEXT
 70
     1
  9
$LTSCALE
 40
0.2
  9
$ATTMODE
 70
     1
  9
$TEXTSIZE
 40
0.1
  9
$TRACEWID
 40
1.0
  9
$TEXTSTYLE
  7
SWTSTEXT
  9
$CLAYER
  8
0
  9
$CELTYPE
  6
CONTINUOUS
  9
$CECOLOR
 62
   256
  9
$CELTSCALE
 40
1.0
  9
$DISPSILH
 70
     0
  9
$DIMSCALE
 40
1.0
  9
$DIMASZ
 40
0.125
  9
$DIMEXO
 40
0.0625
  9
$DIMDLI
 40
0.38
  9
$DIMRND
 40
0.0
  9
$DIMDLE
 40
0.0
  9
$DIMEXE
 40
0.125
  9
$DIMTP
 40
0.0
  9
$DIMTM
 40
0.0
  9
$DIMTXT
 40
0.125
  9
$DIMCEN
 40
0.04
  9
$DIMTSZ
 40
0.0
  9
$DIMTOL
 70
     0
  9
$DIMLIM
 70
     0
  9
$DIMTIH
 70
     1
  9
$DIMTOH
 70
     1
  9
$DIMSE1
 70
     0
  9
$DIMSE2
 70
     0
  9
$DIMTAD
 70
     0
  9
$DIMZIN
 70
     0
  9
$DIMBLK
  1

  9
$DIMASO
 70
     1
  9
$DIMSHO
 70
     1
  9
$DIMPOST
  1

  9
$DIMAPOST
  1

  9
$DIMALT
 70
     0
  9
$DIMALTD
 70
     2
  9
$DIMALTF
 40
25.4
  9
$DIMLFAC
 40
1.0
  9
$DIMTOFL
 70
     0
  9
$DIMTVP
 40
0.0
  9
$DIMTIX
 70
     1
  9
$DIMSOXD
 70
     0
  9
$DIMSAH
 70
     0
  9
$DIMBLK1
  1

  9
$DIMBLK2
  1

  9
$DIMSTYLE
  2
SCADMECH
  9
$DIMCLRD
 70
     0
  9
$DIMCLRE
 70
     0
  9
$DIMCLRT
 70
     0
  9
$DIMTFAC
 40
1.0
  9
$DIMGAP
 40
0.09
  9
$DIMJUST
 70
     0
  9
$DIMSD1
 70
     0
  9
$DIMSD2
 70
     0
  9
$DIMTOLJ
 70
     1
  9
$DIMTZIN
 70
     0
  9
$DIMALTZ
 70
     0
  9
$DIMALTTZ
 70
     0
  9
$DIMUPT
 70
     0
  9
$DIMDEC
 70
     6
  9
$DIMTDEC
 70
     6
  9
$DIMALTU
 70
     2
  9
$DIMALTTD
 70
     2
  9
$DIMTXSTY
  7
SWTSTEXT
  9
$DIMAUNIT
 70
     0
  9
$DIMADEC
 70
     0
  9
$DIMALTRND
 40
0.0
  9
$DIMAZIN
 70
     0
  9
$DIMDSEP
 70
    46
  9
$DIMATFIT
 70
     1
  9
$DIMFRAC
 70
     0
  9
$DIMLDRBLK
  1

  9
$DIMLUNIT
 70
     5
  9
$DIMLWD
 70
    -2
  9
$DIMLWE
 70
    -2
  9
$DIMTMOVE
 70
     0
  9
$LUNITS
 70
     2
  9
$LUPREC
 70
     4
  9
$SKETCHINC
 40
0.1
  9
$FILLETRAD
 40
0.0
  9
$AUNITS
 70
     0
  9
$AUPREC
 70
     0
  9
$MENU
  1
acad
  9
$ELEVATION
 40
0.0
  9
$PELEVATION
 40
0.0
  9
$THICKNESS
 40
0.0
  9
$LIMCHECK
 70
     0
  9
$CHAMFERA
 40
0.0
  9
$CHAMFERB
 40
0.0
  9
$CHAMFERC
 40
0.0
  9
$CHAMFERD
 40
0.0
  9
$SKPOLY
 70
     0
  9
$TDCREATE
 40
2452254.701789086
  9
$TDUCREATE
 40
2452254.910122419
  9
$TDUPDATE
 40
2454664.453794873
  9
$TDUUPDATE
 40
2454664.662128206
  9
$TDINDWG
 40
0.1246171528
  9
$TDUSRTIMER
 40
0.1246171528
  9
$USRTIMER
 70
     1
  9
$ANGBASE
 50
0.0
  9
$ANGDIR
 70
     0
  9
$PDMODE
 70
     1
  9
$PDSIZE
 40
-2.0
  9
$PLINEWID
 40
0.0
  9
$SPLFRAME
 70
     0
  9
$SPLINETYPE
 70
     6
  9
$SPLINESEGS
 70
     8
  9
$HANDSEED
  5
685
  9
$SURFTAB1
 70
     6
  9
$SURFTAB2
 70
     6
  9
$SURFTYPE
 70
     6
  9
$SURFU
 70
     6
  9
$SURFV
 70
     6
  9
$UCSBASE
  2

  9
$UCSNAME
  2

  9
$UCSORG
 10
0.0
 20
0.0
 30
0.0
  9
$UCSXDIR
 10
1.0
 20
0.0
 30
0.0
  9
$UCSYDIR
 10
0.0
 20
1.0
 30
0.0
  9
$UCSORTHOREF
  2

  9
$UCSORTHOVIEW
 70
     0
  9
$UCSORGTOP
 10
0.0
 20
0.0
 30
0.0
  9
$UCSORGBOTTOM
 10
0.0
 20
0.0
 30
0.0
  9
$UCSORGLEFT
 10
0.0
 20
0.0
 30
0.0
  9
$UCSORGRIGHT
 10
0.0
 20
0.0
 30
0.0
  9
$UCSORGFRONT
 10
0.0
 20
0.0
 30
0.0
  9
$UCSORGBACK
 10
0.0
 20
0.0
 30
0.0
  9
$PUCSBASE
  2

  9
$PUCSNAME
  2

  9
$PUCSORG
 10
0.0
 20
0.0
 30
0.0
  9
$PUCSXDIR
 10
1.0
 20
0.0
 30
0.0
  9
$PUCSYDIR
 10
0.0
 20
1.0
 30
0.0
  9
$PUCSORTHOREF
  2

  9
$PUCSORTHOVIEW
 70
     0
  9
$PUCSORGTOP
 10
0.0
 20
0.0
 30
0.0
  9
$PUCSORGBOTTOM
 10
0.0
 20
0.0
 30
0.0
  9
$PUCSORGLEFT
 10
0.0
 20
0.0
 30
0.0
  9
$PUCSORGRIGHT
 10
0.0
 20
0.0
 30
0.0
  9
$PUCSORGFRONT
 10
0.0
 20
0.0
 30
0.0
  9
$PUCSORGBACK
 10
0.0
 20
0.0
 30
0.0
  9
$USERI1
 70
     0
  9
$USERI2
 70
     0
  9
$USERI3
 70
     0
  9
$USERI4
 70
     0
  9
$USERI5
 70
     0
  9
$USERR1
 40
0.0
  9
$USERR2
 40
0.0
  9
$USERR3
 40
0.0
  9
$USERR4
 40
0.0
  9
$USERR5
 40
0.0
  9
$WORLDVIEW
 70
     1
  9
$SHADEDGE
 70
     3
  9
$SHADEDIF
 70
    70
  9
$TILEMODE
 70
     1
  9
$MAXACTVP
 70
    16
  9
$PINSBASE
 10
0.0
 20
0.0
 30
0.0
  9
$PLIMCHECK
 70
     0
  9
$PEXTMIN
 10
1.07500002421732
 20
0.8249999641433474
 30
0.0
  9
$PEXTMAX
 10
9.675000217955881
 20
7.424999677290128
 30
0.0
  9
$PLIMMIN
 10
-0.1249995194082185
 20
-0.1249999981226883
  9
$PLIMMAX
 10
10.87500024029589
 20
8.37499976158142
  9
$UNITMODE
 70
     0
  9
$VISRETAIN
 70
     0
  9
$PLINEGEN
 70
     1
  9
$PSLTSCALE
 70
     0
  9
$TREEDEPTH
 70
  3020
  9
$CMLSTYLE
  2
STANDARD
  9
$CMLJUST
 70
     0
  9
$CMLSCALE
 40
1.0
  9
$PROXYGRAPHICS
 70
     0
  9
$MEASUREMENT
 70
     0
  9
$CELWEIGHT
370
    -1
  9
$ENDCAPS
280
     0
  9
$JOINSTYLE
280
     0
  9
$LWDISPLAY
290
     0
  9
$INSUNITS
 70
     0
  9
$HYPERLINKBASE
  1

  9
$STYLESHEET
  1
monochrome.ctb
  9
$XEDIT
290
     1
  9
$CEPSNTYPE
380
     0
  9
$PSTYLEMODE
290
     1
  9
$FINGERPRINTGUID
  2
{D8FA5890-C65F-426E-8F3D-AD5C3B08D6C8}
  9
$VERSIONGUID
  2
{92B76DEF-5D2C-4466-96E2-AF44E7BBB218}
  9
$EXTNAMES
290
     1
  9
$PSVPSCALE
 40
0.0
  9
$OLESTARTUP
290
     0
  0
ENDSEC
  0
SECTION
  2
CLASSES
  0
CLASS
  1
IMAGE
  2
AcDbRasterImage
  3
ISM
 90
    34943
280
     0
281
     1
  0
CLASS
  1
DICTIONARYVAR
  2
AcDbDictionaryVar
  3
ObjectDBX Classes
 90
        0
280
     0
281
     0
  0
CLASS
  1
RASTERVARIABLES
  2
AcDbRasterVariables
  3
ISM
 90
    32768
280
     0
281
     0
  0
CLASS
  1
IMAGEDEF
  2
AcDbRasterImageDef
  3
ISM
 90
    32768
280
     0
281
     0
  0
CLASS
  1
IMAGEDEF_REACTOR
  2
AcDbRasterImageDefReactor
  3
ISM
 90
    32769
280
     0
281
     0
  0
CLASS
  1
IDBUFFER
  2
AcDbIdBuffer
  3
ObjectDBX Classes
 90
    32768
280
     0
281
     0
  0
CLASS
  1
SPATIAL_FILTER
  2
AcDbSpatialFilter
  3
ObjectDBX Classes
 90
    32768
280
     0
281
     0
  0
CLASS
  1
SORTENTSTABLE
  2
AcDbSortentsTable
  3
ObjectDBX Classes
 90
        0
280
     0
281
     0
  0
CLASS
  1
LAYER_INDEX
  2
AcDbLayerIndex
  3
ObjectDBX Classes
 90
    32768
280
     0
281
     0
  0
CLASS
  1
SPATIAL_INDEX
  2
AcDbSpatialIndex
  3
ObjectDBX Classes
 90
    32768
280
     0
281
     0
  0
CLASS
  1
OBJECT_PTR
  2
CAseDLPNTableRecord
  3
ASE-LPNTableRecord
 90
    32769
280
     0
281
     0
  0
CLASS
  1
LAYOUT
  2
AcDbLayout
  3
ObjectDBX Classes
 90
        0
280
     0
281
     0
  0
CLASS
  1
PLOTSETTINGS
  2
AcDbPlotSettings
  3
ObjectDBX Classes
 90
    32768
280
     0
281
     0
  0
CLASS
  1
ACDBDICTIONARYWDFLT
  2
AcDbDictionaryWithDefault
  3
ObjectDBX Classes
 90
        0
280
     0
281
     0
  0
CLASS
  1
ACDBPLACEHOLDER
  2
AcDbPlaceHolder
  3
ObjectDBX Classes
 90
        0
280
     0
281
     0
  0
CLASS
  1
TABLESTYLE
  2
AcDbTableStyle
  3
ObjectDBX Classes
 90
     4095
280
     0
281
     0
  0
CLASS
  1
MATERIAL
  2
AcDbMaterial
  3
ObjectDBX Classes
 90
     1024
280
     0
281
     0
  0
CLASS
  1
VISUALSTYLE
  2
AcDbVisualStyle
  3
ObjectDBX Classes
 90
     4095
280
     0
281
     0
  0
ENDSEC
  0
SECTION
  2
TABLES
  0
TABLE
  2
VPORT
  5
7
330
0
100
AcDbSymbolTable
 70
     1
  0
VPORT
  5
297
330
7
100
AcDbSymbolTableRecord
100
AcDbViewportTableRecord
  2
*Active
 70
     0
 10
0.0
 20
0.0
 11
1.0
 21
1.0
 12
0.4374521916218211
 22
-0.2642308388568368
 13
0.0
 23
0.0
 14
1.0
 24
1.0
 15
0.0
 25
0.0
 16
0.0
 26
0.0
 36
1.0
 17
0.0
 27
0.0
 37
0.0
 40
4.172985428444062
 41
1.173967459324155
 42
50.0
 43
0.0
 44
0.0
 50
0.0
 51
0.0
 71
     0
 72
   100
 73
     1
 74
     1
 75
     0
 76
     0
 77
     0
 78
     0
281
     0
 65
     1
110
0.0
120
0.0
130
0.0
111
1.0
121
0.0
131
0.0
112
0.0
122
1.0
132
0.0
 79
     0
146
0.0
  0
ENDTAB
  0
TABLE
  2
LTYPE
  5
4
330
0
100
AcDbSymbolTable
 70
     2
  0
LTYPE
  5
11
330
4
100
AcDbSymbolTableRecord
100
AcDbLinetypeTableRecord
  2
BYBLOCK
 70
     0
  3

 72
    65
 73
     0
 40
0.0
  0
LTYPE
  5
12
330
4
100
AcDbSymbolTableRecord
100
AcDbLinetypeTableRecord
  2
BYLAYER
 70
     0
  3

 72
    65
 73
     0
 40
0.0
  0
LTYPE
  5
13
330
4
100
AcDbSymbolTableRecord
100
AcDbLinetypeTableRecord
  2
CONTINUOUS
 70
     0
  3
Solid line
 72
    65
 73
     0
 40
0.0
  0
LTYPE
  5
252
330
4
100
AcDbSymbolTableRecord
100
AcDbLinetypeTableRecord
  2
PHANTOM
 70
     0
  3
Phantom ______  __  __  ______  __  __  ______
 72
    65
 73
     6
 40
2.5
 49
1.25
 74
     0
 49
-0.25
 74
     0
 49
0.25
 74
     0
 49
-0.25
 74
     0
 49
0.25
 74
     0
 49
-0.25
 74
     0
  0
ENDTAB
  0
TABLE
  2
LAYER
  5
2
102
{ACAD_XDICTIONARY
360
2D3
102
}
330
0
100
AcDbSymbolTable
 70
    11
  0
LAYER
  5
14
330
2
100
AcDbSymbolTableRecord
100
AcDbLayerTableRecord
  2
0
 70
     0
 62
     7
  6
CONTINUOUS
370
    -3
390
C5
  0
LAYER
  5
2E
330
2
100
AcDbSymbolTableRecord
100
AcDbLayerTableRecord
  2
R-SWTS-DET1
 70
     0
 62
     1
  6
CONTINUOUS
370
    -3
390
C5
  0
LAYER
  5
2F
330
2
100
AcDbSymbolTableRecord
100
AcDbLayerTableRecord
  2
R-ANNO-DIMS
 70
     0
 62
     3
  6
CONTINUOUS
370
    -3
390
C5
  0
LAYER
  5
32
330
2
100
AcDbSymbolTableRecord
100
AcDbLayerTableRecord
  2
R-ANNO-TEXT
 70
     0
 62
     6
  6
CONTINUOUS
370
    -3
390
C5
  0
LAYER
  5
33
330
2
100
AcDbSymbolTableRecord
100
AcDbLayerTableRecord
  2
R-SWTS-PAT3
 70
     0
 62
     4
  6
CONTINUOUS
370
    -3
390
C5
  0
LAYER
  5
34
330
2
100
AcDbSymbolTableRecord
100
AcDbLayerTableRecord
  2
R-SWTS-PAT2
 70
     0
 62
     1
  6
CONTINUOUS
370
    -3
390
C5
  0
LAYER
  5
35
330
2
100
AcDbSymbolTableRecord
100
AcDbLayerTableRecord
  2
R-SWTS-PAT1
 70
     0
 62
     5
  6
PHANTOM
370
    -3
390
C5
  0
LAYER
  5
36
330
2
100
AcDbSymbolTableRecord
100
AcDbLayerTableRecord
  2
R-SWTS-DET3
 70
     0
 62
     5
  6
CONTINUOUS
370
    -3
390
C5
  0
LAYER
  5
37
330
2
100
AcDbSymbolTableRecord
100
AcDbLayerTableRecord
  2
R-SWTS-DET2
 70
     0
 62
     4
  6
CONTINUOUS
370
    -3
390
C5
  0
LAYER
  5
D8
330
2
100
AcDbSymbolTableRecord
100
AcDbLayerTableRecord
  2
Defpoints
 70
     0
 62
     7
  6
CONTINUOUS
290
     0
370
    -3
390
C5
  0
LAYER
  5
1F2
330
2
100
AcDbSymbolTableRecord
100
AcDbLayerTableRecord
  2
R-SWTS-OTLN
 70
     0
 62
     2
  6
CONTINUOUS
370
    -3
390
C5
  0
ENDTAB
  0
TABLE
  2
STYLE
  5
3
330
0
100
AcDbSymbolTable
 70
     4
  0
STYLE
  5
17
330
3
100
AcDbSymbolTableRecord
100
AcDbTextStyleTableRecord
  2
STANDARD
 70
     0
 40
0.0
 41
1.0
 50
0.0
 71
     0
 42
0.0
  3
txt
  4

  0
STYLE
  5
232
330
3
100
AcDbSymbolTableRecord
100
AcDbTextStyleTableRecord
  2
SWTSTEXT
 70
     0
 40
0.125
 41
1.0
 50
0.0
 71
     0
 42
0.1
  3
simplex.shx
  4

  0
ENDTAB
  0
TABLE
  2
VIEW
  5
5
330
0
100
AcDbSymbolTable
 70
     0
  0
ENDTAB
  0
TABLE
  2
UCS
  5
6
330
0
100
AcDbSymbolTable
 70
     0
  0
ENDTAB
  0
TABLE
  2
APPID
  5
8
330
0
100
AcDbSymbolTable
 70
     3
  0
APPID
  5
16
330
8
100
AcDbSymbolTableRecord
100
AcDbRegAppTableRecord
  2
ACAD
 70
     0
  0
APPID
  5
24A
330
8
100
AcDbSymbolTableRecord
100
AcDbRegAppTableRecord
  2
DCO15
 70
     0
  0
APPID
  5
263
330
8
100
AcDbSymbolTableRecord
100
AcDbRegAppTableRecord
  2
ACAD_PSEXT
 70
     0
  0
ENDTAB
  0
TABLE
  2
DIMSTYLE
  5
9
330
0
100
AcDbSymbolTable
 70
     3
100
AcDbDimStyleTable
 71
     1
340
18
  0
DIMSTYLE
105
18
102
{ACAD_REACTORS
330
1A8
330
184
102
}
330
9
100
AcDbSymbolTableRecord
100
AcDbDimStyleTableRecord
  2
SCADMECH
 70
     0
 41
0.125
 44
0.125
140
0.125
141
0.04
174
     1
271
     6
272
     6
277
     5
289
     1
340
232
  0
ENDTAB
  0
TABLE
  2
BLOCK_RECORD
  5
1
330
0
100
AcDbSymbolTable
 70
     5
  0
BLOCK_RECORD
  5
A
102
{ACAD_XDICTIONARY
360
272
102
}
330
1
100
AcDbSymbolTableRecord
100
AcDbBlockTableRecord
  2
*MODEL_SPACE
340
C8
  0
BLOCK_RECORD
  5
B
330
1
100
AcDbSymbolTableRecord
100
AcDbBlockTableRecord
  2
*PAPER_SPACE
340
C9
  0
BLOCK_RECORD
  5
185
330
1
100
AcDbSymbolTableRecord
100
AcDbBlockTableRecord
  2
*D0
340
0
  0
BLOCK_RECORD
  5
1A9
330
1
100
AcDbSymbolTableRecord
100
AcDbBlockTableRecord
  2
*D1
340
0
  0
BLOCK_RECORD
  5
1F3
102
{ACAD_XDICTIONARY
360
623
102
}
330
1
100
AcDbSymbolTableRecord
100
AcDbBlockTableRecord
  2
Logo
340
0
102
{BLKREFS
331
22F
102
}
  0
ENDTAB
  0
ENDSEC
  0
SECTION
  2
BLOCKS
  0
BLOCK
  5
D
330
A
100
AcDbEntity
  8
0
100
AcDbBlockBegin
  2
*MODEL_SPACE
 70
     0
 10
0.0
 20
0.0
 30
0.0
  3
*MODEL_SPACE
  1

  0
ENDBLK
  5
E
330
A
100
AcDbEntity
  8
0
100
AcDbBlockEnd
  0
BLOCK
  5
F
330
B
100
AcDbEntity
 67
     1
  8
0
100
AcDbBlockBegin
  2
*PAPER_SPACE
 70
     0
 10
0.0
 20
0.0
 30
0.0
  3
*PAPER_SPACE
  1

  0
ENDBLK
  5
10
330
B
100
AcDbEntity
 67
     1
  8
0
100
AcDbBlockEnd
  0
BLOCK
  5
190
330
185
100
AcDbEntity
  8
0
100
AcDbBlockBegin
  2
*D0
 70
     1
 10
0.0
 20
0.0
 30
0.0
  3
*D0
  1

  0
LINE
  5
2BE
330
185
100
AcDbEntity
  8
R-ANNO-DIMS
  6
Continuous
 62
     0
370
    -2
100
AcDbLine
 10
0.1872374105898751
 20
-0.0501107087262396
 30
0.0
 11
-0.0790066172463114
 21
-0.0501107087262395
 31
0.0
  0
LINE
  5
2BF
330
185
100
AcDbEntity
  8
R-ANNO-DIMS
  6
Continuous
 62
     0
370
    -2
100
AcDbLine
 10
0.1872374105898751
 20
-0.0969857087262396
 30
0.0
 11
-0.0790066172463114
 21
-0.0969857087262395
 31
0.0
  0
LINE
  5
2C0
330
185
100
AcDbEntity
  8
R-ANNO-DIMS
  6
Continuous
 62
     0
370
    -2
100
AcDbLine
 10
0.0459933827536887
 20
0.0748892912737605
 30
0.0
 11
0.0459933827536887
 21
0.1998892912737605
 31
0.0
  0
LINE
  5
2C1
330
185
100
AcDbEntity
  8
R-ANNO-DIMS
  6
Continuous
 62
     0
370
    -2
100
AcDbLine
 10
0.0459933827536886
 20
-0.2219857087262395
 30
0.0
 11
0.0459933827536886
 21
-0.3469857087262395
 31
0.0
  0
LINE
  5
2C2
330
185
100
AcDbEntity
  8
R-ANNO-DIMS
  6
Continuous
 62
     0
370
    -2
100
AcDbLine
 10
0.0459933827536886
 20
-0.3469857087262395
 30
0.0
 11
-0.0790066172463115
 21
-0.3469857087262395
 31
0.0
  0
SOLID
  5
2C3
330
185
100
AcDbEntity
  8
R-ANNO-DIMS
  6
Continuous
 62
     0
100
AcDbTrace
 10
0.0251600494203553
 20
0.0748892912737605
 30
0.0
 11
0.066826716087022
 21
0.0748892912737605
 31
0.0
 12
0.0459933827536886
 22
-0.0501107087262395
 32
0.0
 13
0.0459933827536886
 23
-0.0501107087262395
 33
0.0
  0
SOLID
  5
2C4
330
185
100
AcDbEntity
  8
R-ANNO-DIMS
  6
Continuous
 62
     0
100
AcDbTrace
 10
0.0251600494203553
 20
-0.2219857087262395
 30
0.0
 11
0.0668267160870219
 21
-0.2219857087262395
 31
0.0
 12
0.0459933827536886
 22
-0.0969857087262395
 32
0.0
 13
0.0459933827536886
 23
-0.0969857087262395
 33
0.0
  0
MTEXT
  5
2C5
330
185
100
AcDbEntity
  8
R-ANNO-DIMS
  6
Continuous
 62
     0
100
AcDbMText
 10
-0.273173283912978
 20
-0.3469857087262395
 30
0.0
 40
0.125
 41
0.0
 71
     5
 72
     1
  1
\A1;{\H1.000000x;\S3/64;}
  7
SWTSTEXT
 73
     1
 44
1.0
1001
ACAD
1000
MTEXTBEGIN
1070
    73
1070
     1
1070
    44
1040
1.0
1070
    74
1070
     0
1000
MTEXTEND
  0
POINT
  5
2C6
330
185
100
AcDbEntity
  8
Defpoints
  6
Continuous
 62
     0
100
AcDbPoint
 10
0.2497374105898751
 20
-0.0501107087262396
 30
0.0
  0
POINT
  5
2C7
330
185
100
AcDbEntity
  8
Defpoints
  6
Continuous
 62
     0
100
AcDbPoint
 10
0.2497374105898751
 20
-0.0969857087262396
 30
0.0
  0
POINT
  5
2C8
330
185
100
AcDbEntity
  8
Defpoints
  6
Continuous
 62
     0
100
AcDbPoint
 10
0.0459933827536886
 20
-0.0969857087262395
 30
0.0
  0
ENDBLK
  5
191
330
185
100
AcDbEntity
  8
0
100
AcDbBlockEnd
  0
BLOCK
  5
1B4
330
1A9
100
AcDbEntity
  8
0
100
AcDbBlockBegin
  2
*D1
 70
     1
 10
0.0
 20
0.0
 30
0.0
  3
*D1
  1

  0
LINE
  5
2C9
330
1A9
100
AcDbEntity
  8
R-ANNO-DIMS
  6
Continuous
 62
     0
370
    -2
100
AcDbLine
 10
0.2497374105898751
 20
0.0123892912737604
 30
0.0
 11
0.2497374105898752
 21
0.4498892912737605
 31
0.0
  0
LINE
  5
2CA
330
1A9
100
AcDbEntity
  8
R-ANNO-DIMS
  6
Continuous
 62
     0
370
    -2
100
AcDbLine
 10
0.6933763828074091
 20
0.0123892912737604
 30
0.0
 11
0.6933763828074091
 21
0.4498892912737605
 31
0.0
  0
LINE
  5
2CB
330
1A9
100
AcDbEntity
  8
R-ANNO-DIMS
  6
Continuous
 62
     0
370
    -2
100
AcDbLine
 10
0.1247374105898752
 20
0.3248892912737604
 30
0.0
 11
-0.0002625894101248
 21
0.3248892912737604
 31
0.0
  0
LINE
  5
2CC
330
1A9
100
AcDbEntity
  8
R-ANNO-DIMS
  6
Continuous
 62
     0
370
    -2
100
AcDbLine
 10
0.8183763828074091
 20
0.3248892912737604
 30
0.0
 11
0.9433763828074091
 21
0.3248892912737604
 31
0.0
  0
SOLID
  5
2CD
330
1A9
100
AcDbEntity
  8
R-ANNO-DIMS
  6
Continuous
 62
     0
100
AcDbTrace
 10
0.1247374105898752
 20
0.3457226246070937
 30
0.0
 11
0.1247374105898752
 21
0.3040559579404271
 31
0.0
 12
0.2497374105898752
 22
0.3248892912737604
 32
0.0
 13
0.2497374105898752
 23
0.3248892912737604
 33
0.0
  0
SOLID
  5
2CE
330
1A9
100
AcDbEntity
  8
R-ANNO-DIMS
  6
Continuous
 62
     0
100
AcDbTrace
 10
0.8183763828074091
 20
0.3457226246070937
 30
0.0
 11
0.8183763828074091
 21
0.3040559579404271
 31
0.0
 12
0.6933763828074091
 22
0.3248892912737604
 32
0.0
 13
0.6933763828074091
 23
0.3248892912737604
 33
0.0
  0
MTEXT
  5
2CF
330
1A9
100
AcDbEntity
  8
R-ANNO-DIMS
  6
Continuous
 62
     0
100
AcDbMText
 10
0.4715568966986422
 20
0.3248892912737604
 30
0.0
 40
0.125
 41
0.0
 71
     5
 72
     1
  1
\A1;{\H1.000000x;\S7/16;}
  7
SWTSTEXT
 73
     1
 44
1.0
1001
ACAD
1000
MTEXTBEGIN
1070
    73
1070
     1
1070
    44
1040
1.0
1070
    74
1070
     0
1000
MTEXTEND
  0
POINT
  5
2D0
330
1A9
100
AcDbEntity
  8
Defpoints
  6
Continuous
 62
     0
100
AcDbPoint
 10
0.2497374105898751
 20
-0.0501107087262396
 30
0.0
  0
POINT
  5
2D1
330
1A9
100
AcDbEntity
  8
Defpoints
  6
Continuous
 62
     0
100
AcDbPoint
 10
0.6933763828074091
 20
-0.0501107087262396
 30
0.0
  0
POINT
  5
2D2
330
1A9
100
AcDbEntity
  8
Defpoints
  6
Continuous
 62
     0
100
AcDbPoint
 10
0.6933763828074091
 20
0.3248892912737604
 30
0.0
  0
ENDBLK
  5
1B5
330
1A9
100
AcDbEntity
  8
0
100
AcDbBlockEnd
  0
BLOCK
  5
22D
330
1F3
100
AcDbEntity
  8
0
100
AcDbBlockBegin
  2
Logo
 70
     0
 10
0.0
 20
0.0
 30
0.0
  3
Logo
  1

  0
LWPOLYLINE
  5
2D5
330
1F3
100
AcDbEntity
  8
R-ANNO-TEXT
370
    20
100
AcDbPolyline
 90
        8
 70
     1
 43
0.0
 10
-0.3709048319061026
 20
-0.3596734526521592
 10
-0.3831640630676825
 20
-0.3918028172040841
 10
-0.4087233063786544
 20
-0.3918028172040841
 10
-0.3524526688427942
 20
-0.2557021826136605
 10
-0.3315704770844585
 20
-0.2557021826136605
 10
-0.2782111141642674
 20
-0.3918028172040841
 10
-0.3018726891220036
 20
-0.3918028172040841
 10
-0.3137830529438157
 20
-0.3596734526521592
  0
LWPOLYLINE
  5
2D6
330
1F3
100
AcDbEntity
  8
R-ANNO-TEXT
370
    20
100
AcDbPolyline
 90
        3
 70
     1
 43
0.0
 10
-0.3189570312118573
 20
-0.3457161431656761
 10
-0.3419316905216274
 20
-0.2837397656625793
 10
-0.3655793022613452
 20
-0.3457161431656761
  0
POLYLINE
  5
2D7
330
1F3
100
AcDbEntity
  8
R-ANNO-TEXT
370
    20
100
AcDb2dPolyline
 66
     1
 10
0.0
 20
0.0
 30
0.0
 70
     4
 75
     6
  0
VERTEX
  5
2D8
330
2D7
100
AcDbEntity
  8
R-ANNO-TEXT
370
    20
100
AcDbVertex
100
AcDb2dVertex
 10
-0.2026670253826224
 20
-0.2917231184980382
 30
0.0
 70
    16
  0
VERTEX
  5
2D9
330
2D7
100
AcDbEntity
  8
R-ANNO-TEXT
370
    20
100
AcDbVertex
100
AcDb2dVertex
 10
-0.2026670253826224
 20
-0.2917231184980382
 30
0.0
 70
     8
  0
VERTEX
  5
2DA
330
2D7
100
AcDbEntity
  8
R-ANNO-TEXT
370
    20
100
AcDbVertex
100
AcDb2dVertex
 10
-0.1945519834446574
 20
-0.2914403756503412
 30
0.0
 70
     8
  0
VERTEX
  5
2DB
330
2D7
100
AcDbEntity
  8
R-ANNO-TEXT
370
    20
100
AcDbVertex
100
AcDb2dVertex
 10
-0.1886142188979523
 20
-0.2906499339969786
 30
0.0
 70
     8
  0
VERTEX
  5
2DC
330
2D7
100
AcDbEntity
  8
R-ANNO-TEXT
370
    20
100
AcDbVertex
100
AcDb2dVertex
 10
-0.1845496668797186
 20
-0.2894384738725413
 30
0.0
 70
     8
  0
VERTEX
  5
2DD
330
2D7
100
AcDbEntity
  8
R-ANNO-TEXT
370
    20
100
AcDbVertex
100
AcDb2dVertex
 10
-0.1820542625271693
 20
-0.2878926756116216
 30
0.0
 70
     8
  0
VERTEX
  5
2DE
330
2D7
100
AcDbEntity
  8
R-ANNO-TEXT
370
    20
100
AcDbVertex
100
AcDb2dVertex
 10
-0.1808239409775147
 20
-0.2860992195488103
 30
0.0
 70
     8
  0
VERTEX
  5
2DF
330
2D7
100
AcDbEntity
  8
R-ANNO-TEXT
370
    20
100
AcDbVertex
100
AcDb2dVertex
 10
-0.1805546373679667
 20
-0.2841447860186999
 30
0.0
 70
     8
  0
VERTEX
  5
2E0
330
2D7
100
AcDbEntity
  8
R-ANNO-TEXT
370
    20
100
AcDbVertex
100
AcDb2dVertex
 10
-0.180942286835738
 20
-0.282116055355881
 30
0.0
 70
     8
  0
VERTEX
  5
2E1
330
2D7
100
AcDbEntity
  8
R-ANNO-TEXT
370
    20
100
AcDbVertex
100
AcDb2dVertex
 10
-0.181682824518038
 20
-0.2800997078949461
 30
0.0
 70
     8
  0
VERTEX
  5
2E2
330
2D7
100
AcDbEntity
  8
R-ANNO-TEXT
370
    20
100
AcDbVertex
100
AcDb2dVertex
 10
-0.182524418636596
 20
-0.2781672294774844
 30
0.0
 70
     8
  0
VERTEX
  5
2E3
330
2D7
100
AcDbEntity
  8
R-ANNO-TEXT
370
    20
100
AcDbVertex
100
AcDb2dVertex
 10
-0.1834241697512051
 20
-0.2763293279730807
 30
0.0
 70
     8
  0
VERTEX
  5
2E4
330
2D7
100
AcDbEntity
  8
R-ANNO-TEXT
370
    20
100
AcDbVertex
100
AcDb2dVertex
 10
-0.1843914115061751
 20
-0.2745815167583174
 30
0.0
 70
     8
  0
VERTEX
  5
2E5
330
2D7
100
AcDbEntity
  8
R-ANNO-TEXT
370
    20
100
AcDbVertex
100
AcDb2dVertex
 10
-0.1854354775458122
 20
-0.2729193092097764
 30
0.0
 70
     8
  0
VERTEX
  5
2E6
330
2D7
100
AcDbEntity
  8
R-ANNO-TEXT
370
    20
100
AcDbVertex
100
AcDb2dVertex
 10
-0.1865657015144273
 20
-0.2713382187040407
 30
0.0
 70
     8
  0
VERTEX
  5
2E7
330
2D7
100
AcDbEntity
  8
R-ANNO-TEXT
370
    20
100
AcDbVertex
100
AcDb2dVertex
 10
-0.1877914170563288
 20
-0.2698337586176929
 30
0.0
 70
     8
  0
VERTEX
  5
2E8
330
2D7
100
AcDbEntity
  8
R-ANNO-TEXT
370
    20
100
AcDbVertex
100
AcDb2dVertex
 10
-0.1891219578158254
 20
-0.2684014423273155
 30
0.0
 70
     8
  0
VERTEX
  5
2E9
330
2D7
100
AcDbEntity
  8
R-ANNO-TEXT
370
    20
100
AcDbVertex
100
AcDb2dVertex
 10
-0.1905666574372256
 20
-0.2670367832094906
 30
0.0
 70
     8
  0
VERTEX
  5
2EA
330
2D7
100
AcDbEntity
  8
R-ANNO-TEXT
370
    20
100
AcDbVertex
100
AcDb2dVertex
 10
-0.1921302425360993
 20
-0.2657358031276749
 30
0.0
 70
     8
  0
VERTEX
  5
2EB
330
2D7
100
AcDbEntity
  8
R-ANNO-TEXT
370
    20
100
AcDbVertex
100
AcDb2dVertex
 10
-0.1937990116130517
 20
-0.2644965578928229
 30
0.0
 70
     8
  0
VERTEX
  5
2EC
330
2D7
100
AcDbEntity
  8
R-ANNO-TEXT
370
    20
100
AcDbVertex
100
AcDb2dVertex
 10
-0.195554656139949
 20
-0.2633176118027616
 30
0.0
 70
     8
  0
VERTEX
  5
2ED
330
2D7
100
AcDbEntity
  8
R-ANNO-TEXT
370
    20
100
AcDbVertex
100
AcDb2dVertex
 10
-0.1973788675886579
 20
-0.26219752915532
 30
0.0
 70
     8
  0
VERTEX
  5
2EE
330
2D7
100
AcDbEntity
  8
R-ANNO-TEXT
370
    20
100
AcDbVertex
100
AcDb2dVertex
 10
-0.1992533374310412
 20
-0.2611348742483255
 30
0.0
 70
     8
  0
VERTEX
  5
2EF
330
2D7
100
AcDbEntity
  8
R-ANNO-TEXT
370
    20
100
AcDbVertex
100
AcDb2dVertex
 10
-0.2011597571389667
 20
-0.2601282113796062
 30
0.0
 70
     8
  0
VERTEX
  5
2F0
330
2D7
100
AcDbEntity
  8
R-ANNO-TEXT
370
    20
100
AcDbVertex
100
AcDb2dVertex
 10
-0.2030798181843008
 20
-0.2591761048469898
 30
0.0
 70
     8
  0
VERTEX
  5
2F1
330
2D7
100
AcDbEntity
  8
R-ANNO-TEXT
370
    20
100
AcDbVertex
100
AcDb2dVertex
 10
-0.2049952120389076
 20
-0.2582771189483046
 30
0.0
 70
     8
  0
VERTEX
  5
2F2
330
2D7
100
AcDbEntity
  8
R-ANNO-TEXT
370
    20
100
AcDbVertex
100
AcDb2dVertex
 10
-0.2068912201010709
 20
-0.2574307152988449
 30
0.0
 70
     8
  0
VERTEX
  5
2F3
330
2D7
100
AcDbEntity
  8
R-ANNO-TEXT
370
    20
100
AcDbVertex
100
AcDb2dVertex
 10
-0.2087674834747388
 20
-0.2566399447837693
 30
0.0
 70
     8
  0
VERTEX
  5
2F4
330
2D7
100
AcDbEntity
  8
R-ANNO-TEXT
370
    20
100
AcDbVertex
100
AcDb2dVertex
 10
-0.2106272331902792
 20
-0.2559087556057031
 30
0.0
 70
     8
  0
VERTEX
  5
2F5
330
2D7
100
AcDbEntity
  8
R-ANNO-TEXT
370
    20
100
AcDbVertex
100
AcDb2dVertex
 10
-0.2124737002780586
 20
-0.2552410959672708
 30
0.0
 70
     8
  0
VERTEX
  5
2F6
330
2D7
100
AcDbEntity
  8
R-ANNO-TEXT
370
    20
100
AcDbVertex
100
AcDb2dVertex
 10
-0.2143101157684424
 20
-0.2546409140710981
 30
0.0
 70
     8
  0
VERTEX
  5
2F7
330
2D7
100
AcDbEntity
  8
R-ANNO-TEXT
370
    20
100
AcDbVertex
100
AcDb2dVertex
 10
-0.2161397106917973
 20
-0.2541121581198089
 30
0.0
 70
     8
  0
VERTEX
  5
2F8
330
2D7
100
AcDbEntity
  8
R-ANNO-TEXT
370
    20
100
AcDbVertex
100
AcDb2dVertex
 10
-0.2179657160784898
 20
-0.2536587763160294
 30
0.0
 70
     8
  0
VERTEX
  5
2F9
330
2D7
100
AcDbEntity
  8
R-ANNO-TEXT
370
    20
100
AcDbVertex
100
AcDb2dVertex
 10
-0.2197913629588866
 20
-0.253284716862384
 30
0.0
 70
     8
  0
VERTEX
  5
2FA
330
2D7
100
AcDbEntity
  8
R-ANNO-TEXT
370
    20
100
AcDbVertex
100
AcDb2dVertex
 10
-0.2216214977768616
 20
-0.2529924324420105
 30
0.0
 70
     8
  0
VERTEX
  5
2FB
330
2D7
100
AcDbEntity
  8
R-ANNO-TEXT
370
    20
100
AcDbVertex
100
AcDb2dVertex
 10
-0.2234674286303229
 20
-0.2527783936600985
 30
0.0
 70
     8
  0
VERTEX
  5
2FC
330
2D7
100
AcDbEntity
  8
R-ANNO-TEXT
370
    20
100
AcDbVertex
100
AcDb2dVertex
 10
-0.2253420790306848
 20
-0.2526375756023493
 30
0.0
 70
     8
  0
VERTEX
  5
2FD
330
2D7
100
AcDbEntity
  8
R-ANNO-TEXT
370
    20
100
AcDbVertex
100
AcDb2dVertex
 10
-0.2272583724893629
 20
-0.252564953354466
 30
0.0
 70
     8
  0
VERTEX
  5
2FE
330
2D7
100
AcDbEntity
  8
R-ANNO-TEXT
370
    20
100
AcDbVertex
100
AcDb2dVertex
 10
-0.2292292325177736
 20
-0.2525555020021502
 30
0.0
 70
     8
  0
VERTEX
  5
2FF
330
2D7
100
AcDbEntity
  8
R-ANNO-TEXT
370
    20
100
AcDbVertex
100
AcDb2dVertex
 10
-0.2312675826273303
 20
-0.2526041966311037
 30
0.0
 70
     8
  0
VERTEX
  5
300
330
2D7
100
AcDbEntity
  8
R-ANNO-TEXT
370
    20
100
AcDbVertex
100
AcDb2dVertex
 10
-0.2333863463294483
 20
-0.252706012327029
 30
0.0
 70
     8
  0
VERTEX
  5
301
330
2D7
100
AcDbEntity
  8
R-ANNO-TEXT
370
    20
100
AcDbVertex
100
AcDb2dVertex
 10
-0.2355984471355443
 20
-0.2528559241756278
 30
0.0
 70
     8
  0
VERTEX
  5
302
330
2D7
100
AcDbEntity
  8
R-ANNO-TEXT
370
    20
100
AcDbVertex
100
AcDb2dVertex
 10
-0.2379095689616228
 20
-0.2530510607869916
 30
0.0
 70
     8
  0
VERTEX
  5
303
330
2D7
100
AcDbEntity
  8
R-ANNO-TEXT
370
    20
100
AcDbVertex
100
AcDb2dVertex
 10
-0.2402964373420491
 20
-0.2532971648687643
 30
0.0
 70
     8
  0
VERTEX
  5
304
330
2D7
100
AcDbEntity
  8
R-ANNO-TEXT
370
    20
100
AcDbVertex
100
AcDb2dVertex
 10
-0.2427285382157795
 20
-0.2536021326529809
 30
0.0
 70
     8
  0
VERTEX
  5
305
330
2D7
100
AcDbEntity
  8
R-ANNO-TEXT
370
    20
100
AcDbVertex
100
AcDb2dVertex
 10
-0.2451753575217697
 20
-0.2539738603716746
 30
0.0
 70
     8
  0
VERTEX
  5
306
330
2D7
100
AcDbEntity
  8
R-ANNO-TEXT
370
    20
100
AcDbVertex
100
AcDb2dVertex
 10
-0.2476063811989726
 20
-0.2544202442568797
 30
0.0
 70
     8
  0
VERTEX
  5
307
330
2D7
100
AcDbEntity
  8
R-ANNO-TEXT
370
    20
100
AcDbVertex
100
AcDb2dVertex
 10
-0.2499910951863471
 20
-0.2549491805406294
 30
0.0
 70
     8
  0
VERTEX
  5
308
330
2D7
100
AcDbEntity
  8
R-ANNO-TEXT
370
    20
100
AcDbVertex
100
AcDb2dVertex
 10
-0.2522989854228463
 20
-0.2555685654549578
 30
0.0
 70
     8
  0
VERTEX
  5
309
330
2D7
100
AcDbEntity
  8
R-ANNO-TEXT
370
    20
100
AcDbVertex
100
AcDb2dVertex
 10
-0.2544995378474268
 20
-0.2562862952318987
 30
0.0
 70
     8
  0
VERTEX
  5
30A
330
2D7
100
AcDbEntity
  8
R-ANNO-TEXT
370
    20
100
AcDbVertex
100
AcDb2dVertex
 10
-0.2565697173290948
 20
-0.2571088902547158
 30
0.0
 70
     8
  0
VERTEX
  5
30B
330
2D7
100
AcDbEntity
  8
R-ANNO-TEXT
370
    20
100
AcDbVertex
100
AcDb2dVertex
 10
-0.258516404457062
 20
-0.2580373675115921
 30
0.0
 70
     8
  0
VERTEX
  5
30C
330
2D7
100
AcDbEntity
  8
R-ANNO-TEXT
370
    20
100
AcDbVertex
100
AcDb2dVertex
 10
-0.2603539587505921
 20
-0.2590713681419414
 30
0.0
 70
     8
  0
VERTEX
  5
30D
330
2D7
100
AcDbEntity
  8
R-ANNO-TEXT
370
    20
100
AcDbVertex
100
AcDb2dVertex
 10
-0.2620967397289464
 20
-0.2602105332851758
 30
0.0
 70
     8
  0
VERTEX
  5
30E
330
2D7
100
AcDbEntity
  8
R-ANNO-TEXT
370
    20
100
AcDbVertex
100
AcDb2dVertex
 10
-0.2637591069113876
 20
-0.2614545040807088
 30
0.0
 70
     8
  0
VERTEX
  5
30F
330
2D7
100
AcDbEntity
  8
R-ANNO-TEXT
370
    20
100
AcDbVertex
100
AcDb2dVertex
 10
-0.2653554198171815
 20
-0.2628029216679533
 30
0.0
 70
     8
  0
VERTEX
  5
310
330
2D7
100
AcDbEntity
  8
R-ANNO-TEXT
370
    20
100
AcDbVertex
100
AcDb2dVertex
 10
-0.2669000379655873
 20
-0.2642554271863227
 30
0.0
 70
     8
  0
VERTEX
  5
311
330
2D7
100
AcDbEntity
  8
R-ANNO-TEXT
370
    20
100
AcDbVertex
100
AcDb2dVertex
 10
-0.2684073208758697
 20
-0.26581166177523
 30
0.0
 70
     8
  0
VERTEX
  5
312
330
2D7
100
AcDbEntity
  8
R-ANNO-TEXT
370
    20
100
AcDbVertex
100
AcDb2dVertex
 10
-0.269886063738114
 20
-0.2674702496147736
 30
0.0
 70
     8
  0
VERTEX
  5
313
330
2D7
100
AcDbEntity
  8
R-ANNO-TEXT
370
    20
100
AcDbVertex
100
AcDb2dVertex
 10
-0.2713228044256966
 20
-0.2692257470477988
 30
0.0
 70
     8
  0
VERTEX
  5
314
330
2D7
100
AcDbEntity
  8
R-ANNO-TEXT
370
    20
100
AcDbVertex
100
AcDb2dVertex
 10
-0.2726985164828133
 20
-0.2710716934578348
 30
0.0
 70
     8
  0
VERTEX
  5
315
330
2D7
100
AcDbEntity
  8
R-ANNO-TEXT
370
    20
100
AcDbVertex
100
AcDb2dVertex
 10
-0.2739941734536644
 20
-0.2730016282284118
 30
0.0
 70
     8
  0
VERTEX
  5
316
330
2D7
100
AcDbEntity
  8
R-ANNO-TEXT
370
    20
100
AcDbVertex
100
AcDb2dVertex
 10
-0.2751907488824479
 20
-0.2750090907430596
 30
0.0
 70
     8
  0
VERTEX
  5
317
330
2D7
100
AcDbEntity
  8
R-ANNO-TEXT
370
    20
100
AcDbVertex
100
AcDb2dVertex
 10
-0.2762692163133629
 20
-0.2770876203853092
 30
0.0
 70
     8
  0
VERTEX
  5
318
330
2D7
100
AcDbEntity
  8
R-ANNO-TEXT
370
    20
100
AcDbVertex
100
AcDb2dVertex
 10
-0.2772105492906052
 20
-0.27923075653869
 30
0.0
 70
     8
  0
VERTEX
  5
319
330
2D7
100
AcDbEntity
  8
R-ANNO-TEXT
370
    20
100
AcDbVertex
100
AcDb2dVertex
 10
-0.277995721358375
 20
-0.2814320385867326
 30
0.0
 70
     8
  0
VERTEX
  5
31A
330
2D7
100
AcDbEntity
  8
R-ANNO-TEXT
370
    20
100
AcDbVertex
100
AcDb2dVertex
 10
-0.2786107917546565
 20
-0.2836831514607185
 30
0.0
 70
     8
  0
VERTEX
  5
31B
330
2D7
100
AcDbEntity
  8
R-ANNO-TEXT
370
    20
100
AcDbVertex
100
AcDb2dVertex
 10
-0.2790621624925804
 20
-0.2859683622829419
 30
0.0
 70
     8
  0
VERTEX
  5
31C
330
2D7
100
AcDbEntity
  8
R-ANNO-TEXT
370
    20
100
AcDbVertex
100
AcDb2dVertex
 10
-0.2793613212790658
 20
-0.2882700837234466
 30
0.0
 70
     8
  0
VERTEX
  5
31D
330
2D7
100
AcDbEntity
  8
R-ANNO-TEXT
370
    20
100
AcDbVertex
100
AcDb2dVertex
 10
-0.2795197558210294
 20
-0.2905707284522787
 30
0.0
 70
     8
  0
VERTEX
  5
31E
330
2D7
100
AcDbEntity
  8
R-ANNO-TEXT
370
    20
100
AcDbVertex
100
AcDb2dVertex
 10
-0.2795489538253904
 20
-0.292852709139483
 30
0.0
 70
     8
  0
VERTEX
  5
31F
330
2D7
100
AcDbEntity
  8
R-ANNO-TEXT
370
    20
100
AcDbVertex
100
AcDb2dVertex
 10
-0.2794604029990655
 20
-0.2950984384551045
 30
0.0
 70
     8
  0
VERTEX
  5
320
330
2D7
100
AcDbEntity
  8
R-ANNO-TEXT
370
    20
100
AcDbVertex
100
AcDb2dVertex
 10
-0.2792655910489716
 20
-0.2972903290691886
 30
0.0
 70
     8
  0
VERTEX
  5
321
330
2D7
100
AcDbEntity
  8
R-ANNO-TEXT
370
    20
100
AcDbVertex
100
AcDb2dVertex
 10
-0.278976005682029
 20
-0.2994107936517807
 30
0.0
 70
     8
  0
VERTEX
  5
322
330
2D7
100
AcDbEntity
  8
R-ANNO-TEXT
370
    20
100
AcDbVertex
100
AcDb2dVertex
 10
-0.2785982882205895
 20
-0.3014462528712132
 30
0.0
 70
     8
  0
VERTEX
  5
323
330
2D7
100
AcDbEntity
  8
R-ANNO-TEXT
370
    20
100
AcDbVertex
100
AcDb2dVertex
 10
-0.2781196944487507
 20
-0.3033991593889729
 30
0.0
 70
     8
  0
VERTEX
  5
324
330
2D7
100
AcDbEntity
  8
R-ANNO-TEXT
370
    20
100
AcDbVertex
100
AcDb2dVertex
 10
-0.2775226337660475
 20
-0.3052759738648332
 30
0.0
 70
     8
  0
VERTEX
  5
325
330
2D7
100
AcDbEntity
  8
R-ANNO-TEXT
370
    20
100
AcDbVertex
100
AcDb2dVertex
 10
-0.2767895155720101
 20
-0.3070831569585684
 30
0.0
 70
     8
  0
VERTEX
  5
326
330
2D7
100
AcDbEntity
  8
R-ANNO-TEXT
370
    20
100
AcDbVertex
100
AcDb2dVertex
 10
-0.2759027492661747
 20
-0.3088271693299522
 30
0.0
 70
     8
  0
VERTEX
  5
327
330
2D7
100
AcDbEntity
  8
R-ANNO-TEXT
370
    20
100
AcDbVertex
100
AcDb2dVertex
 10
-0.2748447442480728
 20
-0.3105144716387591
 30
0.0
 70
     8
  0
VERTEX
  5
328
330
2D7
100
AcDbEntity
  8
R-ANNO-TEXT
370
    20
100
AcDbVertex
100
AcDb2dVertex
 10
-0.273597909917237
 20
-0.3121515245447619
 30
0.0
 70
     8
  0
VERTEX
  5
329
330
2D7
100
AcDbEntity
  8
R-ANNO-TEXT
370
    20
100
AcDbVertex
100
AcDb2dVertex
 10
-0.2721446556732021
 20
-0.3137447887077358
 30
0.0
 70
     8
  0
VERTEX
  5
32A
330
2D7
100
AcDbEntity
  8
R-ANNO-TEXT
370
    20
100
AcDbVertex
100
AcDb2dVertex
 10
-0.2704728954597368
 20
-0.3152994685516623
 30
0.0
 70
     8
  0
VERTEX
  5
32B
330
2D7
100
AcDbEntity
  8
R-ANNO-TEXT
370
    20
100
AcDbVertex
100
AcDb2dVertex
 10
-0.268592561397557
 20
-0.3168157435573562
 30
0.0
 70
     8
  0
VERTEX
  5
32C
330
2D7
100
AcDbEntity
  8
R-ANNO-TEXT
370
    20
100
AcDbVertex
100
AcDb2dVertex
 10
-0.2665190901516146
 20
-0.3182925369698406
 30
0.0
 70
     8
  0
VERTEX
  5
32D
330
2D7
100
AcDbEntity
  8
R-ANNO-TEXT
370
    20
100
AcDbVertex
100
AcDb2dVertex
 10
-0.2642679183868601
 20
-0.3197287720341388
 30
0.0
 70
     8
  0
VERTEX
  5
32E
330
2D7
100
AcDbEntity
  8
R-ANNO-TEXT
370
    20
100
AcDbVertex
100
AcDb2dVertex
 10
-0.2618544827682467
 20
-0.3211233719952737
 30
0.0
 70
     8
  0
VERTEX
  5
32F
330
2D7
100
AcDbEntity
  8
R-ANNO-TEXT
370
    20
100
AcDbVertex
100
AcDb2dVertex
 10
-0.2592942199607251
 20
-0.3224752600982681
 30
0.0
 70
     8
  0
VERTEX
  5
330
330
2D7
100
AcDbEntity
  8
R-ANNO-TEXT
370
    20
100
AcDbVertex
100
AcDb2dVertex
 10
-0.2566025666292471
 20
-0.3237833595881452
 30
0.0
 70
     8
  0
VERTEX
  5
331
330
2D7
100
AcDbEntity
  8
R-ANNO-TEXT
370
    20
100
AcDbVertex
100
AcDb2dVertex
 10
-0.2537949594387656
 20
-0.3250465937099278
 30
0.0
 70
     8
  0
VERTEX
  5
332
330
2D7
100
AcDbEntity
  8
R-ANNO-TEXT
370
    20
100
AcDbVertex
100
AcDb2dVertex
 10
-0.2508864760480334
 20
-0.3262650821126813
 30
0.0
 70
     8
  0
VERTEX
  5
333
330
2D7
100
AcDbEntity
  8
R-ANNO-TEXT
370
    20
100
AcDbVertex
100
AcDb2dVertex
 10
-0.2478907580910084
 20
-0.327443730061638
 30
0.0
 70
     8
  0
VERTEX
  5
334
330
2D7
100
AcDbEntity
  8
R-ANNO-TEXT
370
    20
100
AcDbVertex
100
AcDb2dVertex
 10
-0.2448210881954549
 20
-0.3285886392260733
 30
0.0
 70
     8
  0
VERTEX
  5
335
330
2D7
100
AcDbEntity
  8
R-ANNO-TEXT
370
    20
100
AcDbVertex
100
AcDb2dVertex
 10
-0.241690748989134
 20
-0.329705911275262
 30
0.0
 70
     8
  0
VERTEX
  5
336
330
2D7
100
AcDbEntity
  8
R-ANNO-TEXT
370
    20
100
AcDbVertex
100
AcDb2dVertex
 10
-0.2385130230998067
 20
-0.330801647878479
 30
0.0
 70
     8
  0
VERTEX
  5
337
330
2D7
100
AcDbEntity
  8
R-ANNO-TEXT
370
    20
100
AcDbVertex
100
AcDb2dVertex
 10
-0.2353011931552351
 20
-0.3318819507049993
 30
0.0
 70
     8
  0
VERTEX
  5
338
330
2D7
100
AcDbEntity
  8
R-ANNO-TEXT
370
    20
100
AcDbVertex
100
AcDb2dVertex
 10
-0.2320685417831791
 20
-0.3329529214240976
 30
0.0
 70
     8
  0
VERTEX
  5
339
330
2D7
100
AcDbEntity
  8
R-ANNO-TEXT
370
    20
100
AcDbVertex
100
AcDb2dVertex
 10
-0.2288283516114031
 20
-0.3340206617050487
 30
0.0
 70
     8
  0
VERTEX
  5
33A
330
2D7
100
AcDbEntity
  8
R-ANNO-TEXT
370
    20
100
AcDbVertex
100
AcDb2dVertex
 10
-0.225597375522526
 20
-0.335090854481487
 30
0.0
 70
     8
  0
VERTEX
  5
33B
330
2D7
100
AcDbEntity
  8
R-ANNO-TEXT
370
    20
100
AcDbVertex
100
AcDb2dVertex
 10
-0.2224062474186095
 20
-0.336167507744483
 30
0.0
 70
     8
  0
VERTEX
  5
33C
330
2D7
100
AcDbEntity
  8
R-ANNO-TEXT
370
    20
100
AcDbVertex
100
AcDb2dVertex
 10
-0.2192890714565721
 20
-0.3372542107494665
 30
0.0
 70
     8
  0
VERTEX
  5
33D
330
2D7
100
AcDbEntity
  8
R-ANNO-TEXT
370
    20
100
AcDbVertex
100
AcDb2dVertex
 10
-0.2162799517933334
 20
-0.3383545527518681
 30
0.0
 70
     8
  0
VERTEX
  5
33E
330
2D7
100
AcDbEntity
  8
R-ANNO-TEXT
370
    20
100
AcDbVertex
100
AcDb2dVertex
 10
-0.2134129925858152
 20
-0.3394721230071171
 30
0.0
 70
     8
  0
VERTEX
  5
33F
330
2D7
100
AcDbEntity
  8
R-ANNO-TEXT
370
    20
100
AcDbVertex
100
AcDb2dVertex
 10
-0.2107222979909351
 20
-0.3406105107706443
 30
0.0
 70
     8
  0
VERTEX
  5
340
330
2D7
100
AcDbEntity
  8
R-ANNO-TEXT
370
    20
100
AcDbVertex
100
AcDb2dVertex
 10
-0.2082419721656126
 20
-0.3417733052978789
 30
0.0
 70
     8
  0
VERTEX
  5
341
330
2D7
100
AcDbEntity
  8
R-ANNO-TEXT
370
    20
100
AcDbVertex
100
AcDb2dVertex
 10
-0.2060061192667695
 20
-0.342964095844251
 30
0.0
 70
     8
  0
VERTEX
  5
342
330
2D7
100
AcDbEntity
  8
R-ANNO-TEXT
370
    20
100
AcDbVertex
100
AcDb2dVertex
 10
-0.20403992849648
 20
-0.3441849761457032
 30
0.0
 70
     8
  0
VERTEX
  5
343
330
2D7
100
AcDbEntity
  8
R-ANNO-TEXT
370
    20
100
AcDbVertex
100
AcDb2dVertex
 10
-0.2023329292374387
 20
-0.3454320578602306
 30
0.0
 70
     8
  0
VERTEX
  5
344
330
2D7
100
AcDbEntity
  8
R-ANNO-TEXT
370
    20
100
AcDbVertex
100
AcDb2dVertex
 10
-0.2008657359175003
 20
-0.3466999571263392
 30
0.0
 70
     8
  0
VERTEX
  5
345
330
2D7
100
AcDbEntity
  8
R-ANNO-TEXT
370
    20
100
AcDbVertex
100
AcDb2dVertex
 10
-0.1996189629645162
 20
-0.3479832900825368
 30
0.0
 70
     8
  0
VERTEX
  5
346
330
2D7
100
AcDbEntity
  8
R-ANNO-TEXT
370
    20
100
AcDbVertex
100
AcDb2dVertex
 10
-0.1985732248063365
 20
-0.34927667286733
 30
0.0
 70
     8
  0
VERTEX
  5
347
330
2D7
100
AcDbEntity
  8
R-ANNO-TEXT
370
    20
100
AcDbVertex
100
AcDb2dVertex
 10
-0.197709135870815
 20
-0.3505747216192261
 30
0.0
 70
     8
  0
VERTEX
  5
348
330
2D7
100
AcDbEntity
  8
R-ANNO-TEXT
370
    20
100
AcDbVertex
100
AcDb2dVertex
 10
-0.1970073105858028
 20
-0.3518720524767325
 30
0.0
 70
     8
  0
VERTEX
  5
349
330
2D7
100
AcDbEntity
  8
R-ANNO-TEXT
370
    20
100
AcDbVertex
100
AcDb2dVertex
 10
-0.1964483633791514
 20
-0.3531632815783556
 30
0.0
 70
     8
  0
VERTEX
  5
34A
330
2D7
100
AcDbEntity
  8
R-ANNO-TEXT
370
    20
100
AcDbVertex
100
AcDb2dVertex
 10
-0.1960165584324369
 20
-0.3544442214810792
 30
0.0
 70
     8
  0
VERTEX
  5
34B
330
2D7
100
AcDbEntity
  8
R-ANNO-TEXT
370
    20
100
AcDbVertex
100
AcDb2dVertex
 10
-0.1957107589421203
 20
-0.3557154704157943
 30
0.0
 70
     8
  0
VERTEX
  5
34C
330
2D7
100
AcDbEntity
  8
R-ANNO-TEXT
370
    20
100
AcDbVertex
100
AcDb2dVertex
 10
-0.1955334778583906
 20
-0.3569788230318673
 30
0.0
 70
     8
  0
VERTEX
  5
34D
330
2D7
100
AcDbEntity
  8
R-ANNO-TEXT
370
    20
100
AcDbVertex
100
AcDb2dVertex
 10
-0.1954872281314335
 20
-0.3582360739786656
 30
0.0
 70
     8
  0
VERTEX
  5
34E
330
2D7
100
AcDbEntity
  8
R-ANNO-TEXT
370
    20
100
AcDbVertex
100
AcDb2dVertex
 10
-0.1955745227114347
 20
-0.3594890179055561
 30
0.0
 70
     8
  0
VERTEX
  5
34F
330
2D7
100
AcDbEntity
  8
R-ANNO-TEXT
370
    20
100
AcDbVertex
100
AcDb2dVertex
 10
-0.19579787454858
 20
-0.3607394494619052
 30
0.0
 70
     8
  0
VERTEX
  5
350
330
2D7
100
AcDbEntity
  8
R-ANNO-TEXT
370
    20
100
AcDbVertex
100
AcDb2dVertex
 10
-0.1961597965930573
 20
-0.3619891632970811
 30
0.0
 70
     8
  0
VERTEX
  5
351
330
2D7
100
AcDbEntity
  8
R-ANNO-TEXT
370
    20
100
AcDbVertex
100
AcDb2dVertex
 10
-0.1966628017950511
 20
-0.3632399540604498
 30
0.0
 70
     8
  0
VERTEX
  5
352
330
2D7
100
AcDbEntity
  8
R-ANNO-TEXT
370
    20
100
AcDbVertex
100
AcDb2dVertex
 10
-0.1973082663012138
 20
-0.3644918217664461
 30
0.0
 70
     8
  0
VERTEX
  5
353
330
2D7
100
AcDbEntity
  8
R-ANNO-TEXT
370
    20
100
AcDbVertex
100
AcDb2dVertex
 10
-0.19809301904405
 20
-0.3657375878897762
 30
0.0
 70
     8
  0
VERTEX
  5
354
330
2D7
100
AcDbEntity
  8
R-ANNO-TEXT
370
    20
100
AcDbVertex
100
AcDb2dVertex
 10
-0.1990127521525298
 20
-0.3669682792702122
 30
0.0
 70
     8
  0
VERTEX
  5
355
330
2D7
100
AcDbEntity
  8
R-ANNO-TEXT
370
    20
100
AcDbVertex
100
AcDb2dVertex
 10
-0.2000631577556233
 20
-0.3681749227475275
 30
0.0
 70
     8
  0
VERTEX
  5
356
330
2D7
100
AcDbEntity
  8
R-ANNO-TEXT
370
    20
100
AcDbVertex
100
AcDb2dVertex
 10
-0.2012399279822996
 20
-0.3693485451614951
 30
0.0
 70
     8
  0
VERTEX
  5
357
330
2D7
100
AcDbEntity
  8
R-ANNO-TEXT
370
    20
100
AcDbVertex
100
AcDb2dVertex
 10
-0.2025387549615298
 20
-0.3704801733518885
 30
0.0
 70
     8
  0
VERTEX
  5
358
330
2D7
100
AcDbEntity
  8
R-ANNO-TEXT
370
    20
100
AcDbVertex
100
AcDb2dVertex
 10
-0.203955330822283
 20
-0.3715608341584802
 30
0.0
 70
     8
  0
VERTEX
  5
359
330
2D7
100
AcDbEntity
  8
R-ANNO-TEXT
370
    20
100
AcDbVertex
100
AcDb2dVertex
 10
-0.2054853476935292
 20
-0.3725815544210431
 30
0.0
 70
     8
  0
VERTEX
  5
35A
330
2D7
100
AcDbEntity
  8
R-ANNO-TEXT
370
    20
100
AcDbVertex
100
AcDb2dVertex
 10
-0.2071224634318081
 20
-0.3735344377704144
 30
0.0
 70
     8
  0
VERTEX
  5
35B
330
2D7
100
AcDbEntity
  8
R-ANNO-TEXT
370
    20
100
AcDbVertex
100
AcDb2dVertex
 10
-0.2088521988039349
 20
-0.3744158950016856
 30
0.0
 70
     8
  0
VERTEX
  5
35C
330
2D7
100
AcDbEntity
  8
R-ANNO-TEXT
370
    20
100
AcDbVertex
100
AcDb2dVertex
 10
-0.2106580403042924
 20
-0.3752234137010113
 30
0.0
 70
     8
  0
VERTEX
  5
35D
330
2D7
100
AcDbEntity
  8
R-ANNO-TEXT
370
    20
100
AcDbVertex
100
AcDb2dVertex
 10
-0.2125234744272686
 20
-0.3759544814545466
 30
0.0
 70
     8
  0
VERTEX
  5
35E
330
2D7
100
AcDbEntity
  8
R-ANNO-TEXT
370
    20
100
AcDbVertex
100
AcDb2dVertex
 10
-0.2144319876672451
 20
-0.3766065858484469
 30
0.0
 70
     8
  0
VERTEX
  5
35F
330
2D7
100
AcDbEntity
  8
R-ANNO-TEXT
370
    20
100
AcDbVertex
100
AcDb2dVertex
 10
-0.2163670665186079
 20
-0.3771772144688672
 30
0.0
 70
     8
  0
VERTEX
  5
360
330
2D7
100
AcDbEntity
  8
R-ANNO-TEXT
370
    20
100
AcDbVertex
100
AcDb2dVertex
 10
-0.2183121974757407
 20
-0.3776638549019626
 30
0.0
 70
     8
  0
VERTEX
  5
361
330
2D7
100
AcDbEntity
  8
R-ANNO-TEXT
370
    20
100
AcDbVertex
100
AcDb2dVertex
 10
-0.2202508670330294
 20
-0.3780639947338882
 30
0.0
 70
     8
  0
VERTEX
  5
362
330
2D7
100
AcDbEntity
  8
R-ANNO-TEXT
370
    20
100
AcDbVertex
100
AcDb2dVertex
 10
-0.2221703310592993
 20
-0.3783758992119828
 30
0.0
 70
     8
  0
VERTEX
  5
363
330
2D7
100
AcDbEntity
  8
R-ANNO-TEXT
370
    20
100
AcDbVertex
100
AcDb2dVertex
 10
-0.2240729229211447
 20
-0.3786009442283209
 30
0.0
 70
     8
  0
VERTEX
  5
364
330
2D7
100
AcDbEntity
  8
R-ANNO-TEXT
370
    20
100
AcDbVertex
100
AcDb2dVertex
 10
-0.2259647453596036
 20
-0.3787412833361596
 30
0.0
 70
     8
  0
VERTEX
  5
365
330
2D7
100
AcDbEntity
  8
R-ANNO-TEXT
370
    20
100
AcDbVertex
100
AcDb2dVertex
 10
-0.2278519011157098
 20
-0.3787990700887582
 30
0.0
 70
     8
  0
VERTEX
  5
366
330
2D7
100
AcDbEntity
  8
R-ANNO-TEXT
370
    20
100
AcDbVertex
100
AcDb2dVertex
 10
-0.2297404929305025
 20
-0.3787764580393733
 30
0.0
 70
     8
  0
VERTEX
  5
367
330
2D7
100
AcDbEntity
  8
R-ANNO-TEXT
370
    20
100
AcDbVertex
100
AcDb2dVertex
 10
-0.2316366235450162
 20
-0.3786756007412642
 30
0.0
 70
     8
  0
VERTEX
  5
368
330
2D7
100
AcDbEntity
  8
R-ANNO-TEXT
370
    20
100
AcDbVertex
100
AcDb2dVertex
 10
-0.2335463957002881
 20
-0.3784986517476878
 30
0.0
 70
     8
  0
VERTEX
  5
369
330
2D7
100
AcDbEntity
  8
R-ANNO-TEXT
370
    20
100
AcDbVertex
100
AcDb2dVertex
 10
-0.235475912137354
 20
-0.3782477646119027
 30
0.0
 70
     8
  0
VERTEX
  5
36A
330
2D7
100
AcDbEntity
  8
R-ANNO-TEXT
370
    20
100
AcDbVertex
100
AcDb2dVertex
 10
-0.2374275660501146
 20
-0.3779243152043303
 30
0.0
 70
     8
  0
VERTEX
  5
36B
330
2D7
100
AcDbEntity
  8
R-ANNO-TEXT
370
    20
100
AcDbVertex
100
AcDb2dVertex
 10
-0.239388912443923
 20
-0.3775265686640505
 30
0.0
 70
     8
  0
VERTEX
  5
36C
330
2D7
100
AcDbEntity
  8
R-ANNO-TEXT
370
    20
100
AcDbVertex
100
AcDb2dVertex
 10
-0.2413437967769993
 20
-0.3770520124473058
 30
0.0
 70
     8
  0
VERTEX
  5
36D
330
2D7
100
AcDbEntity
  8
R-ANNO-TEXT
370
    20
100
AcDbVertex
100
AcDb2dVertex
 10
-0.2432760645075604
 20
-0.3764981340103386
 30
0.0
 70
     8
  0
VERTEX
  5
36E
330
2D7
100
AcDbEntity
  8
R-ANNO-TEXT
370
    20
100
AcDbVertex
100
AcDb2dVertex
 10
-0.2451695610938265
 20
-0.3758624208093928
 30
0.0
 70
     8
  0
VERTEX
  5
36F
330
2D7
100
AcDbEntity
  8
R-ANNO-TEXT
370
    20
100
AcDbVertex
100
AcDb2dVertex
 10
-0.2470081319940143
 20
-0.3751423603007105
 30
0.0
 70
     8
  0
VERTEX
  5
370
330
2D7
100
AcDbEntity
  8
R-ANNO-TEXT
370
    20
100
AcDbVertex
100
AcDb2dVertex
 10
-0.2487756226663418
 20
-0.3743354399405354
 30
0.0
 70
     8
  0
VERTEX
  5
371
330
2D7
100
AcDbEntity
  8
R-ANNO-TEXT
370
    20
100
AcDbVertex
100
AcDb2dVertex
 10
-0.2504558785690292
 20
-0.3734391471851102
 30
0.0
 70
     8
  0
VERTEX
  5
372
330
2D7
100
AcDbEntity
  8
R-ANNO-TEXT
370
    20
100
AcDbVertex
100
AcDb2dVertex
 10
-0.2520354375839229
 20
-0.3724543792941617
 30
0.0
 70
     8
  0
VERTEX
  5
373
330
2D7
100
AcDbEntity
  8
R-ANNO-TEXT
370
    20
100
AcDbVertex
100
AcDb2dVertex
 10
-0.2535116072873944
 20
-0.3713956727413565
 30
0.0
 70
     8
  0
VERTEX
  5
374
330
2D7
100
AcDbEntity
  8
R-ANNO-TEXT
370
    20
100
AcDbVertex
100
AcDb2dVertex
 10
-0.2548843876794427
 20
-0.3702809738038435
 30
0.0
 70
     8
  0
VERTEX
  5
375
330
2D7
100
AcDbEntity
  8
R-ANNO-TEXT
370
    20
100
AcDbVertex
100
AcDb2dVertex
 10
-0.2561537787600676
 20
-0.3691282287587727
 30
0.0
 70
     8
  0
VERTEX
  5
376
330
2D7
100
AcDbEntity
  8
R-ANNO-TEXT
370
    20
100
AcDbVertex
100
AcDb2dVertex
 10
-0.2573197805292704
 20
-0.3679553838832943
 30
0.0
 70
     8
  0
VERTEX
  5
377
330
2D7
100
AcDbEntity
  8
R-ANNO-TEXT
370
    20
100
AcDbVertex
100
AcDb2dVertex
 10
-0.2583823929870499
 20
-0.3667803854545579
 30
0.0
 70
     8
  0
VERTEX
  5
378
330
2D7
100
AcDbEntity
  8
R-ANNO-TEXT
370
    20
100
AcDbVertex
100
AcDb2dVertex
 10
-0.2593416161334061
 20
-0.3656211797497129
 30
0.0
 70
     8
  0
VERTEX
  5
379
330
2D7
100
AcDbEntity
  8
R-ANNO-TEXT
370
    20
100
AcDbVertex
100
AcDb2dVertex
 10
-0.2601974499683401
 20
-0.3644957130459101
 30
0.0
 70
     8
  0
VERTEX
  5
37A
330
2D7
100
AcDbEntity
  8
R-ANNO-TEXT
370
    20
100
AcDbVertex
100
AcDb2dVertex
 10
-0.2609510312953878
 20
-0.3634185218240313
 30
0.0
 70
     8
  0
VERTEX
  5
37B
330
2D7
100
AcDbEntity
  8
R-ANNO-TEXT
370
    20
100
AcDbVertex
100
AcDb2dVertex
 10
-0.2616080441322288
 20
-0.3623905033798911
 30
0.0
 70
     8
  0
VERTEX
  5
37C
330
2D7
100
AcDbEntity
  8
R-ANNO-TEXT
370
    20
100
AcDbVertex
100
AcDb2dVertex
 10
-0.2621753093000789
 20
-0.3614091452130363
 30
0.0
 70
     8
  0
VERTEX
  5
37D
330
2D7
100
AcDbEntity
  8
R-ANNO-TEXT
370
    20
100
AcDbVertex
100
AcDb2dVertex
 10
-0.2626596476201559
 20
-0.3604719348230145
 30
0.0
 70
     8
  0
VERTEX
  5
37E
330
2D7
100
AcDbEntity
  8
R-ANNO-TEXT
370
    20
100
AcDbVertex
100
AcDb2dVertex
 10
-0.2630678799136754
 20
-0.3595763597093717
 30
0.0
 70
     8
  0
VERTEX
  5
37F
330
2D7
100
AcDbEntity
  8
R-ANNO-TEXT
370
    20
100
AcDbVertex
100
AcDb2dVertex
 10
-0.2634068270018552
 20
-0.3587199073716558
 30
0.0
 70
     8
  0
VERTEX
  5
380
330
2D7
100
AcDbEntity
  8
R-ANNO-TEXT
370
    20
100
AcDbVertex
100
AcDb2dVertex
 10
-0.2636833097059099
 20
-0.3579000653094133
 30
0.0
 70
     8
  0
VERTEX
  5
381
330
2D7
100
AcDbEntity
  8
R-ANNO-TEXT
370
    20
100
AcDbVertex
100
AcDb2dVertex
 10
-0.2639041488470573
 20
-0.3571143210221916
 30
0.0
 70
     8
  0
VERTEX
  5
382
330
2D7
100
AcDbEntity
  8
R-ANNO-TEXT
370
    20
100
AcDbVertex
100
AcDb2dVertex
 10
-0.2640843621974342
 20
-0.3563615977117096
 30
0.0
 70
     8
  0
VERTEX
  5
383
330
2D7
100
AcDbEntity
  8
R-ANNO-TEXT
370
    20
100
AcDbVertex
100
AcDb2dVertex
 10
-0.2642717553328611
 20
-0.3556465613883741
 30
0.0
 70
     8
  0
VERTEX
  5
384
330
2D7
100
AcDbEntity
  8
R-ANNO-TEXT
370
    20
100
AcDbVertex
100
AcDb2dVertex
 10
-0.2645223307800792
 20
-0.3549753137647635
 30
0.0
 70
     8
  0
VERTEX
  5
385
330
2D7
100
AcDbEntity
  8
R-ANNO-TEXT
370
    20
100
AcDbVertex
100
AcDb2dVertex
 10
-0.2648920910658314
 20
-0.3543539565534579
 30
0.0
 70
     8
  0
VERTEX
  5
386
330
2D7
100
AcDbEntity
  8
R-ANNO-TEXT
370
    20
100
AcDbVertex
100
AcDb2dVertex
 10
-0.2654370387168581
 20
-0.3537885914670356
 30
0.0
 70
     8
  0
VERTEX
  5
387
330
2D7
100
AcDbEntity
  8
R-ANNO-TEXT
370
    20
100
AcDbVertex
100
AcDb2dVertex
 10
-0.2662131762599018
 20
-0.3532853202180752
 30
0.0
 70
     8
  0
VERTEX
  5
388
330
2D7
100
AcDbEntity
  8
R-ANNO-TEXT
370
    20
100
AcDbVertex
100
AcDb2dVertex
 10
-0.267276506221702
 20
-0.3528502445191561
 30
0.0
 70
     8
  0
VERTEX
  5
389
330
2D7
100
AcDbEntity
  8
R-ANNO-TEXT
370
    20
100
AcDbVertex
100
AcDb2dVertex
 10
-0.2686830311290023
 20
-0.352489466082857
 30
0.0
 70
     8
  0
VERTEX
  5
38A
330
2D7
100
AcDbEntity
  8
R-ANNO-TEXT
370
    20
100
AcDbVertex
100
AcDb2dVertex
 10
-0.270463911434462
 20
-0.3522068357205104
 30
0.0
 70
     8
  0
VERTEX
  5
38B
330
2D7
100
AcDbEntity
  8
R-ANNO-TEXT
370
    20
100
AcDbVertex
100
AcDb2dVertex
 10
-0.2725509392944125
 20
-0.35199720063846
 30
0.0
 70
     8
  0
VERTEX
  5
38C
330
2D7
100
AcDbEntity
  8
R-ANNO-TEXT
370
    20
100
AcDbVertex
100
AcDb2dVertex
 10
-0.274851064791104
 20
-0.3518531571418046
 30
0.0
 70
     8
  0
VERTEX
  5
38D
330
2D7
100
AcDbEntity
  8
R-ANNO-TEXT
370
    20
100
AcDbVertex
100
AcDb2dVertex
 10
-0.2772712380067865
 20
-0.3517673015356411
 30
0.0
 70
     8
  0
VERTEX
  5
38E
330
2D7
100
AcDbEntity
  8
R-ANNO-TEXT
370
    20
100
AcDbVertex
100
AcDb2dVertex
 10
-0.2797184090237104
 20
-0.3517322301250676
 30
0.0
 70
     8
  0
VERTEX
  5
38F
330
2D7
100
AcDbEntity
  8
R-ANNO-TEXT
370
    20
100
AcDbVertex
100
AcDb2dVertex
 10
-0.2820995279241245
 20
-0.3517405392151822
 30
0.0
 70
     8
  0
VERTEX
  5
390
330
2D7
100
AcDbEntity
  8
R-ANNO-TEXT
370
    20
100
AcDbVertex
100
AcDb2dVertex
 10
-0.2843215447902803
 20
-0.351784825111082
 30
0.0
 70
     8
  0
VERTEX
  5
391
330
2D7
100
AcDbEntity
  8
R-ANNO-TEXT
370
    20
100
AcDbVertex
100
AcDb2dVertex
 10
-0.2862914097044267
 20
-0.3518576841178653
 30
0.0
 70
     8
  0
VERTEX
  5
392
330
2D7
100
AcDbEntity
  8
R-ANNO-TEXT
370
    20
100
AcDbVertex
100
AcDb2dVertex
 10
-0.2879327976928803
 20
-0.3519593719448832
 30
0.0
 70
     8
  0
VERTEX
  5
393
330
2D7
100
AcDbEntity
  8
R-ANNO-TEXT
370
    20
100
AcDbVertex
100
AcDb2dVertex
 10
-0.2892362835582296
 20
-0.3521207819185035
 30
0.0
 70
     8
  0
VERTEX
  5
394
330
2D7
100
AcDbEntity
  8
R-ANNO-TEXT
370
    20
100
AcDbVertex
100
AcDb2dVertex
 10
-0.2902091670471285
 20
-0.3523804667693469
 30
0.0
 70
     8
  0
VERTEX
  5
395
330
2D7
100
AcDbEntity
  8
R-ANNO-TEXT
370
    20
100
AcDbVertex
100
AcDb2dVertex
 10
-0.2908587479062308
 20
-0.3527769792280342
 30
0.0
 70
     8
  0
VERTEX
  5
396
330
2D7
100
AcDbEntity
  8
R-ANNO-TEXT
370
    20
100
AcDbVertex
100
AcDb2dVertex
 10
-0.2911923258821913
 20
-0.3533488720251872
 30
0.0
 70
     8
  0
VERTEX
  5
397
330
2D7
100
AcDbEntity
  8
R-ANNO-TEXT
370
    20
100
AcDbVertex
100
AcDb2dVertex
 10
-0.2912172007216629
 20
-0.3541346978914261
 30
0.0
 70
     8
  0
VERTEX
  5
398
330
2D7
100
AcDbEntity
  8
R-ANNO-TEXT
370
    20
100
AcDbVertex
100
AcDb2dVertex
 10
-0.2909406721713004
 20
-0.3551730095573728
 30
0.0
 70
     8
  0
VERTEX
  5
399
330
2D7
100
AcDbEntity
  8
R-ANNO-TEXT
370
    20
100
AcDbVertex
100
AcDb2dVertex
 10
-0.2903700399777587
 20
-0.3565023597536481
 30
0.0
 70
     8
  0
VERTEX
  5
39A
330
2D7
100
AcDbEntity
  8
R-ANNO-TEXT
370
    20
100
AcDbVertex
100
AcDb2dVertex
 10
-0.289516027309229
 20
-0.3581456791812627
 30
0.0
 70
     8
  0
VERTEX
  5
39B
330
2D7
100
AcDbEntity
  8
R-ANNO-TEXT
370
    20
100
AcDbVertex
100
AcDb2dVertex
 10
-0.2884030510200486
 20
-0.3600634104227907
 30
0.0
 70
     8
  0
VERTEX
  5
39C
330
2D7
100
AcDbEntity
  8
R-ANNO-TEXT
370
    20
100
AcDbVertex
100
AcDb2dVertex
 10
-0.2870589513860955
 20
-0.3622003740311945
 30
0.0
 70
     8
  0
VERTEX
  5
39D
330
2D7
100
AcDbEntity
  8
R-ANNO-TEXT
370
    20
100
AcDbVertex
100
AcDb2dVertex
 10
-0.2855115686832455
 20
-0.3645013905594383
 30
0.0
 70
     8
  0
VERTEX
  5
39E
330
2D7
100
AcDbEntity
  8
R-ANNO-TEXT
370
    20
100
AcDbVertex
100
AcDb2dVertex
 10
-0.2837887431873742
 20
-0.366911280560485
 30
0.0
 70
     8
  0
VERTEX
  5
39F
330
2D7
100
AcDbEntity
  8
R-ANNO-TEXT
370
    20
100
AcDbVertex
100
AcDb2dVertex
 10
-0.2819183151743587
 20
-0.3693748645872983
 30
0.0
 70
     8
  0
VERTEX
  5
3A0
330
2D7
100
AcDbEntity
  8
R-ANNO-TEXT
370
    20
100
AcDbVertex
100
AcDb2dVertex
 10
-0.2799281249200725
 20
-0.3718369631928411
 30
0.0
 70
     8
  0
VERTEX
  5
3A1
330
2D7
100
AcDbEntity
  8
R-ANNO-TEXT
370
    20
100
AcDbVertex
100
AcDb2dVertex
 10
-0.2778460127003957
 20
-0.3742423969300774
 30
0.0
 70
     8
  0
VERTEX
  5
3A2
330
2D7
100
AcDbEntity
  8
R-ANNO-TEXT
370
    20
100
AcDbVertex
100
AcDb2dVertex
 10
-0.275698225141302
 20
-0.3765438607824389
 30
0.0
 70
     8
  0
VERTEX
  5
3A3
330
2D7
100
AcDbEntity
  8
R-ANNO-TEXT
370
    20
100
AcDbVertex
100
AcDb2dVertex
 10
-0.2735046342691749
 20
-0.3787255474552342
 30
0.0
 70
     8
  0
VERTEX
  5
3A4
330
2D7
100
AcDbEntity
  8
R-ANNO-TEXT
370
    20
100
AcDbVertex
100
AcDb2dVertex
 10
-0.2712835184604989
 20
-0.3807795240842404
 30
0.0
 70
     8
  0
VERTEX
  5
3A5
330
2D7
100
AcDbEntity
  8
R-ANNO-TEXT
370
    20
100
AcDbVertex
100
AcDb2dVertex
 10
-0.2690531560917564
 20
-0.3826978578052351
 30
0.0
 70
     8
  0
VERTEX
  5
3A6
330
2D7
100
AcDbEntity
  8
R-ANNO-TEXT
370
    20
100
AcDbVertex
100
AcDb2dVertex
 10
-0.2668318255394297
 20
-0.384472615753995
 30
0.0
 70
     8
  0
VERTEX
  5
3A7
330
2D7
100
AcDbEntity
  8
R-ANNO-TEXT
370
    20
100
AcDbVertex
100
AcDb2dVertex
 10
-0.2646378051800036
 20
-0.3860958650662973
 30
0.0
 70
     8
  0
VERTEX
  5
3A8
330
2D7
100
AcDbEntity
  8
R-ANNO-TEXT
370
    20
100
AcDbVertex
100
AcDb2dVertex
 10
-0.2624893733899603
 20
-0.3875596728779196
 30
0.0
 70
     8
  0
VERTEX
  5
3A9
330
2D7
100
AcDbEntity
  8
R-ANNO-TEXT
370
    20
100
AcDbVertex
100
AcDb2dVertex
 10
-0.2604048085457833
 20
-0.3888561063246394
 30
0.0
 70
     8
  0
VERTEX
  5
3AA
330
2D7
100
AcDbEntity
  8
R-ANNO-TEXT
370
    20
100
AcDbVertex
100
AcDb2dVertex
 10
-0.2583923774704255
 20
-0.3899808817299504
 30
0.0
 70
     8
  0
VERTEX
  5
3AB
330
2D7
100
AcDbEntity
  8
R-ANNO-TEXT
370
    20
100
AcDbVertex
100
AcDb2dVertex
 10
-0.2564203007727117
 20
-0.3909443121682194
 30
0.0
 70
     8
  0
VERTEX
  5
3AC
330
2D7
100
AcDbEntity
  8
R-ANNO-TEXT
370
    20
100
AcDbVertex
100
AcDb2dVertex
 10
-0.2544467875079381
 20
-0.3917603599015282
 30
0.0
 70
     8
  0
VERTEX
  5
3AD
330
2D7
100
AcDbEntity
  8
R-ANNO-TEXT
370
    20
100
AcDbVertex
100
AcDb2dVertex
 10
-0.2524300467313989
 20
-0.3924429871919606
 30
0.0
 70
     8
  0
VERTEX
  5
3AE
330
2D7
100
AcDbEntity
  8
R-ANNO-TEXT
370
    20
100
AcDbVertex
100
AcDb2dVertex
 10
-0.2503282874983881
 20
-0.3930061563015998
 30
0.0
 70
     8
  0
VERTEX
  5
3AF
330
2D7
100
AcDbEntity
  8
R-ANNO-TEXT
370
    20
100
AcDbVertex
100
AcDb2dVertex
 10
-0.248099718864202
 20
-0.3934638294925281
 30
0.0
 70
     8
  0
VERTEX
  5
3B0
330
2D7
100
AcDbEntity
  8
R-ANNO-TEXT
370
    20
100
AcDbVertex
100
AcDb2dVertex
 10
-0.2457025498841348
 20
-0.3938299690268292
 30
0.0
 70
     8
  0
VERTEX
  5
3B1
330
2D7
100
AcDbEntity
  8
R-ANNO-TEXT
370
    20
100
AcDbVertex
100
AcDb2dVertex
 10
-0.2430949896134804
 20
-0.3941185371665856
 30
0.0
 70
     8
  0
VERTEX
  5
3B2
330
2D7
100
AcDbEntity
  8
R-ANNO-TEXT
370
    20
100
AcDbVertex
100
AcDb2dVertex
 10
-0.2402497011168292
 20
-0.39433987615093
 30
0.0
 70
     8
  0
VERTEX
  5
3B3
330
2D7
100
AcDbEntity
  8
R-ANNO-TEXT
370
    20
100
AcDbVertex
100
AcDb2dVertex
 10
-0.2371971634959469
 20
-0.3944898481271895
 30
0.0
 70
     8
  0
VERTEX
  5
3B4
330
2D7
100
AcDbEntity
  8
R-ANNO-TEXT
370
    20
100
AcDbVertex
100
AcDb2dVertex
 10
-0.2339823098618943
 20
-0.3945606952197416
 30
0.0
 70
     8
  0
VERTEX
  5
3B5
330
2D7
100
AcDbEntity
  8
R-ANNO-TEXT
370
    20
100
AcDbVertex
100
AcDb2dVertex
 10
-0.2306500733257322
 20
-0.3945446595529631
 30
0.0
 70
     8
  0
VERTEX
  5
3B6
330
2D7
100
AcDbEntity
  8
R-ANNO-TEXT
370
    20
100
AcDbVertex
100
AcDb2dVertex
 10
-0.2272453869985203
 20
-0.3944339832512305
 30
0.0
 70
     8
  0
VERTEX
  5
3B7
330
2D7
100
AcDbEntity
  8
R-ANNO-TEXT
370
    20
100
AcDbVertex
100
AcDb2dVertex
 10
-0.2238131839913215
 20
-0.3942209084389208
 30
0.0
 70
     8
  0
VERTEX
  5
3B8
330
2D7
100
AcDbEntity
  8
R-ANNO-TEXT
370
    20
100
AcDbVertex
100
AcDb2dVertex
 10
-0.2203983974151935
 20
-0.3938976772404112
 30
0.0
 70
     8
  0
VERTEX
  5
3B9
330
2D7
100
AcDbEntity
  8
R-ANNO-TEXT
370
    20
100
AcDbVertex
100
AcDb2dVertex
 10
-0.2170459603811992
 20
-0.3934565317800782
 30
0.0
 70
     8
  0
VERTEX
  5
3BA
330
2D7
100
AcDbEntity
  8
R-ANNO-TEXT
370
    20
100
AcDbVertex
100
AcDb2dVertex
 10
-0.2137941148064226
 20
-0.3928908926440329
 30
0.0
 70
     8
  0
VERTEX
  5
3BB
330
2D7
100
AcDbEntity
  8
R-ANNO-TEXT
370
    20
100
AcDbVertex
100
AcDb2dVertex
 10
-0.210654337832048
 20
-0.3921988942653241
 30
0.0
 70
     8
  0
VERTEX
  5
3BC
330
2D7
100
AcDbEntity
  8
R-ANNO-TEXT
370
    20
100
AcDbVertex
100
AcDb2dVertex
 10
-0.2076314154052838
 20
-0.391379849538735
 30
0.0
 70
     8
  0
VERTEX
  5
3BD
330
2D7
100
AcDbEntity
  8
R-ANNO-TEXT
370
    20
100
AcDbVertex
100
AcDb2dVertex
 10
-0.2047301334733365
 20
-0.3904330713590491
 30
0.0
 70
     8
  0
VERTEX
  5
3BE
330
2D7
100
AcDbEntity
  8
R-ANNO-TEXT
370
    20
100
AcDbVertex
100
AcDb2dVertex
 10
-0.2019552779834155
 20
-0.3893578726210483
 30
0.0
 70
     8
  0
VERTEX
  5
3BF
330
2D7
100
AcDbEntity
  8
R-ANNO-TEXT
370
    20
100
AcDbVertex
100
AcDb2dVertex
 10
-0.1993116348827284
 20
-0.3881535662195166
 30
0.0
 70
     8
  0
VERTEX
  5
3C0
330
2D7
100
AcDbEntity
  8
R-ANNO-TEXT
370
    20
100
AcDbVertex
100
AcDb2dVertex
 10
-0.1968039901184826
 20
-0.3868194650492365
 30
0.0
 70
     8
  0
VERTEX
  5
3C1
330
2D7
100
AcDbEntity
  8
R-ANNO-TEXT
370
    20
100
AcDbVertex
100
AcDb2dVertex
 10
-0.1944371296378877
 20
-0.3853548820049912
 30
0.0
 70
     8
  0
VERTEX
  5
3C2
330
2D7
100
AcDbEntity
  8
R-ANNO-TEXT
370
    20
100
AcDbVertex
100
AcDb2dVertex
 10
-0.1922151011932516
 20
-0.3837619177297182
 30
0.0
 70
     8
  0
VERTEX
  5
3C3
330
2D7
100
AcDbEntity
  8
R-ANNO-TEXT
370
    20
100
AcDbVertex
100
AcDb2dVertex
 10
-0.1901389997572944
 20
-0.3820538238589721
 30
0.0
 70
     8
  0
VERTEX
  5
3C4
330
2D7
100
AcDbEntity
  8
R-ANNO-TEXT
370
    20
100
AcDbVertex
100
AcDb2dVertex
 10
-0.1882091821078347
 20
-0.3802466397764612
 30
0.0
 70
     8
  0
VERTEX
  5
3C5
330
2D7
100
AcDbEntity
  8
R-ANNO-TEXT
370
    20
100
AcDbVertex
100
AcDb2dVertex
 10
-0.1864260050226918
 20
-0.3783564048658947
 30
0.0
 70
     8
  0
VERTEX
  5
3C6
330
2D7
100
AcDbEntity
  8
R-ANNO-TEXT
370
    20
100
AcDbVertex
100
AcDb2dVertex
 10
-0.1847898252796865
 20
-0.3763991585109814
 30
0.0
 70
     8
  0
VERTEX
  5
3C7
330
2D7
100
AcDbEntity
  8
R-ANNO-TEXT
370
    20
100
AcDbVertex
100
AcDb2dVertex
 10
-0.1833009996566381
 20
-0.3743909400954304
 30
0.0
 70
     8
  0
VERTEX
  5
3C8
330
2D7
100
AcDbEntity
  8
R-ANNO-TEXT
370
    20
100
AcDbVertex
100
AcDb2dVertex
 10
-0.1819598849313664
 20
-0.3723477890029501
 30
0.0
 70
     8
  0
VERTEX
  5
3C9
330
2D7
100
AcDbEntity
  8
R-ANNO-TEXT
370
    20
100
AcDbVertex
100
AcDb2dVertex
 10
-0.1807668378816896
 20
-0.3702857446172492
 30
0.0
 70
     8
  0
VERTEX
  5
3CA
330
2D7
100
AcDbEntity
  8
R-ANNO-TEXT
370
    20
100
AcDbVertex
100
AcDb2dVertex
 10
-0.1797204313454936
 20
-0.3682203134369444
 30
0.0
 70
     8
  0
VERTEX
  5
3CB
330
2D7
100
AcDbEntity
  8
R-ANNO-TEXT
370
    20
100
AcDbVertex
100
AcDb2dVertex
 10
-0.1788121024009159
 20
-0.3661648704202811
 30
0.0
 70
     8
  0
VERTEX
  5
3CC
330
2D7
100
AcDbEntity
  8
R-ANNO-TEXT
370
    20
100
AcDbVertex
100
AcDb2dVertex
 10
-0.1780315041861591
 20
-0.3641322576404127
 30
0.0
 70
     8
  0
VERTEX
  5
3CD
330
2D7
100
AcDbEntity
  8
R-ANNO-TEXT
370
    20
100
AcDbVertex
100
AcDb2dVertex
 10
-0.1773682898394246
 20
-0.3621353171704915
 30
0.0
 70
     8
  0
VERTEX
  5
3CE
330
2D7
100
AcDbEntity
  8
R-ANNO-TEXT
370
    20
100
AcDbVertex
100
AcDb2dVertex
 10
-0.1768121124989164
 20
-0.3601868910836714
 30
0.0
 70
     8
  0
VERTEX
  5
3CF
330
2D7
100
AcDbEntity
  8
R-ANNO-TEXT
370
    20
100
AcDbVertex
100
AcDb2dVertex
 10
-0.1763526253028336
 20
-0.3582998214531048
 30
0.0
 70
     8
  0
VERTEX
  5
3D0
330
2D7
100
AcDbEntity
  8
R-ANNO-TEXT
370
    20
100
AcDbVertex
100
AcDb2dVertex
 10
-0.1759794813893811
 20
-0.3564869503519454
 30
0.0
 70
     8
  0
VERTEX
  5
3D1
330
2D7
100
AcDbEntity
  8
R-ANNO-TEXT
370
    20
100
AcDbVertex
100
AcDb2dVertex
 10
-0.1756823338967617
 20
-0.3547611198533458
 30
0.0
 70
     8
  0
VERTEX
  5
3D2
330
2D7
100
AcDbEntity
  8
R-ANNO-TEXT
370
    20
100
AcDbVertex
100
AcDb2dVertex
 10
-0.1754546417118741
 20
-0.3531292266310326
 30
0.0
 70
     8
  0
VERTEX
  5
3D3
330
2D7
100
AcDbEntity
  8
R-ANNO-TEXT
370
    20
100
AcDbVertex
100
AcDb2dVertex
 10
-0.1753050867164119
 20
-0.3515743857610305
 30
0.0
 70
     8
  0
VERTEX
  5
3D4
330
2D7
100
AcDbEntity
  8
R-ANNO-TEXT
370
    20
100
AcDbVertex
100
AcDb2dVertex
 10
-0.1752461565407659
 20
-0.3500737669199352
 30
0.0
 70
     8
  0
VERTEX
  5
3D5
330
2D7
100
AcDbEntity
  8
R-ANNO-TEXT
370
    20
100
AcDbVertex
100
AcDb2dVertex
 10
-0.1752903388153282
 20
-0.3486045397843447
 30
0.0
 70
     8
  0
VERTEX
  5
3D6
330
2D7
100
AcDbEntity
  8
R-ANNO-TEXT
370
    20
100
AcDbVertex
100
AcDb2dVertex
 10
-0.1754501211704895
 20
-0.3471438740308566
 30
0.0
 70
     8
  0
VERTEX
  5
3D7
330
2D7
100
AcDbEntity
  8
R-ANNO-TEXT
370
    20
100
AcDbVertex
100
AcDb2dVertex
 10
-0.1757379912366419
 20
-0.3456689393360675
 30
0.0
 70
     8
  0
VERTEX
  5
3D8
330
2D7
100
AcDbEntity
  8
R-ANNO-TEXT
370
    20
100
AcDbVertex
100
AcDb2dVertex
 10
-0.1761664366441751
 20
-0.3441569053765749
 30
0.0
 70
     8
  0
VERTEX
  5
3D9
330
2D7
100
AcDbEntity
  8
R-ANNO-TEXT
370
    20
100
AcDbVertex
100
AcDb2dVertex
 10
-0.176747945023481
 20
-0.3425849418289761
 30
0.0
 70
     8
  0
VERTEX
  5
3DA
330
2D7
100
AcDbEntity
  8
R-ANNO-TEXT
370
    20
100
AcDbVertex
100
AcDb2dVertex
 10
-0.1774934579168952
 20
-0.3409372339348398
 30
0.0
 70
     8
  0
VERTEX
  5
3DB
330
2D7
100
AcDbEntity
  8
R-ANNO-TEXT
370
    20
100
AcDbVertex
100
AcDb2dVertex
 10
-0.1784077325145272
 20
-0.3392260291956202
 30
0.0
 70
     8
  0
VERTEX
  5
3DC
330
2D7
100
AcDbEntity
  8
R-ANNO-TEXT
370
    20
100
AcDbVertex
100
AcDb2dVertex
 10
-0.1794939799184281
 20
-0.3374705906777429
 30
0.0
 70
     8
  0
VERTEX
  5
3DD
330
2D7
100
AcDbEntity
  8
R-ANNO-TEXT
370
    20
100
AcDbVertex
100
AcDb2dVertex
 10
-0.1807554112306508
 20
-0.335690181447633
 30
0.0
 70
     8
  0
VERTEX
  5
3DE
330
2D7
100
AcDbEntity
  8
R-ANNO-TEXT
370
    20
100
AcDbVertex
100
AcDb2dVertex
 10
-0.1821952375532487
 20
-0.3339040645717164
 30
0.0
 70
     8
  0
VERTEX
  5
3DF
330
2D7
100
AcDbEntity
  8
R-ANNO-TEXT
370
    20
100
AcDbVertex
100
AcDb2dVertex
 10
-0.1838166699882759
 20
-0.3321315031164187
 30
0.0
 70
     8
  0
VERTEX
  5
3E0
330
2D7
100
AcDbEntity
  8
R-ANNO-TEXT
370
    20
100
AcDbVertex
100
AcDb2dVertex
 10
-0.1856229196377834
 20
-0.3303917601481654
 30
0.0
 70
     8
  0
VERTEX
  5
3E1
330
2D7
100
AcDbEntity
  8
R-ANNO-TEXT
370
    20
100
AcDbVertex
100
AcDb2dVertex
 10
-0.1876171976038243
 20
-0.328704098733382
 30
0.0
 70
     8
  0
VERTEX
  5
3E2
330
2D7
100
AcDbEntity
  8
R-ANNO-TEXT
370
    20
100
AcDbVertex
100
AcDb2dVertex
 10
-0.1898000390700738
 20
-0.3270844525289611
 30
0.0
 70
     8
  0
VERTEX
  5
3E3
330
2D7
100
AcDbEntity
  8
R-ANNO-TEXT
370
    20
100
AcDbVertex
100
AcDb2dVertex
 10
-0.1921612755466984
 20
-0.3255354375536665
 30
0.0
 70
     8
  0
VERTEX
  5
3E4
330
2D7
100
AcDbEntity
  8
R-ANNO-TEXT
370
    20
100
AcDbVertex
100
AcDb2dVertex
 10
-0.1946880626254877
 20
-0.3240563404167274
 30
0.0
 70
     8
  0
VERTEX
  5
3E5
330
2D7
100
AcDbEntity
  8
R-ANNO-TEXT
370
    20
100
AcDbVertex
100
AcDb2dVertex
 10
-0.1973675558982313
 20
-0.322646447727374
 30
0.0
 70
     8
  0
VERTEX
  5
3E6
330
2D7
100
AcDbEntity
  8
R-ANNO-TEXT
370
    20
100
AcDbVertex
100
AcDb2dVertex
 10
-0.2001869109567156
 20
-0.3213050460948374
 30
0.0
 70
     8
  0
VERTEX
  5
3E7
330
2D7
100
AcDbEntity
  8
R-ANNO-TEXT
370
    20
100
AcDbVertex
100
AcDb2dVertex
 10
-0.2031332833927313
 20
-0.3200314221283471
 30
0.0
 70
     8
  0
VERTEX
  5
3E8
330
2D7
100
AcDbEntity
  8
R-ANNO-TEXT
370
    20
100
AcDbVertex
100
AcDb2dVertex
 10
-0.2061938287980669
 20
-0.3188248624371335
 30
0.0
 70
     8
  0
VERTEX
  5
3E9
330
2D7
100
AcDbEntity
  8
R-ANNO-TEXT
370
    20
100
AcDbVertex
100
AcDb2dVertex
 10
-0.2093557027645132
 20
-0.3176846536304274
 30
0.0
 70
     8
  0
VERTEX
  5
3EA
330
2D7
100
AcDbEntity
  8
R-ANNO-TEXT
370
    20
100
AcDbVertex
100
AcDb2dVertex
 10
-0.2126032065426775
 20
-0.3166090715794914
 30
0.0
 70
     8
  0
VERTEX
  5
3EB
330
2D7
100
AcDbEntity
  8
R-ANNO-TEXT
370
    20
100
AcDbVertex
100
AcDb2dVertex
 10
-0.2159092240184557
 20
-0.3155923492037229
 30
0.0
 70
     8
  0
VERTEX
  5
3EC
330
2D7
100
AcDbEntity
  8
R-ANNO-TEXT
370
    20
100
AcDbVertex
100
AcDb2dVertex
 10
-0.2192437847365647
 20
-0.3146277086845526
 30
0.0
 70
     8
  0
VERTEX
  5
3ED
330
2D7
100
AcDbEntity
  8
R-ANNO-TEXT
370
    20
100
AcDbVertex
100
AcDb2dVertex
 10
-0.2225769182417192
 20
-0.3137083722034113
 30
0.0
 70
     8
  0
VERTEX
  5
3EE
330
2D7
100
AcDbEntity
  8
R-ANNO-TEXT
370
    20
100
AcDbVertex
100
AcDb2dVertex
 10
-0.2258786540786362
 20
-0.3128275619417287
 30
0.0
 70
     8
  0
VERTEX
  5
3EF
330
2D7
100
AcDbEntity
  8
R-ANNO-TEXT
370
    20
100
AcDbVertex
100
AcDb2dVertex
 10
-0.2291190217920302
 20
-0.3119785000809361
 30
0.0
 70
     8
  0
VERTEX
  5
3F0
330
2D7
100
AcDbEntity
  8
R-ANNO-TEXT
370
    20
100
AcDbVertex
100
AcDb2dVertex
 10
-0.2322680509266184
 20
-0.3111544088024631
 30
0.0
 70
     8
  0
VERTEX
  5
3F1
330
2D7
100
AcDbEntity
  8
R-ANNO-TEXT
370
    20
100
AcDbVertex
100
AcDb2dVertex
 10
-0.2352957710271153
 20
-0.3103485102877412
 30
0.0
 70
     8
  0
VERTEX
  5
3F2
330
2D7
100
AcDbEntity
  8
R-ANNO-TEXT
370
    20
100
AcDbVertex
100
AcDb2dVertex
 10
-0.2381758743555329
 20
-0.3095539379810033
 30
0.0
 70
     8
  0
VERTEX
  5
3F3
330
2D7
100
AcDbEntity
  8
R-ANNO-TEXT
370
    20
100
AcDbVertex
100
AcDb2dVertex
 10
-0.2408967040430543
 20
-0.308763470377694
 30
0.0
 70
     8
  0
VERTEX
  5
3F4
330
2D7
100
AcDbEntity
  8
R-ANNO-TEXT
370
    20
100
AcDbVertex
100
AcDb2dVertex
 10
-0.2434502659381577
 20
-0.3079697972360611
 30
0.0
 70
     8
  0
VERTEX
  5
3F5
330
2D7
100
AcDbEntity
  8
R-ANNO-TEXT
370
    20
100
AcDbVertex
100
AcDb2dVertex
 10
-0.2458285658893233
 20
-0.3071656083143521
 30
0.0
 70
     8
  0
VERTEX
  5
3F6
330
2D7
100
AcDbEntity
  8
R-ANNO-TEXT
370
    20
100
AcDbVertex
100
AcDb2dVertex
 10
-0.2480236097450295
 20
-0.3063435933708147
 30
0.0
 70
     8
  0
VERTEX
  5
3F7
330
2D7
100
AcDbEntity
  8
R-ANNO-TEXT
370
    20
100
AcDbVertex
100
AcDb2dVertex
 10
-0.2500274033537531
 20
-0.305496442163697
 30
0.0
 70
     8
  0
VERTEX
  5
3F8
330
2D7
100
AcDbEntity
  8
R-ANNO-TEXT
370
    20
100
AcDbVertex
100
AcDb2dVertex
 10
-0.2518319525639756
 20
-0.304616844451246
 30
0.0
 70
     8
  0
VERTEX
  5
3F9
330
2D7
100
AcDbEntity
  8
R-ANNO-TEXT
370
    20
100
AcDbVertex
100
AcDb2dVertex
 10
-0.2534292632241741
 20
-0.30369748999171
 30
0.0
 70
     8
  0
VERTEX
  5
3FA
330
2D7
100
AcDbEntity
  8
R-ANNO-TEXT
370
    20
100
AcDbVertex
100
AcDb2dVertex
 10
-0.2548155166813892
 20
-0.3027332727911913
 30
0.0
 70
     8
  0
VERTEX
  5
3FB
330
2D7
100
AcDbEntity
  8
R-ANNO-TEXT
370
    20
100
AcDbVertex
100
AcDb2dVertex
 10
-0.2560035962769114
 20
-0.3017279038472136
 30
0.0
 70
     8
  0
VERTEX
  5
3FC
330
2D7
100
AcDbEntity
  8
R-ANNO-TEXT
370
    20
100
AcDbVertex
100
AcDb2dVertex
 10
-0.2570105608505924
 20
-0.3006872984051561
 30
0.0
 70
     8
  0
VERTEX
  5
3FD
330
2D7
100
AcDbEntity
  8
R-ANNO-TEXT
370
    20
100
AcDbVertex
100
AcDb2dVertex
 10
-0.2578534692422851
 20
-0.2996173717103971
 30
0.0
 70
     8
  0
VERTEX
  5
3FE
330
2D7
100
AcDbEntity
  8
R-ANNO-TEXT
370
    20
100
AcDbVertex
100
AcDb2dVertex
 10
-0.2585493802918393
 20
-0.2985240390083161
 30
0.0
 70
     8
  0
VERTEX
  5
3FF
330
2D7
100
AcDbEntity
  8
R-ANNO-TEXT
370
    20
100
AcDbVertex
100
AcDb2dVertex
 10
-0.2591153528391099
 20
-0.297413215544291
 30
0.0
 70
     8
  0
VERTEX
  5
400
330
2D7
100
AcDbEntity
  8
R-ANNO-TEXT
370
    20
100
AcDbVertex
100
AcDb2dVertex
 10
-0.2595684457239467
 20
-0.2962908165637015
 30
0.0
 70
     8
  0
VERTEX
  5
401
330
2D7
100
AcDbEntity
  8
R-ANNO-TEXT
370
    20
100
AcDbVertex
100
AcDb2dVertex
 10
-0.2599257177862024
 20
-0.295162757311926
 30
0.0
 70
     8
  0
VERTEX
  5
402
330
2D7
100
AcDbEntity
  8
R-ANNO-TEXT
370
    20
100
AcDbVertex
100
AcDb2dVertex
 10
-0.2602006219593811
 20
-0.2940329605215957
 30
0.0
 70
     8
  0
VERTEX
  5
403
330
2D7
100
AcDbEntity
  8
R-ANNO-TEXT
370
    20
100
AcDbVertex
100
AcDb2dVertex
 10
-0.2603921875515913
 20
-0.2928973788743541
 30
0.0
 70
     8
  0
VERTEX
  5
404
330
2D7
100
AcDbEntity
  8
R-ANNO-TEXT
370
    20
100
AcDbVertex
100
AcDb2dVertex
 10
-0.2604958379645927
 20
-0.2917499725390966
 30
0.0
 70
     8
  0
VERTEX
  5
405
330
2D7
100
AcDbEntity
  8
R-ANNO-TEXT
370
    20
100
AcDbVertex
100
AcDb2dVertex
 10
-0.2605069966001472
 20
-0.2905847016847183
 30
0.0
 70
     8
  0
VERTEX
  5
406
330
2D7
100
AcDbEntity
  8
R-ANNO-TEXT
370
    20
100
AcDbVertex
100
AcDb2dVertex
 10
-0.2604210868600154
 20
-0.2893955264801144
 30
0.0
 70
     8
  0
VERTEX
  5
407
330
2D7
100
AcDbEntity
  8
R-ANNO-TEXT
370
    20
100
AcDbVertex
100
AcDb2dVertex
 10
-0.260233532145957
 20
-0.2881764070941814
 30
0.0
 70
     8
  0
VERTEX
  5
408
330
2D7
100
AcDbEntity
  8
R-ANNO-TEXT
370
    20
100
AcDbVertex
100
AcDb2dVertex
 10
-0.2599397558597327
 20
-0.2869213036958143
 30
0.0
 70
     8
  0
VERTEX
  5
409
330
2D7
100
AcDbEntity
  8
R-ANNO-TEXT
370
    20
100
AcDbVertex
100
AcDb2dVertex
 10
-0.2595351814031033
 20
-0.2856241764539087
 30
0.0
 70
     8
  0
VERTEX
  5
40A
330
2D7
100
AcDbEntity
  8
R-ANNO-TEXT
370
    20
100
AcDbVertex
100
AcDb2dVertex
 10
-0.2590171300107891
 20
-0.2842826623824295
 30
0.0
 70
     8
  0
VERTEX
  5
40B
330
2D7
100
AcDbEntity
  8
R-ANNO-TEXT
370
    20
100
AcDbVertex
100
AcDb2dVertex
 10
-0.2583905142493525
 20
-0.2829091058756235
 30
0.0
 70
     8
  0
VERTEX
  5
40C
330
2D7
100
AcDbEntity
  8
R-ANNO-TEXT
370
    20
100
AcDbVertex
100
AcDb2dVertex
 10
-0.2576621445183147
 20
-0.2815195281728053
 30
0.0
 70
     8
  0
VERTEX
  5
40D
330
2D7
100
AcDbEntity
  8
R-ANNO-TEXT
370
    20
100
AcDbVertex
100
AcDb2dVertex
 10
-0.2568388312171976
 20
-0.2801299505132913
 30
0.0
 70
     8
  0
VERTEX
  5
40E
330
2D7
100
AcDbEntity
  8
R-ANNO-TEXT
370
    20
100
AcDbVertex
100
AcDb2dVertex
 10
-0.2559273847455223
 20
-0.2787563941363969
 30
0.0
 70
     8
  0
VERTEX
  5
40F
330
2D7
100
AcDbEntity
  8
R-ANNO-TEXT
370
    20
100
AcDbVertex
100
AcDb2dVertex
 10
-0.2549346155028131
 20
-0.2774148802814382
 30
0.0
 70
     8
  0
VERTEX
  5
410
330
2D7
100
AcDbEntity
  8
R-ANNO-TEXT
370
    20
100
AcDbVertex
100
AcDb2dVertex
 10
-0.2538673338885888
 20
-0.2761214301877306
 30
0.0
 70
     8
  0
VERTEX
  5
411
330
2D7
100
AcDbEntity
  8
R-ANNO-TEXT
370
    20
100
AcDbVertex
100
AcDb2dVertex
 10
-0.2527323503023715
 20
-0.2748920650945896
 30
0.0
 70
     8
  0
VERTEX
  5
412
330
2D7
100
AcDbEntity
  8
R-ANNO-TEXT
370
    20
100
AcDbVertex
100
AcDb2dVertex
 10
-0.2515341382438818
 20
-0.2737407368350424
 30
0.0
 70
     8
  0
VERTEX
  5
413
330
2D7
100
AcDbEntity
  8
R-ANNO-TEXT
370
    20
100
AcDbVertex
100
AcDb2dVertex
 10
-0.2502678236136258
 20
-0.2726731196169583
 30
0.0
 70
     8
  0
VERTEX
  5
414
330
2D7
100
AcDbEntity
  8
R-ANNO-TEXT
370
    20
100
AcDbVertex
100
AcDb2dVertex
 10
-0.2489261954123045
 20
-0.271692818241918
 30
0.0
 70
     8
  0
VERTEX
  5
415
330
2D7
100
AcDbEntity
  8
R-ANNO-TEXT
370
    20
100
AcDbVertex
100
AcDb2dVertex
 10
-0.2475020426406249
 20
-0.2708034375115025
 30
0.0
 70
     8
  0
VERTEX
  5
416
330
2D7
100
AcDbEntity
  8
R-ANNO-TEXT
370
    20
100
AcDbVertex
100
AcDb2dVertex
 10
-0.2459881542992881
 20
-0.270008582227292
 30
0.0
 70
     8
  0
VERTEX
  5
417
330
2D7
100
AcDbEntity
  8
R-ANNO-TEXT
370
    20
100
AcDbVertex
100
AcDb2dVertex
 10
-0.2443773193889975
 20
-0.2693118571908668
 30
0.0
 70
     8
  0
VERTEX
  5
418
330
2D7
100
AcDbEntity
  8
R-ANNO-TEXT
370
    20
100
AcDbVertex
100
AcDb2dVertex
 10
-0.2426623269104566
 20
-0.2687168672038087
 30
0.0
 70
     8
  0
VERTEX
  5
419
330
2D7
100
AcDbEntity
  8
R-ANNO-TEXT
370
    20
100
AcDbVertex
100
AcDb2dVertex
 10
-0.2408359658643699
 20
-0.2682272170676976
 30
0.0
 70
     8
  0
VERTEX
  5
41A
330
2D7
100
AcDbEntity
  8
R-ANNO-TEXT
370
    20
100
AcDbVertex
100
AcDb2dVertex
 10
-0.2388955320921093
 20
-0.2678475462944756
 30
0.0
 70
     8
  0
VERTEX
  5
41B
330
2D7
100
AcDbEntity
  8
R-ANNO-TEXT
370
    20
100
AcDbVertex
100
AcDb2dVertex
 10
-0.2368563487977204
 20
-0.2675866332375341
 30
0.0
 70
     8
  0
VERTEX
  5
41C
330
2D7
100
AcDbEntity
  8
R-ANNO-TEXT
370
    20
100
AcDbVertex
100
AcDb2dVertex
 10
-0.2347382460259195
 20
-0.2674542909606243
 30
0.0
 70
     8
  0
VERTEX
  5
41D
330
2D7
100
AcDbEntity
  8
R-ANNO-TEXT
370
    20
100
AcDbVertex
100
AcDb2dVertex
 10
-0.2325610538214229
 20
-0.2674603325274991
 30
0.0
 70
     8
  0
VERTEX
  5
41E
330
2D7
100
AcDbEntity
  8
R-ANNO-TEXT
370
    20
100
AcDbVertex
100
AcDb2dVertex
 10
-0.2303446022289446
 20
-0.2676145710019107
 30
0.0
 70
     8
  0
VERTEX
  5
41F
330
2D7
100
AcDbEntity
  8
R-ANNO-TEXT
370
    20
100
AcDbVertex
100
AcDb2dVertex
 10
-0.2281087212932009
 20
-0.2679268194476108
 30
0.0
 70
     8
  0
VERTEX
  5
420
330
2D7
100
AcDbEntity
  8
R-ANNO-TEXT
370
    20
100
AcDbVertex
100
AcDb2dVertex
 10
-0.225873241058907
 20
-0.2684068909283521
 30
0.0
 70
     8
  0
VERTEX
  5
421
330
2D7
100
AcDbEntity
  8
R-ANNO-TEXT
370
    20
100
AcDbVertex
100
AcDb2dVertex
 10
-0.2236579915707781
 20
-0.2690645985078861
 30
0.0
 70
     8
  0
VERTEX
  5
422
330
2D7
100
AcDbEntity
  8
R-ANNO-TEXT
370
    20
100
AcDbVertex
100
AcDb2dVertex
 10
-0.2214703480248759
 20
-0.269928943515878
 30
0.0
 70
     8
  0
VERTEX
  5
423
330
2D7
100
AcDbEntity
  8
R-ANNO-TEXT
370
    20
100
AcDbVertex
100
AcDb2dVertex
 10
-0.2192678662226455
 20
-0.2711056803456411
 30
0.0
 70
     8
  0
VERTEX
  5
424
330
2D7
100
AcDbEntity
  8
R-ANNO-TEXT
370
    20
100
AcDbVertex
100
AcDb2dVertex
 10
-0.2169956471168766
 20
-0.2727197516564006
 30
0.0
 70
     8
  0
VERTEX
  5
425
330
2D7
100
AcDbEntity
  8
R-ANNO-TEXT
370
    20
100
AcDbVertex
100
AcDb2dVertex
 10
-0.2145987916603598
 20
-0.274896100107382
 30
0.0
 70
     8
  0
VERTEX
  5
426
330
2D7
100
AcDbEntity
  8
R-ANNO-TEXT
370
    20
100
AcDbVertex
100
AcDb2dVertex
 10
-0.2120224008058857
 20
-0.277759668357811
 30
0.0
 70
     8
  0
VERTEX
  5
427
330
2D7
100
AcDbEntity
  8
R-ANNO-TEXT
370
    20
100
AcDbVertex
100
AcDb2dVertex
 10
-0.2092115755062451
 20
-0.2814353990669129
 30
0.0
 70
     8
  0
VERTEX
  5
428
330
2D7
100
AcDbEntity
  8
R-ANNO-TEXT
370
    20
100
AcDbVertex
100
AcDb2dVertex
 10
-0.2061114167142264
 20
-0.2860482348939137
 30
0.0
 70
     8
  0
VERTEX
  5
429
330
2D7
100
AcDbEntity
  8
R-ANNO-TEXT
370
    20
100
AcDbVertex
100
AcDb2dVertex
 10
-0.2026670253826224
 20
-0.2917231184980382
 30
0.0
 70
     8
  0
VERTEX
  5
42A
330
2D7
100
AcDbEntity
  8
R-ANNO-TEXT
370
    20
100
AcDbVertex
100
AcDb2dVertex
 10
-0.1778535971483353
 20
-0.2917231184980382
 30
0.0
 70
    16
  0
VERTEX
  5
42B
330
2D7
100
AcDbEntity
  8
R-ANNO-TEXT
370
    20
100
AcDbVertex
100
AcDb2dVertex
 10
-0.1811620420994597
 20
-0.2790430301725442
 30
0.0
 70
    16
  0
VERTEX
  5
42C
330
2D7
100
AcDbEntity
  8
R-ANNO-TEXT
370
    20
100
AcDbVertex
100
AcDb2dVertex
 10
-0.189249404037618
 20
-0.2663629640187146
 30
0.0
 70
    16
  0
VERTEX
  5
42D
330
2D7
100
AcDbEntity
  8
R-ANNO-TEXT
370
    20
100
AcDbVertex
100
AcDb2dVertex
 10
-0.2052402863734237
 20
-0.2577258130095403
 30
0.0
 70
    16
  0
VERTEX
  5
42E
330
2D7
100
AcDbEntity
  8
R-ANNO-TEXT
370
    20
100
AcDbVertex
100
AcDb2dVertex
 10
-0.2197607227021348
 20
-0.2523964976329527
 30
0.0
 70
    16
  0
VERTEX
  5
42F
330
2D7
100
AcDbEntity
  8
R-ANNO-TEXT
370
    20
100
AcDbVertex
100
AcDb2dVertex
 10
-0.2344650005713567
 20
-0.2523964976329527
 30
0.0
 70
    16
  0
VERTEX
  5
430
330
2D7
100
AcDbEntity
  8
R-ANNO-TEXT
370
    20
100
AcDbVertex
100
AcDb2dVertex
 10
-0.2559699578257046
 20
-0.2551530568890046
 30
0.0
 70
    16
  0
VERTEX
  5
431
330
2D7
100
AcDbEntity
  8
R-ANNO-TEXT
370
    20
100
AcDbVertex
100
AcDb2dVertex
 10
-0.2686523952103859
 20
-0.2647090462024213
 30
0.0
 70
    16
  0
VERTEX
  5
432
330
2D7
100
AcDbEntity
  8
R-ANNO-TEXT
370
    20
100
AcDbVertex
100
AcDb2dVertex
 10
-0.2798643865879724
 20
-0.2808807289526891
 30
0.0
 70
    16
  0
VERTEX
  5
433
330
2D7
100
AcDbEntity
  8
R-ANNO-TEXT
370
    20
100
AcDbVertex
100
AcDb2dVertex
 10
-0.2798643865879724
 20
-0.3003602695072169
 30
0.0
 70
    16
  0
VERTEX
  5
434
330
2D7
100
AcDbEntity
  8
R-ANNO-TEXT
370
    20
100
AcDbVertex
100
AcDb2dVertex
 10
-0.2745341011523117
 20
-0.3141429549291272
 30
0.0
 70
    16
  0
VERTEX
  5
435
330
2D7
100
AcDbEntity
  8
R-ANNO-TEXT
370
    20
100
AcDbVertex
100
AcDb2dVertex
 10
-0.2548671428419935
 20
-0.3255366430226889
 30
0.0
 70
    16
  0
VERTEX
  5
436
330
2D7
100
AcDbEntity
  8
R-ANNO-TEXT
370
    20
100
AcDbVertex
100
AcDb2dVertex
 10
-0.2287670841123079
 20
-0.333990035239685
 30
0.0
 70
    16
  0
VERTEX
  5
437
330
2D7
100
AcDbEntity
  8
R-ANNO-TEXT
370
    20
100
AcDbVertex
100
AcDb2dVertex
 10
-0.2030346303771913
 20
-0.3426271862488637
 30
0.0
 70
    16
  0
VERTEX
  5
438
330
2D7
100
AcDbEntity
  8
R-ANNO-TEXT
370
    20
100
AcDbVertex
100
AcDb2dVertex
 10
-0.1951311099795439
 20
-0.3532857948303656
 30
0.0
 70
    16
  0
VERTEX
  5
439
330
2D7
100
AcDbEntity
  8
R-ANNO-TEXT
370
    20
100
AcDbVertex
100
AcDb2dVertex
 10
-0.1951311099795439
 20
-0.3632093238998078
 30
0.0
 70
    16
  0
VERTEX
  5
43A
330
2D7
100
AcDbEntity
  8
R-ANNO-TEXT
370
    20
100
AcDbVertex
100
AcDb2dVertex
 10
-0.2043212608725897
 20
-0.3733166339331015
 30
0.0
 70
    16
  0
VERTEX
  5
43B
330
2D7
100
AcDbEntity
  8
R-ANNO-TEXT
370
    20
100
AcDbVertex
100
AcDb2dVertex
 10
-0.2204959326912725
 20
-0.3790134668940457
 30
0.0
 70
    16
  0
VERTEX
  5
43C
330
2D7
100
AcDbEntity
  8
R-ANNO-TEXT
370
    20
100
AcDbVertex
100
AcDb2dVertex
 10
-0.2352002105604944
 20
-0.3790134668940457
 30
0.0
 70
    16
  0
VERTEX
  5
43D
330
2D7
100
AcDbEntity
  8
R-ANNO-TEXT
370
    20
100
AcDbVertex
100
AcDb2dVertex
 10
-0.2515586978908735
 20
-0.3744192532011867
 30
0.0
 70
    16
  0
VERTEX
  5
43E
330
2D7
100
AcDbEntity
  8
R-ANNO-TEXT
370
    20
100
AcDbVertex
100
AcDb2dVertex
 10
-0.2613002692901845
 20
-0.3639444034118675
 30
0.0
 70
    16
  0
VERTEX
  5
43F
330
2D7
100
AcDbEntity
  8
R-ANNO-TEXT
370
    20
100
AcDbVertex
100
AcDb2dVertex
 10
-0.2644249247584318
 20
-0.3567774114268039
 30
0.0
 70
    16
  0
VERTEX
  5
440
330
2D7
100
AcDbEntity
  8
R-ANNO-TEXT
370
    20
100
AcDbVertex
100
AcDb2dVertex
 10
-0.2644249247584318
 20
-0.3516318770140678
 30
0.0
 70
    16
  0
VERTEX
  5
441
330
2D7
100
AcDbEntity
  8
R-ANNO-TEXT
370
    20
100
AcDbVertex
100
AcDb2dVertex
 10
-0.2899735629818567
 20
-0.3516318770140678
 30
0.0
 70
    16
  0
VERTEX
  5
442
330
2D7
100
AcDbEntity
  8
R-ANNO-TEXT
370
    20
100
AcDbVertex
100
AcDb2dVertex
 10
-0.293429281540698
 20
-0.3529867196368528
 30
0.0
 70
    16
  0
VERTEX
  5
443
330
2D7
100
AcDbEntity
  8
R-ANNO-TEXT
370
    20
100
AcDbVertex
100
AcDb2dVertex
 10
-0.2785295507219054
 20
-0.3754354029604077
 30
0.0
 70
    16
  0
VERTEX
  5
444
330
2D7
100
AcDbEntity
  8
R-ANNO-TEXT
370
    20
100
AcDbVertex
100
AcDb2dVertex
 10
-0.2595285917740508
 20
-0.3907260501019802
 30
0.0
 70
    16
  0
VERTEX
  5
445
330
2D7
100
AcDbEntity
  8
R-ANNO-TEXT
370
    20
100
AcDbVertex
100
AcDb2dVertex
 10
-0.2457849334565909
 20
-0.3947970345795069
 30
0.0
 70
    16
  0
VERTEX
  5
446
330
2D7
100
AcDbEntity
  8
R-ANNO-TEXT
370
    20
100
AcDbVertex
100
AcDb2dVertex
 10
-0.215901612080468
 20
-0.3947970345795069
 30
0.0
 70
    16
  0
VERTEX
  5
447
330
2D7
100
AcDbEntity
  8
R-ANNO-TEXT
370
    20
100
AcDbVertex
100
AcDb2dVertex
 10
-0.1928843805087343
 20
-0.386754017782934
 30
0.0
 70
    16
  0
VERTEX
  5
448
330
2D7
100
AcDbEntity
  8
R-ANNO-TEXT
370
    20
100
AcDbVertex
100
AcDb2dVertex
 10
-0.1791836437119187
 20
-0.3703161863187052
 30
0.0
 70
    16
  0
VERTEX
  5
449
330
2D7
100
AcDbEntity
  8
R-ANNO-TEXT
370
    20
100
AcDbVertex
100
AcDb2dVertex
 10
-0.1749820719337303
 20
-0.353695704645741
 30
0.0
 70
    16
  0
VERTEX
  5
44A
330
2D7
100
AcDbEntity
  8
R-ANNO-TEXT
370
    20
100
AcDbVertex
100
AcDb2dVertex
 10
-0.1749820719337303
 20
-0.3434677142184048
 30
0.0
 70
    16
  0
VERTEX
  5
44B
330
2D7
100
AcDbEntity
  8
R-ANNO-TEXT
370
    20
100
AcDbVertex
100
AcDb2dVertex
 10
-0.1855773104722369
 20
-0.3279430894544975
 30
0.0
 70
    16
  0
VERTEX
  5
44C
330
2D7
100
AcDbEntity
  8
R-ANNO-TEXT
370
    20
100
AcDbVertex
100
AcDb2dVertex
 10
-0.2084118718002659
 20
-0.3169845203638975
 30
0.0
 70
    16
  0
VERTEX
  5
44D
330
2D7
100
AcDbEntity
  8
R-ANNO-TEXT
370
    20
100
AcDbVertex
100
AcDb2dVertex
 10
-0.2369094189137766
 20
-0.3102267508724763
 30
0.0
 70
    16
  0
VERTEX
  5
44E
330
2D7
100
AcDbEntity
  8
R-ANNO-TEXT
370
    20
100
AcDbVertex
100
AcDb2dVertex
 10
-0.2557250787073217
 20
-0.3041995378726456
 30
0.0
 70
    16
  0
VERTEX
  5
44F
330
2D7
100
AcDbEntity
  8
R-ANNO-TEXT
370
    20
100
AcDbVertex
100
AcDb2dVertex
 10
-0.260765845601979
 20
-0.2951600375872019
 30
0.0
 70
    16
  0
VERTEX
  5
450
330
2D7
100
AcDbEntity
  8
R-ANNO-TEXT
370
    20
100
AcDbVertex
100
AcDb2dVertex
 10
-0.260765845601979
 20
-0.2861368556501018
 30
0.0
 70
    16
  0
VERTEX
  5
451
330
2D7
100
AcDbEntity
  8
R-ANNO-TEXT
370
    20
100
AcDbVertex
100
AcDb2dVertex
 10
-0.2533818604087223
 20
-0.2740375985358421
 30
0.0
 70
    16
  0
VERTEX
  5
452
330
2D7
100
AcDbEntity
  8
R-ANNO-TEXT
370
    20
100
AcDbVertex
100
AcDb2dVertex
 10
-0.2421008145773629
 20
-0.2670651407740685
 30
0.0
 70
    16
  0
VERTEX
  5
453
330
2D7
100
AcDbEntity
  8
R-ANNO-TEXT
370
    20
100
AcDbVertex
100
AcDb2dVertex
 10
-0.2232306764680481
 20
-0.2670651407740685
 30
0.0
 70
    16
  0
VERTEX
  5
454
330
2D7
100
AcDbEntity
  8
R-ANNO-TEXT
370
    20
100
AcDbVertex
100
AcDb2dVertex
 10
-0.2123598448060904
 20
-0.2750629717093398
 30
0.0
 70
    16
  0
VERTEX
  5
455
330
2D7
100
AcDbEntity
  8
R-ANNO-TEXT
370
    20
100
AcDbVertex
100
AcDb2dVertex
 10
-0.2026670253826224
 20
-0.2917231184980382
 30
0.0
 70
    16
  0
SEQEND
  5
456
330
2D7
100
AcDbEntity
  8
R-ANNO-TEXT
370
    20
  0
POLYLINE
  5
457
330
1F3
100
AcDbEntity
  8
R-ANNO-TEXT
370
    20
100
AcDb2dPolyline
 66
     1
 10
0.0
 20
0.0
 30
0.0
 70
     4
 75
     6
  0
VERTEX
  5
458
330
457
100
AcDbEntity
  8
R-ANNO-TEXT
370
    20
100
AcDbVertex
100
AcDb2dVertex
 10
-0.0914332366818027
 20
-0.2917231184980382
 30
0.0
 70
    16
  0
VERTEX
  5
459
330
457
100
AcDbEntity
  8
R-ANNO-TEXT
370
    20
100
AcDbVertex
100
AcDb2dVertex
 10
-0.0914332366818027
 20
-0.2917231184980382
 30
0.0
 70
     8
  0
VERTEX
  5
45A
330
457
100
AcDbEntity
  8
R-ANNO-TEXT
370
    20
100
AcDbVertex
100
AcDb2dVertex
 10
-0.0833181947438377
 20
-0.2914403756503412
 30
0.0
 70
     8
  0
VERTEX
  5
45B
330
457
100
AcDbEntity
  8
R-ANNO-TEXT
370
    20
100
AcDbVertex
100
AcDb2dVertex
 10
-0.0773804301971326
 20
-0.2906499339969786
 30
0.0
 70
     8
  0
VERTEX
  5
45C
330
457
100
AcDbEntity
  8
R-ANNO-TEXT
370
    20
100
AcDbVertex
100
AcDb2dVertex
 10
-0.073315878178899
 20
-0.2894384738725413
 30
0.0
 70
     8
  0
VERTEX
  5
45D
330
457
100
AcDbEntity
  8
R-ANNO-TEXT
370
    20
100
AcDbVertex
100
AcDb2dVertex
 10
-0.0708204738263496
 20
-0.2878926756116216
 30
0.0
 70
     8
  0
VERTEX
  5
45E
330
457
100
AcDbEntity
  8
R-ANNO-TEXT
370
    20
100
AcDbVertex
100
AcDb2dVertex
 10
-0.0695901522766951
 20
-0.2860992195488103
 30
0.0
 70
     8
  0
VERTEX
  5
45F
330
457
100
AcDbEntity
  8
R-ANNO-TEXT
370
    20
100
AcDbVertex
100
AcDb2dVertex
 10
-0.0693208486671471
 20
-0.2841447860186999
 30
0.0
 70
     8
  0
VERTEX
  5
460
330
457
100
AcDbEntity
  8
R-ANNO-TEXT
370
    20
100
AcDbVertex
100
AcDb2dVertex
 10
-0.0697084981349183
 20
-0.282116055355881
 30
0.0
 70
     8
  0
VERTEX
  5
461
330
457
100
AcDbEntity
  8
R-ANNO-TEXT
370
    20
100
AcDbVertex
100
AcDb2dVertex
 10
-0.0704490358172183
 20
-0.2800997078949461
 30
0.0
 70
     8
  0
VERTEX
  5
462
330
457
100
AcDbEntity
  8
R-ANNO-TEXT
370
    20
100
AcDbVertex
100
AcDb2dVertex
 10
-0.0712906299357763
 20
-0.2781672294774844
 30
0.0
 70
     8
  0
VERTEX
  5
463
330
457
100
AcDbEntity
  8
R-ANNO-TEXT
370
    20
100
AcDbVertex
100
AcDb2dVertex
 10
-0.0721903810503855
 20
-0.2763293279730807
 30
0.0
 70
     8
  0
VERTEX
  5
464
330
457
100
AcDbEntity
  8
R-ANNO-TEXT
370
    20
100
AcDbVertex
100
AcDb2dVertex
 10
-0.0731576228053554
 20
-0.2745815167583174
 30
0.0
 70
     8
  0
VERTEX
  5
465
330
457
100
AcDbEntity
  8
R-ANNO-TEXT
370
    20
100
AcDbVertex
100
AcDb2dVertex
 10
-0.0742016888449926
 20
-0.2729193092097764
 30
0.0
 70
     8
  0
VERTEX
  5
466
330
457
100
AcDbEntity
  8
R-ANNO-TEXT
370
    20
100
AcDbVertex
100
AcDb2dVertex
 10
-0.0753319128136076
 20
-0.2713382187040407
 30
0.0
 70
     8
  0
VERTEX
  5
467
330
457
100
AcDbEntity
  8
R-ANNO-TEXT
370
    20
100
AcDbVertex
100
AcDb2dVertex
 10
-0.0765576283555092
 20
-0.2698337586176929
 30
0.0
 70
     8
  0
VERTEX
  5
468
330
457
100
AcDbEntity
  8
R-ANNO-TEXT
370
    20
100
AcDbVertex
100
AcDb2dVertex
 10
-0.0778881691150057
 20
-0.2684014423273155
 30
0.0
 70
     8
  0
VERTEX
  5
469
330
457
100
AcDbEntity
  8
R-ANNO-TEXT
370
    20
100
AcDbVertex
100
AcDb2dVertex
 10
-0.0793328687364059
 20
-0.2670367832094906
 30
0.0
 70
     8
  0
VERTEX
  5
46A
330
457
100
AcDbEntity
  8
R-ANNO-TEXT
370
    20
100
AcDbVertex
100
AcDb2dVertex
 10
-0.0808964538352797
 20
-0.2657358031276749
 30
0.0
 70
     8
  0
VERTEX
  5
46B
330
457
100
AcDbEntity
  8
R-ANNO-TEXT
370
    20
100
AcDbVertex
100
AcDb2dVertex
 10
-0.082565222912232
 20
-0.2644965578928229
 30
0.0
 70
     8
  0
VERTEX
  5
46C
330
457
100
AcDbEntity
  8
R-ANNO-TEXT
370
    20
100
AcDbVertex
100
AcDb2dVertex
 10
-0.0843208674391294
 20
-0.2633176118027616
 30
0.0
 70
     8
  0
VERTEX
  5
46D
330
457
100
AcDbEntity
  8
R-ANNO-TEXT
370
    20
100
AcDbVertex
100
AcDb2dVertex
 10
-0.0861450788878382
 20
-0.26219752915532
 30
0.0
 70
     8
  0
VERTEX
  5
46E
330
457
100
AcDbEntity
  8
R-ANNO-TEXT
370
    20
100
AcDbVertex
100
AcDb2dVertex
 10
-0.0880195487302216
 20
-0.2611348742483255
 30
0.0
 70
     8
  0
VERTEX
  5
46F
330
457
100
AcDbEntity
  8
R-ANNO-TEXT
370
    20
100
AcDbVertex
100
AcDb2dVertex
 10
-0.0899259684381471
 20
-0.2601282113796062
 30
0.0
 70
     8
  0
VERTEX
  5
470
330
457
100
AcDbEntity
  8
R-ANNO-TEXT
370
    20
100
AcDbVertex
100
AcDb2dVertex
 10
-0.0918460294834811
 20
-0.2591761048469898
 30
0.0
 70
     8
  0
VERTEX
  5
471
330
457
100
AcDbEntity
  8
R-ANNO-TEXT
370
    20
100
AcDbVertex
100
AcDb2dVertex
 10
-0.0937614233380879
 20
-0.2582771189483046
 30
0.0
 70
     8
  0
VERTEX
  5
472
330
457
100
AcDbEntity
  8
R-ANNO-TEXT
370
    20
100
AcDbVertex
100
AcDb2dVertex
 10
-0.0956574314002512
 20
-0.2574307152988449
 30
0.0
 70
     8
  0
VERTEX
  5
473
330
457
100
AcDbEntity
  8
R-ANNO-TEXT
370
    20
100
AcDbVertex
100
AcDb2dVertex
 10
-0.0975336947739192
 20
-0.2566399447837693
 30
0.0
 70
     8
  0
VERTEX
  5
474
330
457
100
AcDbEntity
  8
R-ANNO-TEXT
370
    20
100
AcDbVertex
100
AcDb2dVertex
 10
-0.0993934444894595
 20
-0.2559087556057031
 30
0.0
 70
     8
  0
VERTEX
  5
475
330
457
100
AcDbEntity
  8
R-ANNO-TEXT
370
    20
100
AcDbVertex
100
AcDb2dVertex
 10
-0.1012399115772389
 20
-0.2552410959672708
 30
0.0
 70
     8
  0
VERTEX
  5
476
330
457
100
AcDbEntity
  8
R-ANNO-TEXT
370
    20
100
AcDbVertex
100
AcDb2dVertex
 10
-0.1030763270676227
 20
-0.2546409140710981
 30
0.0
 70
     8
  0
VERTEX
  5
477
330
457
100
AcDbEntity
  8
R-ANNO-TEXT
370
    20
100
AcDbVertex
100
AcDb2dVertex
 10
-0.1049059219909776
 20
-0.2541121581198089
 30
0.0
 70
     8
  0
VERTEX
  5
478
330
457
100
AcDbEntity
  8
R-ANNO-TEXT
370
    20
100
AcDbVertex
100
AcDb2dVertex
 10
-0.1067319273776701
 20
-0.2536587763160294
 30
0.0
 70
     8
  0
VERTEX
  5
479
330
457
100
AcDbEntity
  8
R-ANNO-TEXT
370
    20
100
AcDbVertex
100
AcDb2dVertex
 10
-0.1085575742580669
 20
-0.253284716862384
 30
0.0
 70
     8
  0
VERTEX
  5
47A
330
457
100
AcDbEntity
  8
R-ANNO-TEXT
370
    20
100
AcDbVertex
100
AcDb2dVertex
 10
-0.1103877090760419
 20
-0.2529924324420105
 30
0.0
 70
     8
  0
VERTEX
  5
47B
330
457
100
AcDbEntity
  8
R-ANNO-TEXT
370
    20
100
AcDbVertex
100
AcDb2dVertex
 10
-0.1122336399295032
 20
-0.2527783936600985
 30
0.0
 70
     8
  0
VERTEX
  5
47C
330
457
100
AcDbEntity
  8
R-ANNO-TEXT
370
    20
100
AcDbVertex
100
AcDb2dVertex
 10
-0.1141082903298651
 20
-0.2526375756023493
 30
0.0
 70
     8
  0
VERTEX
  5
47D
330
457
100
AcDbEntity
  8
R-ANNO-TEXT
370
    20
100
AcDbVertex
100
AcDb2dVertex
 10
-0.1160245837885432
 20
-0.252564953354466
 30
0.0
 70
     8
  0
VERTEX
  5
47E
330
457
100
AcDbEntity
  8
R-ANNO-TEXT
370
    20
100
AcDbVertex
100
AcDb2dVertex
 10
-0.1179954438169539
 20
-0.2525555020021502
 30
0.0
 70
     8
  0
VERTEX
  5
47F
330
457
100
AcDbEntity
  8
R-ANNO-TEXT
370
    20
100
AcDbVertex
100
AcDb2dVertex
 10
-0.1200337939265106
 20
-0.2526041966311037
 30
0.0
 70
     8
  0
VERTEX
  5
480
330
457
100
AcDbEntity
  8
R-ANNO-TEXT
370
    20
100
AcDbVertex
100
AcDb2dVertex
 10
-0.1221525576286286
 20
-0.252706012327029
 30
0.0
 70
     8
  0
VERTEX
  5
481
330
457
100
AcDbEntity
  8
R-ANNO-TEXT
370
    20
100
AcDbVertex
100
AcDb2dVertex
 10
-0.1243646584347247
 20
-0.2528559241756278
 30
0.0
 70
     8
  0
VERTEX
  5
482
330
457
100
AcDbEntity
  8
R-ANNO-TEXT
370
    20
100
AcDbVertex
100
AcDb2dVertex
 10
-0.1266757802608032
 20
-0.2530510607869916
 30
0.0
 70
     8
  0
VERTEX
  5
483
330
457
100
AcDbEntity
  8
R-ANNO-TEXT
370
    20
100
AcDbVertex
100
AcDb2dVertex
 10
-0.1290626486412294
 20
-0.2532971648687643
 30
0.0
 70
     8
  0
VERTEX
  5
484
330
457
100
AcDbEntity
  8
R-ANNO-TEXT
370
    20
100
AcDbVertex
100
AcDb2dVertex
 10
-0.1314947495149599
 20
-0.2536021326529809
 30
0.0
 70
     8
  0
VERTEX
  5
485
330
457
100
AcDbEntity
  8
R-ANNO-TEXT
370
    20
100
AcDbVertex
100
AcDb2dVertex
 10
-0.13394156882095
 20
-0.2539738603716746
 30
0.0
 70
     8
  0
VERTEX
  5
486
330
457
100
AcDbEntity
  8
R-ANNO-TEXT
370
    20
100
AcDbVertex
100
AcDb2dVertex
 10
-0.1363725924981529
 20
-0.2544202442568797
 30
0.0
 70
     8
  0
VERTEX
  5
487
330
457
100
AcDbEntity
  8
R-ANNO-TEXT
370
    20
100
AcDbVertex
100
AcDb2dVertex
 10
-0.1387573064855274
 20
-0.2549491805406294
 30
0.0
 70
     8
  0
VERTEX
  5
488
330
457
100
AcDbEntity
  8
R-ANNO-TEXT
370
    20
100
AcDbVertex
100
AcDb2dVertex
 10
-0.1410651967220267
 20
-0.2555685654549578
 30
0.0
 70
     8
  0
VERTEX
  5
489
330
457
100
AcDbEntity
  8
R-ANNO-TEXT
370
    20
100
AcDbVertex
100
AcDb2dVertex
 10
-0.1432657491466072
 20
-0.2562862952318987
 30
0.0
 70
     8
  0
VERTEX
  5
48A
330
457
100
AcDbEntity
  8
R-ANNO-TEXT
370
    20
100
AcDbVertex
100
AcDb2dVertex
 10
-0.1453359286282752
 20
-0.2571088902547158
 30
0.0
 70
     8
  0
VERTEX
  5
48B
330
457
100
AcDbEntity
  8
R-ANNO-TEXT
370
    20
100
AcDbVertex
100
AcDb2dVertex
 10
-0.1472826157562423
 20
-0.2580373675115921
 30
0.0
 70
     8
  0
VERTEX
  5
48C
330
457
100
AcDbEntity
  8
R-ANNO-TEXT
370
    20
100
AcDbVertex
100
AcDb2dVertex
 10
-0.1491201700497724
 20
-0.2590713681419414
 30
0.0
 70
     8
  0
VERTEX
  5
48D
330
457
100
AcDbEntity
  8
R-ANNO-TEXT
370
    20
100
AcDbVertex
100
AcDb2dVertex
 10
-0.1508629510281267
 20
-0.2602105332851758
 30
0.0
 70
     8
  0
VERTEX
  5
48E
330
457
100
AcDbEntity
  8
R-ANNO-TEXT
370
    20
100
AcDbVertex
100
AcDb2dVertex
 10
-0.1525253182105679
 20
-0.2614545040807088
 30
0.0
 70
     8
  0
VERTEX
  5
48F
330
457
100
AcDbEntity
  8
R-ANNO-TEXT
370
    20
100
AcDbVertex
100
AcDb2dVertex
 10
-0.1541216311163618
 20
-0.2628029216679533
 30
0.0
 70
     8
  0
VERTEX
  5
490
330
457
100
AcDbEntity
  8
R-ANNO-TEXT
370
    20
100
AcDbVertex
100
AcDb2dVertex
 10
-0.1556662492647676
 20
-0.2642554271863227
 30
0.0
 70
     8
  0
VERTEX
  5
491
330
457
100
AcDbEntity
  8
R-ANNO-TEXT
370
    20
100
AcDbVertex
100
AcDb2dVertex
 10
-0.15717353217505
 20
-0.26581166177523
 30
0.0
 70
     8
  0
VERTEX
  5
492
330
457
100
AcDbEntity
  8
R-ANNO-TEXT
370
    20
100
AcDbVertex
100
AcDb2dVertex
 10
-0.1586522750372943
 20
-0.2674702496147736
 30
0.0
 70
     8
  0
VERTEX
  5
493
330
457
100
AcDbEntity
  8
R-ANNO-TEXT
370
    20
100
AcDbVertex
100
AcDb2dVertex
 10
-0.1600890157248769
 20
-0.2692257470477988
 30
0.0
 70
     8
  0
VERTEX
  5
494
330
457
100
AcDbEntity
  8
R-ANNO-TEXT
370
    20
100
AcDbVertex
100
AcDb2dVertex
 10
-0.1614647277819936
 20
-0.2710716934578348
 30
0.0
 70
     8
  0
VERTEX
  5
495
330
457
100
AcDbEntity
  8
R-ANNO-TEXT
370
    20
100
AcDbVertex
100
AcDb2dVertex
 10
-0.1627603847528447
 20
-0.2730016282284118
 30
0.0
 70
     8
  0
VERTEX
  5
496
330
457
100
AcDbEntity
  8
R-ANNO-TEXT
370
    20
100
AcDbVertex
100
AcDb2dVertex
 10
-0.1639569601816282
 20
-0.2750090907430596
 30
0.0
 70
     8
  0
VERTEX
  5
497
330
457
100
AcDbEntity
  8
R-ANNO-TEXT
370
    20
100
AcDbVertex
100
AcDb2dVertex
 10
-0.1650354276125432
 20
-0.2770876203853092
 30
0.0
 70
     8
  0
VERTEX
  5
498
330
457
100
AcDbEntity
  8
R-ANNO-TEXT
370
    20
100
AcDbVertex
100
AcDb2dVertex
 10
-0.1659767605897855
 20
-0.27923075653869
 30
0.0
 70
     8
  0
VERTEX
  5
499
330
457
100
AcDbEntity
  8
R-ANNO-TEXT
370
    20
100
AcDbVertex
100
AcDb2dVertex
 10
-0.1667619326575553
 20
-0.2814320385867326
 30
0.0
 70
     8
  0
VERTEX
  5
49A
330
457
100
AcDbEntity
  8
R-ANNO-TEXT
370
    20
100
AcDbVertex
100
AcDb2dVertex
 10
-0.1673770030538368
 20
-0.2836831514607185
 30
0.0
 70
     8
  0
VERTEX
  5
49B
330
457
100
AcDbEntity
  8
R-ANNO-TEXT
370
    20
100
AcDbVertex
100
AcDb2dVertex
 10
-0.1678283737917607
 20
-0.2859683622829419
 30
0.0
 70
     8
  0
VERTEX
  5
49C
330
457
100
AcDbEntity
  8
R-ANNO-TEXT
370
    20
100
AcDbVertex
100
AcDb2dVertex
 10
-0.1681275325782461
 20
-0.2882700837234466
 30
0.0
 70
     8
  0
VERTEX
  5
49D
330
457
100
AcDbEntity
  8
R-ANNO-TEXT
370
    20
100
AcDbVertex
100
AcDb2dVertex
 10
-0.1682859671202097
 20
-0.2905707284522787
 30
0.0
 70
     8
  0
VERTEX
  5
49E
330
457
100
AcDbEntity
  8
R-ANNO-TEXT
370
    20
100
AcDbVertex
100
AcDb2dVertex
 10
-0.1683151651245707
 20
-0.292852709139483
 30
0.0
 70
     8
  0
VERTEX
  5
49F
330
457
100
AcDbEntity
  8
R-ANNO-TEXT
370
    20
100
AcDbVertex
100
AcDb2dVertex
 10
-0.1682266142982458
 20
-0.2950984384551045
 30
0.0
 70
     8
  0
VERTEX
  5
4A0
330
457
100
AcDbEntity
  8
R-ANNO-TEXT
370
    20
100
AcDbVertex
100
AcDb2dVertex
 10
-0.168031802348152
 20
-0.2972903290691886
 30
0.0
 70
     8
  0
VERTEX
  5
4A1
330
457
100
AcDbEntity
  8
R-ANNO-TEXT
370
    20
100
AcDbVertex
100
AcDb2dVertex
 10
-0.1677422169812093
 20
-0.2994107936517807
 30
0.0
 70
     8
  0
VERTEX
  5
4A2
330
457
100
AcDbEntity
  8
R-ANNO-TEXT
370
    20
100
AcDbVertex
100
AcDb2dVertex
 10
-0.1673644995197698
 20
-0.3014462528712132
 30
0.0
 70
     8
  0
VERTEX
  5
4A3
330
457
100
AcDbEntity
  8
R-ANNO-TEXT
370
    20
100
AcDbVertex
100
AcDb2dVertex
 10
-0.166885905747931
 20
-0.3033991593889729
 30
0.0
 70
     8
  0
VERTEX
  5
4A4
330
457
100
AcDbEntity
  8
R-ANNO-TEXT
370
    20
100
AcDbVertex
100
AcDb2dVertex
 10
-0.1662888450652278
 20
-0.3052759738648332
 30
0.0
 70
     8
  0
VERTEX
  5
4A5
330
457
100
AcDbEntity
  8
R-ANNO-TEXT
370
    20
100
AcDbVertex
100
AcDb2dVertex
 10
-0.1655557268711905
 20
-0.3070831569585684
 30
0.0
 70
     8
  0
VERTEX
  5
4A6
330
457
100
AcDbEntity
  8
R-ANNO-TEXT
370
    20
100
AcDbVertex
100
AcDb2dVertex
 10
-0.1646689605653551
 20
-0.3088271693299522
 30
0.0
 70
     8
  0
VERTEX
  5
4A7
330
457
100
AcDbEntity
  8
R-ANNO-TEXT
370
    20
100
AcDbVertex
100
AcDb2dVertex
 10
-0.1636109555472531
 20
-0.3105144716387591
 30
0.0
 70
     8
  0
VERTEX
  5
4A8
330
457
100
AcDbEntity
  8
R-ANNO-TEXT
370
    20
100
AcDbVertex
100
AcDb2dVertex
 10
-0.1623641212164173
 20
-0.3121515245447619
 30
0.0
 70
     8
  0
VERTEX
  5
4A9
330
457
100
AcDbEntity
  8
R-ANNO-TEXT
370
    20
100
AcDbVertex
100
AcDb2dVertex
 10
-0.1609108669723824
 20
-0.3137447887077358
 30
0.0
 70
     8
  0
VERTEX
  5
4AA
330
457
100
AcDbEntity
  8
R-ANNO-TEXT
370
    20
100
AcDbVertex
100
AcDb2dVertex
 10
-0.1592391067589172
 20
-0.3152994685516623
 30
0.0
 70
     8
  0
VERTEX
  5
4AB
330
457
100
AcDbEntity
  8
R-ANNO-TEXT
370
    20
100
AcDbVertex
100
AcDb2dVertex
 10
-0.1573587726967374
 20
-0.3168157435573562
 30
0.0
 70
     8
  0
VERTEX
  5
4AC
330
457
100
AcDbEntity
  8
R-ANNO-TEXT
370
    20
100
AcDbVertex
100
AcDb2dVertex
 10
-0.1552853014507949
 20
-0.3182925369698406
 30
0.0
 70
     8
  0
VERTEX
  5
4AD
330
457
100
AcDbEntity
  8
R-ANNO-TEXT
370
    20
100
AcDbVertex
100
AcDb2dVertex
 10
-0.1530341296860405
 20
-0.3197287720341388
 30
0.0
 70
     8
  0
VERTEX
  5
4AE
330
457
100
AcDbEntity
  8
R-ANNO-TEXT
370
    20
100
AcDbVertex
100
AcDb2dVertex
 10
-0.1506206940674271
 20
-0.3211233719952737
 30
0.0
 70
     8
  0
VERTEX
  5
4AF
330
457
100
AcDbEntity
  8
R-ANNO-TEXT
370
    20
100
AcDbVertex
100
AcDb2dVertex
 10
-0.1480604312599054
 20
-0.3224752600982681
 30
0.0
 70
     8
  0
VERTEX
  5
4B0
330
457
100
AcDbEntity
  8
R-ANNO-TEXT
370
    20
100
AcDbVertex
100
AcDb2dVertex
 10
-0.1453687779284274
 20
-0.3237833595881452
 30
0.0
 70
     8
  0
VERTEX
  5
4B1
330
457
100
AcDbEntity
  8
R-ANNO-TEXT
370
    20
100
AcDbVertex
100
AcDb2dVertex
 10
-0.1425611707379459
 20
-0.3250465937099278
 30
0.0
 70
     8
  0
VERTEX
  5
4B2
330
457
100
AcDbEntity
  8
R-ANNO-TEXT
370
    20
100
AcDbVertex
100
AcDb2dVertex
 10
-0.1396526873472137
 20
-0.3262650821126813
 30
0.0
 70
     8
  0
VERTEX
  5
4B3
330
457
100
AcDbEntity
  8
R-ANNO-TEXT
370
    20
100
AcDbVertex
100
AcDb2dVertex
 10
-0.1366569693901887
 20
-0.327443730061638
 30
0.0
 70
     8
  0
VERTEX
  5
4B4
330
457
100
AcDbEntity
  8
R-ANNO-TEXT
370
    20
100
AcDbVertex
100
AcDb2dVertex
 10
-0.1335872994946352
 20
-0.3285886392260733
 30
0.0
 70
     8
  0
VERTEX
  5
4B5
330
457
100
AcDbEntity
  8
R-ANNO-TEXT
370
    20
100
AcDbVertex
100
AcDb2dVertex
 10
-0.1304569602883143
 20
-0.329705911275262
 30
0.0
 70
     8
  0
VERTEX
  5
4B6
330
457
100
AcDbEntity
  8
R-ANNO-TEXT
370
    20
100
AcDbVertex
100
AcDb2dVertex
 10
-0.127279234398987
 20
-0.330801647878479
 30
0.0
 70
     8
  0
VERTEX
  5
4B7
330
457
100
AcDbEntity
  8
R-ANNO-TEXT
370
    20
100
AcDbVertex
100
AcDb2dVertex
 10
-0.1240674044544154
 20
-0.3318819507049993
 30
0.0
 70
     8
  0
VERTEX
  5
4B8
330
457
100
AcDbEntity
  8
R-ANNO-TEXT
370
    20
100
AcDbVertex
100
AcDb2dVertex
 10
-0.1208347530823595
 20
-0.3329529214240976
 30
0.0
 70
     8
  0
VERTEX
  5
4B9
330
457
100
AcDbEntity
  8
R-ANNO-TEXT
370
    20
100
AcDbVertex
100
AcDb2dVertex
 10
-0.1175945629105834
 20
-0.3340206617050487
 30
0.0
 70
     8
  0
VERTEX
  5
4BA
330
457
100
AcDbEntity
  8
R-ANNO-TEXT
370
    20
100
AcDbVertex
100
AcDb2dVertex
 10
-0.1143635868217063
 20
-0.335090854481487
 30
0.0
 70
     8
  0
VERTEX
  5
4BB
330
457
100
AcDbEntity
  8
R-ANNO-TEXT
370
    20
100
AcDbVertex
100
AcDb2dVertex
 10
-0.1111724587177898
 20
-0.336167507744483
 30
0.0
 70
     8
  0
VERTEX
  5
4BC
330
457
100
AcDbEntity
  8
R-ANNO-TEXT
370
    20
100
AcDbVertex
100
AcDb2dVertex
 10
-0.1080552827557524
 20
-0.3372542107494665
 30
0.0
 70
     8
  0
VERTEX
  5
4BD
330
457
100
AcDbEntity
  8
R-ANNO-TEXT
370
    20
100
AcDbVertex
100
AcDb2dVertex
 10
-0.1050461630925137
 20
-0.3383545527518681
 30
0.0
 70
     8
  0
VERTEX
  5
4BE
330
457
100
AcDbEntity
  8
R-ANNO-TEXT
370
    20
100
AcDbVertex
100
AcDb2dVertex
 10
-0.1021792038849956
 20
-0.3394721230071171
 30
0.0
 70
     8
  0
VERTEX
  5
4BF
330
457
100
AcDbEntity
  8
R-ANNO-TEXT
370
    20
100
AcDbVertex
100
AcDb2dVertex
 10
-0.0994885092901155
 20
-0.3406105107706443
 30
0.0
 70
     8
  0
VERTEX
  5
4C0
330
457
100
AcDbEntity
  8
R-ANNO-TEXT
370
    20
100
AcDbVertex
100
AcDb2dVertex
 10
-0.0970081834647929
 20
-0.3417733052978789
 30
0.0
 70
     8
  0
VERTEX
  5
4C1
330
457
100
AcDbEntity
  8
R-ANNO-TEXT
370
    20
100
AcDbVertex
100
AcDb2dVertex
 10
-0.0947723305659498
 20
-0.342964095844251
 30
0.0
 70
     8
  0
VERTEX
  5
4C2
330
457
100
AcDbEntity
  8
R-ANNO-TEXT
370
    20
100
AcDbVertex
100
AcDb2dVertex
 10
-0.0928061397956603
 20
-0.3441849761457032
 30
0.0
 70
     8
  0
VERTEX
  5
4C3
330
457
100
AcDbEntity
  8
R-ANNO-TEXT
370
    20
100
AcDbVertex
100
AcDb2dVertex
 10
-0.0910991405366191
 20
-0.3454320578602306
 30
0.0
 70
     8
  0
VERTEX
  5
4C4
330
457
100
AcDbEntity
  8
R-ANNO-TEXT
370
    20
100
AcDbVertex
100
AcDb2dVertex
 10
-0.0896319472166807
 20
-0.3466999571263392
 30
0.0
 70
     8
  0
VERTEX
  5
4C5
330
457
100
AcDbEntity
  8
R-ANNO-TEXT
370
    20
100
AcDbVertex
100
AcDb2dVertex
 10
-0.0883851742636965
 20
-0.3479832900825368
 30
0.0
 70
     8
  0
VERTEX
  5
4C6
330
457
100
AcDbEntity
  8
R-ANNO-TEXT
370
    20
100
AcDbVertex
100
AcDb2dVertex
 10
-0.0873394361055169
 20
-0.34927667286733
 30
0.0
 70
     8
  0
VERTEX
  5
4C7
330
457
100
AcDbEntity
  8
R-ANNO-TEXT
370
    20
100
AcDbVertex
100
AcDb2dVertex
 10
-0.0864753471699953
 20
-0.3505747216192261
 30
0.0
 70
     8
  0
VERTEX
  5
4C8
330
457
100
AcDbEntity
  8
R-ANNO-TEXT
370
    20
100
AcDbVertex
100
AcDb2dVertex
 10
-0.0857735218849831
 20
-0.3518720524767325
 30
0.0
 70
     8
  0
VERTEX
  5
4C9
330
457
100
AcDbEntity
  8
R-ANNO-TEXT
370
    20
100
AcDbVertex
100
AcDb2dVertex
 10
-0.0852145746783317
 20
-0.3531632815783556
 30
0.0
 70
     8
  0
VERTEX
  5
4CA
330
457
100
AcDbEntity
  8
R-ANNO-TEXT
370
    20
100
AcDbVertex
100
AcDb2dVertex
 10
-0.0847827697316173
 20
-0.3544442214810792
 30
0.0
 70
     8
  0
VERTEX
  5
4CB
330
457
100
AcDbEntity
  8
R-ANNO-TEXT
370
    20
100
AcDbVertex
100
AcDb2dVertex
 10
-0.0844769702413007
 20
-0.3557154704157943
 30
0.0
 70
     8
  0
VERTEX
  5
4CC
330
457
100
AcDbEntity
  8
R-ANNO-TEXT
370
    20
100
AcDbVertex
100
AcDb2dVertex
 10
-0.0842996891575709
 20
-0.3569788230318673
 30
0.0
 70
     8
  0
VERTEX
  5
4CD
330
457
100
AcDbEntity
  8
R-ANNO-TEXT
370
    20
100
AcDbVertex
100
AcDb2dVertex
 10
-0.0842534394306138
 20
-0.3582360739786656
 30
0.0
 70
     8
  0
VERTEX
  5
4CE
330
457
100
AcDbEntity
  8
R-ANNO-TEXT
370
    20
100
AcDbVertex
100
AcDb2dVertex
 10
-0.0843407340106151
 20
-0.3594890179055561
 30
0.0
 70
     8
  0
VERTEX
  5
4CF
330
457
100
AcDbEntity
  8
R-ANNO-TEXT
370
    20
100
AcDbVertex
100
AcDb2dVertex
 10
-0.0845640858477603
 20
-0.3607394494619052
 30
0.0
 70
     8
  0
VERTEX
  5
4D0
330
457
100
AcDbEntity
  8
R-ANNO-TEXT
370
    20
100
AcDbVertex
100
AcDb2dVertex
 10
-0.0849260078922376
 20
-0.3619891632970811
 30
0.0
 70
     8
  0
VERTEX
  5
4D1
330
457
100
AcDbEntity
  8
R-ANNO-TEXT
370
    20
100
AcDbVertex
100
AcDb2dVertex
 10
-0.0854290130942315
 20
-0.3632399540604498
 30
0.0
 70
     8
  0
VERTEX
  5
4D2
330
457
100
AcDbEntity
  8
R-ANNO-TEXT
370
    20
100
AcDbVertex
100
AcDb2dVertex
 10
-0.0860744776003941
 20
-0.3644918217664461
 30
0.0
 70
     8
  0
VERTEX
  5
4D3
330
457
100
AcDbEntity
  8
R-ANNO-TEXT
370
    20
100
AcDbVertex
100
AcDb2dVertex
 10
-0.0868592303432303
 20
-0.3657375878897762
 30
0.0
 70
     8
  0
VERTEX
  5
4D4
330
457
100
AcDbEntity
  8
R-ANNO-TEXT
370
    20
100
AcDbVertex
100
AcDb2dVertex
 10
-0.0877789634517101
 20
-0.3669682792702122
 30
0.0
 70
     8
  0
VERTEX
  5
4D5
330
457
100
AcDbEntity
  8
R-ANNO-TEXT
370
    20
100
AcDbVertex
100
AcDb2dVertex
 10
-0.0888293690548037
 20
-0.3681749227475275
 30
0.0
 70
     8
  0
VERTEX
  5
4D6
330
457
100
AcDbEntity
  8
R-ANNO-TEXT
370
    20
100
AcDbVertex
100
AcDb2dVertex
 10
-0.09000613928148
 20
-0.3693485451614951
 30
0.0
 70
     8
  0
VERTEX
  5
4D7
330
457
100
AcDbEntity
  8
R-ANNO-TEXT
370
    20
100
AcDbVertex
100
AcDb2dVertex
 10
-0.0913049662607102
 20
-0.3704801733518885
 30
0.0
 70
     8
  0
VERTEX
  5
4D8
330
457
100
AcDbEntity
  8
R-ANNO-TEXT
370
    20
100
AcDbVertex
100
AcDb2dVertex
 10
-0.0927215421214634
 20
-0.3715608341584802
 30
0.0
 70
     8
  0
VERTEX
  5
4D9
330
457
100
AcDbEntity
  8
R-ANNO-TEXT
370
    20
100
AcDbVertex
100
AcDb2dVertex
 10
-0.0942515589927096
 20
-0.3725815544210431
 30
0.0
 70
     8
  0
VERTEX
  5
4DA
330
457
100
AcDbEntity
  8
R-ANNO-TEXT
370
    20
100
AcDbVertex
100
AcDb2dVertex
 10
-0.0958886747309884
 20
-0.3735344377704144
 30
0.0
 70
     8
  0
VERTEX
  5
4DB
330
457
100
AcDbEntity
  8
R-ANNO-TEXT
370
    20
100
AcDbVertex
100
AcDb2dVertex
 10
-0.0976184101031152
 20
-0.3744158950016856
 30
0.0
 70
     8
  0
VERTEX
  5
4DC
330
457
100
AcDbEntity
  8
R-ANNO-TEXT
370
    20
100
AcDbVertex
100
AcDb2dVertex
 10
-0.0994242516034727
 20
-0.3752234137010113
 30
0.0
 70
     8
  0
VERTEX
  5
4DD
330
457
100
AcDbEntity
  8
R-ANNO-TEXT
370
    20
100
AcDbVertex
100
AcDb2dVertex
 10
-0.1012896857264489
 20
-0.3759544814545466
 30
0.0
 70
     8
  0
VERTEX
  5
4DE
330
457
100
AcDbEntity
  8
R-ANNO-TEXT
370
    20
100
AcDbVertex
100
AcDb2dVertex
 10
-0.1031981989664255
 20
-0.3766065858484469
 30
0.0
 70
     8
  0
VERTEX
  5
4DF
330
457
100
AcDbEntity
  8
R-ANNO-TEXT
370
    20
100
AcDbVertex
100
AcDb2dVertex
 10
-0.1051332778177882
 20
-0.3771772144688672
 30
0.0
 70
     8
  0
VERTEX
  5
4E0
330
457
100
AcDbEntity
  8
R-ANNO-TEXT
370
    20
100
AcDbVertex
100
AcDb2dVertex
 10
-0.107078408774921
 20
-0.3776638549019626
 30
0.0
 70
     8
  0
VERTEX
  5
4E1
330
457
100
AcDbEntity
  8
R-ANNO-TEXT
370
    20
100
AcDbVertex
100
AcDb2dVertex
 10
-0.1090170783322097
 20
-0.3780639947338882
 30
0.0
 70
     8
  0
VERTEX
  5
4E2
330
457
100
AcDbEntity
  8
R-ANNO-TEXT
370
    20
100
AcDbVertex
100
AcDb2dVertex
 10
-0.1109365423584796
 20
-0.3783758992119828
 30
0.0
 70
     8
  0
VERTEX
  5
4E3
330
457
100
AcDbEntity
  8
R-ANNO-TEXT
370
    20
100
AcDbVertex
100
AcDb2dVertex
 10
-0.112839134220325
 20
-0.3786009442283209
 30
0.0
 70
     8
  0
VERTEX
  5
4E4
330
457
100
AcDbEntity
  8
R-ANNO-TEXT
370
    20
100
AcDbVertex
100
AcDb2dVertex
 10
-0.114730956658784
 20
-0.3787412833361596
 30
0.0
 70
     8
  0
VERTEX
  5
4E5
330
457
100
AcDbEntity
  8
R-ANNO-TEXT
370
    20
100
AcDbVertex
100
AcDb2dVertex
 10
-0.1166181124148902
 20
-0.3787990700887582
 30
0.0
 70
     8
  0
VERTEX
  5
4E6
330
457
100
AcDbEntity
  8
R-ANNO-TEXT
370
    20
100
AcDbVertex
100
AcDb2dVertex
 10
-0.1185067042296828
 20
-0.3787764580393733
 30
0.0
 70
     8
  0
VERTEX
  5
4E7
330
457
100
AcDbEntity
  8
R-ANNO-TEXT
370
    20
100
AcDbVertex
100
AcDb2dVertex
 10
-0.1204028348441966
 20
-0.3786756007412642
 30
0.0
 70
     8
  0
VERTEX
  5
4E8
330
457
100
AcDbEntity
  8
R-ANNO-TEXT
370
    20
100
AcDbVertex
100
AcDb2dVertex
 10
-0.1223126069994684
 20
-0.3784986517476878
 30
0.0
 70
     8
  0
VERTEX
  5
4E9
330
457
100
AcDbEntity
  8
R-ANNO-TEXT
370
    20
100
AcDbVertex
100
AcDb2dVertex
 10
-0.1242421234365343
 20
-0.3782477646119027
 30
0.0
 70
     8
  0
VERTEX
  5
4EA
330
457
100
AcDbEntity
  8
R-ANNO-TEXT
370
    20
100
AcDbVertex
100
AcDb2dVertex
 10
-0.1261937773492949
 20
-0.3779243152043303
 30
0.0
 70
     8
  0
VERTEX
  5
4EB
330
457
100
AcDbEntity
  8
R-ANNO-TEXT
370
    20
100
AcDbVertex
100
AcDb2dVertex
 10
-0.1281551237431033
 20
-0.3775265686640505
 30
0.0
 70
     8
  0
VERTEX
  5
4EC
330
457
100
AcDbEntity
  8
R-ANNO-TEXT
370
    20
100
AcDbVertex
100
AcDb2dVertex
 10
-0.1301100080761797
 20
-0.3770520124473058
 30
0.0
 70
     8
  0
VERTEX
  5
4ED
330
457
100
AcDbEntity
  8
R-ANNO-TEXT
370
    20
100
AcDbVertex
100
AcDb2dVertex
 10
-0.1320422758067408
 20
-0.3764981340103386
 30
0.0
 70
     8
  0
VERTEX
  5
4EE
330
457
100
AcDbEntity
  8
R-ANNO-TEXT
370
    20
100
AcDbVertex
100
AcDb2dVertex
 10
-0.1339357723930068
 20
-0.3758624208093928
 30
0.0
 70
     8
  0
VERTEX
  5
4EF
330
457
100
AcDbEntity
  8
R-ANNO-TEXT
370
    20
100
AcDbVertex
100
AcDb2dVertex
 10
-0.1357743432931946
 20
-0.3751423603007105
 30
0.0
 70
     8
  0
VERTEX
  5
4F0
330
457
100
AcDbEntity
  8
R-ANNO-TEXT
370
    20
100
AcDbVertex
100
AcDb2dVertex
 10
-0.1375418339655221
 20
-0.3743354399405354
 30
0.0
 70
     8
  0
VERTEX
  5
4F1
330
457
100
AcDbEntity
  8
R-ANNO-TEXT
370
    20
100
AcDbVertex
100
AcDb2dVertex
 10
-0.1392220898682095
 20
-0.3734391471851102
 30
0.0
 70
     8
  0
VERTEX
  5
4F2
330
457
100
AcDbEntity
  8
R-ANNO-TEXT
370
    20
100
AcDbVertex
100
AcDb2dVertex
 10
-0.1408016488831032
 20
-0.3724543792941617
 30
0.0
 70
     8
  0
VERTEX
  5
4F3
330
457
100
AcDbEntity
  8
R-ANNO-TEXT
370
    20
100
AcDbVertex
100
AcDb2dVertex
 10
-0.1422778185865747
 20
-0.3713956727413565
 30
0.0
 70
     8
  0
VERTEX
  5
4F4
330
457
100
AcDbEntity
  8
R-ANNO-TEXT
370
    20
100
AcDbVertex
100
AcDb2dVertex
 10
-0.143650598978623
 20
-0.3702809738038435
 30
0.0
 70
     8
  0
VERTEX
  5
4F5
330
457
100
AcDbEntity
  8
R-ANNO-TEXT
370
    20
100
AcDbVertex
100
AcDb2dVertex
 10
-0.1449199900592479
 20
-0.3691282287587727
 30
0.0
 70
     8
  0
VERTEX
  5
4F6
330
457
100
AcDbEntity
  8
R-ANNO-TEXT
370
    20
100
AcDbVertex
100
AcDb2dVertex
 10
-0.1460859918284507
 20
-0.3679553838832943
 30
0.0
 70
     8
  0
VERTEX
  5
4F7
330
457
100
AcDbEntity
  8
R-ANNO-TEXT
370
    20
100
AcDbVertex
100
AcDb2dVertex
 10
-0.1471486042862302
 20
-0.3667803854545579
 30
0.0
 70
     8
  0
VERTEX
  5
4F8
330
457
100
AcDbEntity
  8
R-ANNO-TEXT
370
    20
100
AcDbVertex
100
AcDb2dVertex
 10
-0.1481078274325864
 20
-0.3656211797497129
 30
0.0
 70
     8
  0
VERTEX
  5
4F9
330
457
100
AcDbEntity
  8
R-ANNO-TEXT
370
    20
100
AcDbVertex
100
AcDb2dVertex
 10
-0.1489636612675205
 20
-0.3644957130459101
 30
0.0
 70
     8
  0
VERTEX
  5
4FA
330
457
100
AcDbEntity
  8
R-ANNO-TEXT
370
    20
100
AcDbVertex
100
AcDb2dVertex
 10
-0.1497172425945681
 20
-0.3634185218240313
 30
0.0
 70
     8
  0
VERTEX
  5
4FB
330
457
100
AcDbEntity
  8
R-ANNO-TEXT
370
    20
100
AcDbVertex
100
AcDb2dVertex
 10
-0.1503742554314091
 20
-0.3623905033798911
 30
0.0
 70
     8
  0
VERTEX
  5
4FC
330
457
100
AcDbEntity
  8
R-ANNO-TEXT
370
    20
100
AcDbVertex
100
AcDb2dVertex
 10
-0.1509415205992592
 20
-0.3614091452130363
 30
0.0
 70
     8
  0
VERTEX
  5
4FD
330
457
100
AcDbEntity
  8
R-ANNO-TEXT
370
    20
100
AcDbVertex
100
AcDb2dVertex
 10
-0.1514258589193362
 20
-0.3604719348230145
 30
0.0
 70
     8
  0
VERTEX
  5
4FE
330
457
100
AcDbEntity
  8
R-ANNO-TEXT
370
    20
100
AcDbVertex
100
AcDb2dVertex
 10
-0.1518340912128557
 20
-0.3595763597093717
 30
0.0
 70
     8
  0
VERTEX
  5
4FF
330
457
100
AcDbEntity
  8
R-ANNO-TEXT
370
    20
100
AcDbVertex
100
AcDb2dVertex
 10
-0.1521730383010356
 20
-0.3587199073716558
 30
0.0
 70
     8
  0
VERTEX
  5
500
330
457
100
AcDbEntity
  8
R-ANNO-TEXT
370
    20
100
AcDbVertex
100
AcDb2dVertex
 10
-0.1524495210050902
 20
-0.3579000653094133
 30
0.0
 70
     8
  0
VERTEX
  5
501
330
457
100
AcDbEntity
  8
R-ANNO-TEXT
370
    20
100
AcDbVertex
100
AcDb2dVertex
 10
-0.1526703601462376
 20
-0.3571143210221916
 30
0.0
 70
     8
  0
VERTEX
  5
502
330
457
100
AcDbEntity
  8
R-ANNO-TEXT
370
    20
100
AcDbVertex
100
AcDb2dVertex
 10
-0.1528505734966146
 20
-0.3563615977117096
 30
0.0
 70
     8
  0
VERTEX
  5
503
330
457
100
AcDbEntity
  8
R-ANNO-TEXT
370
    20
100
AcDbVertex
100
AcDb2dVertex
 10
-0.1530379666320414
 20
-0.3556465613883741
 30
0.0
 70
     8
  0
VERTEX
  5
504
330
457
100
AcDbEntity
  8
R-ANNO-TEXT
370
    20
100
AcDbVertex
100
AcDb2dVertex
 10
-0.1532885420792596
 20
-0.3549753137647635
 30
0.0
 70
     8
  0
VERTEX
  5
505
330
457
100
AcDbEntity
  8
R-ANNO-TEXT
370
    20
100
AcDbVertex
100
AcDb2dVertex
 10
-0.1536583023650118
 20
-0.3543539565534579
 30
0.0
 70
     8
  0
VERTEX
  5
506
330
457
100
AcDbEntity
  8
R-ANNO-TEXT
370
    20
100
AcDbVertex
100
AcDb2dVertex
 10
-0.1542032500160384
 20
-0.3537885914670356
 30
0.0
 70
     8
  0
VERTEX
  5
507
330
457
100
AcDbEntity
  8
R-ANNO-TEXT
370
    20
100
AcDbVertex
100
AcDb2dVertex
 10
-0.1549793875590821
 20
-0.3532853202180752
 30
0.0
 70
     8
  0
VERTEX
  5
508
330
457
100
AcDbEntity
  8
R-ANNO-TEXT
370
    20
100
AcDbVertex
100
AcDb2dVertex
 10
-0.1560427175208823
 20
-0.3528502445191561
 30
0.0
 70
     8
  0
VERTEX
  5
509
330
457
100
AcDbEntity
  8
R-ANNO-TEXT
370
    20
100
AcDbVertex
100
AcDb2dVertex
 10
-0.1574492424281826
 20
-0.352489466082857
 30
0.0
 70
     8
  0
VERTEX
  5
50A
330
457
100
AcDbEntity
  8
R-ANNO-TEXT
370
    20
100
AcDbVertex
100
AcDb2dVertex
 10
-0.1592301227336423
 20
-0.3522068357205104
 30
0.0
 70
     8
  0
VERTEX
  5
50B
330
457
100
AcDbEntity
  8
R-ANNO-TEXT
370
    20
100
AcDbVertex
100
AcDb2dVertex
 10
-0.1613171505935929
 20
-0.35199720063846
 30
0.0
 70
     8
  0
VERTEX
  5
50C
330
457
100
AcDbEntity
  8
R-ANNO-TEXT
370
    20
100
AcDbVertex
100
AcDb2dVertex
 10
-0.1636172760902843
 20
-0.3518531571418046
 30
0.0
 70
     8
  0
VERTEX
  5
50D
330
457
100
AcDbEntity
  8
R-ANNO-TEXT
370
    20
100
AcDbVertex
100
AcDb2dVertex
 10
-0.1660374493059669
 20
-0.3517673015356411
 30
0.0
 70
     8
  0
VERTEX
  5
50E
330
457
100
AcDbEntity
  8
R-ANNO-TEXT
370
    20
100
AcDbVertex
100
AcDb2dVertex
 10
-0.1684846203228907
 20
-0.3517322301250676
 30
0.0
 70
     8
  0
VERTEX
  5
50F
330
457
100
AcDbEntity
  8
R-ANNO-TEXT
370
    20
100
AcDbVertex
100
AcDb2dVertex
 10
-0.1708657392233048
 20
-0.3517405392151822
 30
0.0
 70
     8
  0
VERTEX
  5
510
330
457
100
AcDbEntity
  8
R-ANNO-TEXT
370
    20
100
AcDbVertex
100
AcDb2dVertex
 10
-0.1730877560894606
 20
-0.351784825111082
 30
0.0
 70
     8
  0
VERTEX
  5
511
330
457
100
AcDbEntity
  8
R-ANNO-TEXT
370
    20
100
AcDbVertex
100
AcDb2dVertex
 10
-0.175057621003607
 20
-0.3518576841178653
 30
0.0
 70
     8
  0
VERTEX
  5
512
330
457
100
AcDbEntity
  8
R-ANNO-TEXT
370
    20
100
AcDbVertex
100
AcDb2dVertex
 10
-0.1766990089920606
 20
-0.3519593719448832
 30
0.0
 70
     8
  0
VERTEX
  5
513
330
457
100
AcDbEntity
  8
R-ANNO-TEXT
370
    20
100
AcDbVertex
100
AcDb2dVertex
 10
-0.1780024948574099
 20
-0.3521207819185035
 30
0.0
 70
     8
  0
VERTEX
  5
514
330
457
100
AcDbEntity
  8
R-ANNO-TEXT
370
    20
100
AcDbVertex
100
AcDb2dVertex
 10
-0.1789753783463088
 20
-0.3523804667693469
 30
0.0
 70
     8
  0
VERTEX
  5
515
330
457
100
AcDbEntity
  8
R-ANNO-TEXT
370
    20
100
AcDbVertex
100
AcDb2dVertex
 10
-0.1796249592054111
 20
-0.3527769792280342
 30
0.0
 70
     8
  0
VERTEX
  5
516
330
457
100
AcDbEntity
  8
R-ANNO-TEXT
370
    20
100
AcDbVertex
100
AcDb2dVertex
 10
-0.1799585371813717
 20
-0.3533488720251872
 30
0.0
 70
     8
  0
VERTEX
  5
517
330
457
100
AcDbEntity
  8
R-ANNO-TEXT
370
    20
100
AcDbVertex
100
AcDb2dVertex
 10
-0.1799834120208432
 20
-0.3541346978914261
 30
0.0
 70
     8
  0
VERTEX
  5
518
330
457
100
AcDbEntity
  8
R-ANNO-TEXT
370
    20
100
AcDbVertex
100
AcDb2dVertex
 10
-0.1797068834704807
 20
-0.3551730095573728
 30
0.0
 70
     8
  0
VERTEX
  5
519
330
457
100
AcDbEntity
  8
R-ANNO-TEXT
370
    20
100
AcDbVertex
100
AcDb2dVertex
 10
-0.179136251276939
 20
-0.3565023597536481
 30
0.0
 70
     8
  0
VERTEX
  5
51A
330
457
100
AcDbEntity
  8
R-ANNO-TEXT
370
    20
100
AcDbVertex
100
AcDb2dVertex
 10
-0.1782822386084093
 20
-0.3581456791812627
 30
0.0
 70
     8
  0
VERTEX
  5
51B
330
457
100
AcDbEntity
  8
R-ANNO-TEXT
370
    20
100
AcDbVertex
100
AcDb2dVertex
 10
-0.1771692623192289
 20
-0.3600634104227907
 30
0.0
 70
     8
  0
VERTEX
  5
51C
330
457
100
AcDbEntity
  8
R-ANNO-TEXT
370
    20
100
AcDbVertex
100
AcDb2dVertex
 10
-0.1758251626852758
 20
-0.3622003740311945
 30
0.0
 70
     8
  0
VERTEX
  5
51D
330
457
100
AcDbEntity
  8
R-ANNO-TEXT
370
    20
100
AcDbVertex
100
AcDb2dVertex
 10
-0.1742777799824258
 20
-0.3645013905594383
 30
0.0
 70
     8
  0
VERTEX
  5
51E
330
457
100
AcDbEntity
  8
R-ANNO-TEXT
370
    20
100
AcDbVertex
100
AcDb2dVertex
 10
-0.1725549544865546
 20
-0.366911280560485
 30
0.0
 70
     8
  0
VERTEX
  5
51F
330
457
100
AcDbEntity
  8
R-ANNO-TEXT
370
    20
100
AcDbVertex
100
AcDb2dVertex
 10
-0.170684526473539
 20
-0.3693748645872983
 30
0.0
 70
     8
  0
VERTEX
  5
520
330
457
100
AcDbEntity
  8
R-ANNO-TEXT
370
    20
100
AcDbVertex
100
AcDb2dVertex
 10
-0.1686943362192528
 20
-0.3718369631928411
 30
0.0
 70
     8
  0
VERTEX
  5
521
330
457
100
AcDbEntity
  8
R-ANNO-TEXT
370
    20
100
AcDbVertex
100
AcDb2dVertex
 10
-0.166612223999576
 20
-0.3742423969300774
 30
0.0
 70
     8
  0
VERTEX
  5
522
330
457
100
AcDbEntity
  8
R-ANNO-TEXT
370
    20
100
AcDbVertex
100
AcDb2dVertex
 10
-0.1644644364404824
 20
-0.3765438607824389
 30
0.0
 70
     8
  0
VERTEX
  5
523
330
457
100
AcDbEntity
  8
R-ANNO-TEXT
370
    20
100
AcDbVertex
100
AcDb2dVertex
 10
-0.1622708455683552
 20
-0.3787255474552342
 30
0.0
 70
     8
  0
VERTEX
  5
524
330
457
100
AcDbEntity
  8
R-ANNO-TEXT
370
    20
100
AcDbVertex
100
AcDb2dVertex
 10
-0.1600497297596792
 20
-0.3807795240842404
 30
0.0
 70
     8
  0
VERTEX
  5
525
330
457
100
AcDbEntity
  8
R-ANNO-TEXT
370
    20
100
AcDbVertex
100
AcDb2dVertex
 10
-0.1578193673909367
 20
-0.3826978578052351
 30
0.0
 70
     8
  0
VERTEX
  5
526
330
457
100
AcDbEntity
  8
R-ANNO-TEXT
370
    20
100
AcDbVertex
100
AcDb2dVertex
 10
-0.1555980368386101
 20
-0.384472615753995
 30
0.0
 70
     8
  0
VERTEX
  5
527
330
457
100
AcDbEntity
  8
R-ANNO-TEXT
370
    20
100
AcDbVertex
100
AcDb2dVertex
 10
-0.1534040164791839
 20
-0.3860958650662973
 30
0.0
 70
     8
  0
VERTEX
  5
528
330
457
100
AcDbEntity
  8
R-ANNO-TEXT
370
    20
100
AcDbVertex
100
AcDb2dVertex
 10
-0.1512555846891406
 20
-0.3875596728779196
 30
0.0
 70
     8
  0
VERTEX
  5
529
330
457
100
AcDbEntity
  8
R-ANNO-TEXT
370
    20
100
AcDbVertex
100
AcDb2dVertex
 10
-0.1491710198449636
 20
-0.3888561063246394
 30
0.0
 70
     8
  0
VERTEX
  5
52A
330
457
100
AcDbEntity
  8
R-ANNO-TEXT
370
    20
100
AcDbVertex
100
AcDb2dVertex
 10
-0.1471585887696059
 20
-0.3899808817299504
 30
0.0
 70
     8
  0
VERTEX
  5
52B
330
457
100
AcDbEntity
  8
R-ANNO-TEXT
370
    20
100
AcDbVertex
100
AcDb2dVertex
 10
-0.145186512071892
 20
-0.3909443121682194
 30
0.0
 70
     8
  0
VERTEX
  5
52C
330
457
100
AcDbEntity
  8
R-ANNO-TEXT
370
    20
100
AcDbVertex
100
AcDb2dVertex
 10
-0.1432129988071185
 20
-0.3917603599015282
 30
0.0
 70
     8
  0
VERTEX
  5
52D
330
457
100
AcDbEntity
  8
R-ANNO-TEXT
370
    20
100
AcDbVertex
100
AcDb2dVertex
 10
-0.1411962580305792
 20
-0.3924429871919606
 30
0.0
 70
     8
  0
VERTEX
  5
52E
330
457
100
AcDbEntity
  8
R-ANNO-TEXT
370
    20
100
AcDbVertex
100
AcDb2dVertex
 10
-0.1390944987975684
 20
-0.3930061563015998
 30
0.0
 70
     8
  0
VERTEX
  5
52F
330
457
100
AcDbEntity
  8
R-ANNO-TEXT
370
    20
100
AcDbVertex
100
AcDb2dVertex
 10
-0.1368659301633823
 20
-0.3934638294925281
 30
0.0
 70
     8
  0
VERTEX
  5
530
330
457
100
AcDbEntity
  8
R-ANNO-TEXT
370
    20
100
AcDbVertex
100
AcDb2dVertex
 10
-0.1344687611833151
 20
-0.3938299690268292
 30
0.0
 70
     8
  0
VERTEX
  5
531
330
457
100
AcDbEntity
  8
R-ANNO-TEXT
370
    20
100
AcDbVertex
100
AcDb2dVertex
 10
-0.1318612009126607
 20
-0.3941185371665856
 30
0.0
 70
     8
  0
VERTEX
  5
532
330
457
100
AcDbEntity
  8
R-ANNO-TEXT
370
    20
100
AcDbVertex
100
AcDb2dVertex
 10
-0.1290159124160095
 20
-0.39433987615093
 30
0.0
 70
     8
  0
VERTEX
  5
533
330
457
100
AcDbEntity
  8
R-ANNO-TEXT
370
    20
100
AcDbVertex
100
AcDb2dVertex
 10
-0.1259633747951272
 20
-0.3944898481271895
 30
0.0
 70
     8
  0
VERTEX
  5
534
330
457
100
AcDbEntity
  8
R-ANNO-TEXT
370
    20
100
AcDbVertex
100
AcDb2dVertex
 10
-0.1227485211610746
 20
-0.3945606952197416
 30
0.0
 70
     8
  0
VERTEX
  5
535
330
457
100
AcDbEntity
  8
R-ANNO-TEXT
370
    20
100
AcDbVertex
100
AcDb2dVertex
 10
-0.1194162846249125
 20
-0.3945446595529631
 30
0.0
 70
     8
  0
VERTEX
  5
536
330
457
100
AcDbEntity
  8
R-ANNO-TEXT
370
    20
100
AcDbVertex
100
AcDb2dVertex
 10
-0.1160115982977006
 20
-0.3944339832512305
 30
0.0
 70
     8
  0
VERTEX
  5
537
330
457
100
AcDbEntity
  8
R-ANNO-TEXT
370
    20
100
AcDbVertex
100
AcDb2dVertex
 10
-0.1125793952905019
 20
-0.3942209084389208
 30
0.0
 70
     8
  0
VERTEX
  5
538
330
457
100
AcDbEntity
  8
R-ANNO-TEXT
370
    20
100
AcDbVertex
100
AcDb2dVertex
 10
-0.1091646087143738
 20
-0.3938976772404112
 30
0.0
 70
     8
  0
VERTEX
  5
539
330
457
100
AcDbEntity
  8
R-ANNO-TEXT
370
    20
100
AcDbVertex
100
AcDb2dVertex
 10
-0.1058121716803795
 20
-0.3934565317800782
 30
0.0
 70
     8
  0
VERTEX
  5
53A
330
457
100
AcDbEntity
  8
R-ANNO-TEXT
370
    20
100
AcDbVertex
100
AcDb2dVertex
 10
-0.1025603261056029
 20
-0.3928908926440329
 30
0.0
 70
     8
  0
VERTEX
  5
53B
330
457
100
AcDbEntity
  8
R-ANNO-TEXT
370
    20
100
AcDbVertex
100
AcDb2dVertex
 10
-0.0994205491312284
 20
-0.3921988942653241
 30
0.0
 70
     8
  0
VERTEX
  5
53C
330
457
100
AcDbEntity
  8
R-ANNO-TEXT
370
    20
100
AcDbVertex
100
AcDb2dVertex
 10
-0.0963976267044642
 20
-0.391379849538735
 30
0.0
 70
     8
  0
VERTEX
  5
53D
330
457
100
AcDbEntity
  8
R-ANNO-TEXT
370
    20
100
AcDbVertex
100
AcDb2dVertex
 10
-0.0934963447725168
 20
-0.3904330713590491
 30
0.0
 70
     8
  0
VERTEX
  5
53E
330
457
100
AcDbEntity
  8
R-ANNO-TEXT
370
    20
100
AcDbVertex
100
AcDb2dVertex
 10
-0.0907214892825959
 20
-0.3893578726210483
 30
0.0
 70
     8
  0
VERTEX
  5
53F
330
457
100
AcDbEntity
  8
R-ANNO-TEXT
370
    20
100
AcDbVertex
100
AcDb2dVertex
 10
-0.0880778461819087
 20
-0.3881535662195166
 30
0.0
 70
     8
  0
VERTEX
  5
540
330
457
100
AcDbEntity
  8
R-ANNO-TEXT
370
    20
100
AcDbVertex
100
AcDb2dVertex
 10
-0.0855702014176629
 20
-0.3868194650492365
 30
0.0
 70
     8
  0
VERTEX
  5
541
330
457
100
AcDbEntity
  8
R-ANNO-TEXT
370
    20
100
AcDbVertex
100
AcDb2dVertex
 10
-0.0832033409370681
 20
-0.3853548820049912
 30
0.0
 70
     8
  0
VERTEX
  5
542
330
457
100
AcDbEntity
  8
R-ANNO-TEXT
370
    20
100
AcDbVertex
100
AcDb2dVertex
 10
-0.0809813124924319
 20
-0.3837619177297182
 30
0.0
 70
     8
  0
VERTEX
  5
543
330
457
100
AcDbEntity
  8
R-ANNO-TEXT
370
    20
100
AcDbVertex
100
AcDb2dVertex
 10
-0.0789052110564748
 20
-0.3820538238589721
 30
0.0
 70
     8
  0
VERTEX
  5
544
330
457
100
AcDbEntity
  8
R-ANNO-TEXT
370
    20
100
AcDbVertex
100
AcDb2dVertex
 10
-0.076975393407015
 20
-0.3802466397764612
 30
0.0
 70
     8
  0
VERTEX
  5
545
330
457
100
AcDbEntity
  8
R-ANNO-TEXT
370
    20
100
AcDbVertex
100
AcDb2dVertex
 10
-0.0751922163218721
 20
-0.3783564048658947
 30
0.0
 70
     8
  0
VERTEX
  5
546
330
457
100
AcDbEntity
  8
R-ANNO-TEXT
370
    20
100
AcDbVertex
100
AcDb2dVertex
 10
-0.0735560365788668
 20
-0.3763991585109814
 30
0.0
 70
     8
  0
VERTEX
  5
547
330
457
100
AcDbEntity
  8
R-ANNO-TEXT
370
    20
100
AcDbVertex
100
AcDb2dVertex
 10
-0.0720672109558185
 20
-0.3743909400954304
 30
0.0
 70
     8
  0
VERTEX
  5
548
330
457
100
AcDbEntity
  8
R-ANNO-TEXT
370
    20
100
AcDbVertex
100
AcDb2dVertex
 10
-0.0707260962305467
 20
-0.3723477890029501
 30
0.0
 70
     8
  0
VERTEX
  5
549
330
457
100
AcDbEntity
  8
R-ANNO-TEXT
370
    20
100
AcDbVertex
100
AcDb2dVertex
 10
-0.0695330491808699
 20
-0.3702857446172492
 30
0.0
 70
     8
  0
VERTEX
  5
54A
330
457
100
AcDbEntity
  8
R-ANNO-TEXT
370
    20
100
AcDbVertex
100
AcDb2dVertex
 10
-0.068486642644674
 20
-0.3682203134369444
 30
0.0
 70
     8
  0
VERTEX
  5
54B
330
457
100
AcDbEntity
  8
R-ANNO-TEXT
370
    20
100
AcDbVertex
100
AcDb2dVertex
 10
-0.0675783137000963
 20
-0.3661648704202811
 30
0.0
 70
     8
  0
VERTEX
  5
54C
330
457
100
AcDbEntity
  8
R-ANNO-TEXT
370
    20
100
AcDbVertex
100
AcDb2dVertex
 10
-0.0667977154853394
 20
-0.3641322576404127
 30
0.0
 70
     8
  0
VERTEX
  5
54D
330
457
100
AcDbEntity
  8
R-ANNO-TEXT
370
    20
100
AcDbVertex
100
AcDb2dVertex
 10
-0.066134501138605
 20
-0.3621353171704915
 30
0.0
 70
     8
  0
VERTEX
  5
54E
330
457
100
AcDbEntity
  8
R-ANNO-TEXT
370
    20
100
AcDbVertex
100
AcDb2dVertex
 10
-0.0655783237980967
 20
-0.3601868910836714
 30
0.0
 70
     8
  0
VERTEX
  5
54F
330
457
100
AcDbEntity
  8
R-ANNO-TEXT
370
    20
100
AcDbVertex
100
AcDb2dVertex
 10
-0.0651188366020139
 20
-0.3582998214531048
 30
0.0
 70
     8
  0
VERTEX
  5
550
330
457
100
AcDbEntity
  8
R-ANNO-TEXT
370
    20
100
AcDbVertex
100
AcDb2dVertex
 10
-0.0647456926885615
 20
-0.3564869503519454
 30
0.0
 70
     8
  0
VERTEX
  5
551
330
457
100
AcDbEntity
  8
R-ANNO-TEXT
370
    20
100
AcDbVertex
100
AcDb2dVertex
 10
-0.064448545195942
 20
-0.3547611198533458
 30
0.0
 70
     8
  0
VERTEX
  5
552
330
457
100
AcDbEntity
  8
R-ANNO-TEXT
370
    20
100
AcDbVertex
100
AcDb2dVertex
 10
-0.0642208530110544
 20
-0.3531292266310326
 30
0.0
 70
     8
  0
VERTEX
  5
553
330
457
100
AcDbEntity
  8
R-ANNO-TEXT
370
    20
100
AcDbVertex
100
AcDb2dVertex
 10
-0.0640712980155922
 20
-0.3515743857610305
 30
0.0
 70
     8
  0
VERTEX
  5
554
330
457
100
AcDbEntity
  8
R-ANNO-TEXT
370
    20
100
AcDbVertex
100
AcDb2dVertex
 10
-0.0640123678399463
 20
-0.3500737669199352
 30
0.0
 70
     8
  0
VERTEX
  5
555
330
457
100
AcDbEntity
  8
R-ANNO-TEXT
370
    20
100
AcDbVertex
100
AcDb2dVertex
 10
-0.0640565501145085
 20
-0.3486045397843447
 30
0.0
 70
     8
  0
VERTEX
  5
556
330
457
100
AcDbEntity
  8
R-ANNO-TEXT
370
    20
100
AcDbVertex
100
AcDb2dVertex
 10
-0.0642163324696699
 20
-0.3471438740308566
 30
0.0
 70
     8
  0
VERTEX
  5
557
330
457
100
AcDbEntity
  8
R-ANNO-TEXT
370
    20
100
AcDbVertex
100
AcDb2dVertex
 10
-0.0645042025358222
 20
-0.3456689393360675
 30
0.0
 70
     8
  0
VERTEX
  5
558
330
457
100
AcDbEntity
  8
R-ANNO-TEXT
370
    20
100
AcDbVertex
100
AcDb2dVertex
 10
-0.0649326479433554
 20
-0.3441569053765749
 30
0.0
 70
     8
  0
VERTEX
  5
559
330
457
100
AcDbEntity
  8
R-ANNO-TEXT
370
    20
100
AcDbVertex
100
AcDb2dVertex
 10
-0.0655141563226613
 20
-0.3425849418289761
 30
0.0
 70
     8
  0
VERTEX
  5
55A
330
457
100
AcDbEntity
  8
R-ANNO-TEXT
370
    20
100
AcDbVertex
100
AcDb2dVertex
 10
-0.0662596692160755
 20
-0.3409372339348398
 30
0.0
 70
     8
  0
VERTEX
  5
55B
330
457
100
AcDbEntity
  8
R-ANNO-TEXT
370
    20
100
AcDbVertex
100
AcDb2dVertex
 10
-0.0671739438137076
 20
-0.3392260291956202
 30
0.0
 70
     8
  0
VERTEX
  5
55C
330
457
100
AcDbEntity
  8
R-ANNO-TEXT
370
    20
100
AcDbVertex
100
AcDb2dVertex
 10
-0.0682601912176084
 20
-0.3374705906777429
 30
0.0
 70
     8
  0
VERTEX
  5
55D
330
457
100
AcDbEntity
  8
R-ANNO-TEXT
370
    20
100
AcDbVertex
100
AcDb2dVertex
 10
-0.0695216225298312
 20
-0.335690181447633
 30
0.0
 70
     8
  0
VERTEX
  5
55E
330
457
100
AcDbEntity
  8
R-ANNO-TEXT
370
    20
100
AcDbVertex
100
AcDb2dVertex
 10
-0.0709614488524291
 20
-0.3339040645717164
 30
0.0
 70
     8
  0
VERTEX
  5
55F
330
457
100
AcDbEntity
  8
R-ANNO-TEXT
370
    20
100
AcDbVertex
100
AcDb2dVertex
 10
-0.0725828812874563
 20
-0.3321315031164187
 30
0.0
 70
     8
  0
VERTEX
  5
560
330
457
100
AcDbEntity
  8
R-ANNO-TEXT
370
    20
100
AcDbVertex
100
AcDb2dVertex
 10
-0.0743891309369638
 20
-0.3303917601481654
 30
0.0
 70
     8
  0
VERTEX
  5
561
330
457
100
AcDbEntity
  8
R-ANNO-TEXT
370
    20
100
AcDbVertex
100
AcDb2dVertex
 10
-0.0763834089030047
 20
-0.328704098733382
 30
0.0
 70
     8
  0
VERTEX
  5
562
330
457
100
AcDbEntity
  8
R-ANNO-TEXT
370
    20
100
AcDbVertex
100
AcDb2dVertex
 10
-0.0785662503692541
 20
-0.3270844525289611
 30
0.0
 70
     8
  0
VERTEX
  5
563
330
457
100
AcDbEntity
  8
R-ANNO-TEXT
370
    20
100
AcDbVertex
100
AcDb2dVertex
 10
-0.0809274868458787
 20
-0.3255354375536665
 30
0.0
 70
     8
  0
VERTEX
  5
564
330
457
100
AcDbEntity
  8
R-ANNO-TEXT
370
    20
100
AcDbVertex
100
AcDb2dVertex
 10
-0.083454273924668
 20
-0.3240563404167274
 30
0.0
 70
     8
  0
VERTEX
  5
565
330
457
100
AcDbEntity
  8
R-ANNO-TEXT
370
    20
100
AcDbVertex
100
AcDb2dVertex
 10
-0.0861337671974116
 20
-0.322646447727374
 30
0.0
 70
     8
  0
VERTEX
  5
566
330
457
100
AcDbEntity
  8
R-ANNO-TEXT
370
    20
100
AcDbVertex
100
AcDb2dVertex
 10
-0.0889531222558959
 20
-0.3213050460948374
 30
0.0
 70
     8
  0
VERTEX
  5
567
330
457
100
AcDbEntity
  8
R-ANNO-TEXT
370
    20
100
AcDbVertex
100
AcDb2dVertex
 10
-0.0918994946919116
 20
-0.3200314221283471
 30
0.0
 70
     8
  0
VERTEX
  5
568
330
457
100
AcDbEntity
  8
R-ANNO-TEXT
370
    20
100
AcDbVertex
100
AcDb2dVertex
 10
-0.0949600400972473
 20
-0.3188248624371335
 30
0.0
 70
     8
  0
VERTEX
  5
569
330
457
100
AcDbEntity
  8
R-ANNO-TEXT
370
    20
100
AcDbVertex
100
AcDb2dVertex
 10
-0.0981219140636935
 20
-0.3176846536304274
 30
0.0
 70
     8
  0
VERTEX
  5
56A
330
457
100
AcDbEntity
  8
R-ANNO-TEXT
370
    20
100
AcDbVertex
100
AcDb2dVertex
 10
-0.1013694178418578
 20
-0.3166090715794914
 30
0.0
 70
     8
  0
VERTEX
  5
56B
330
457
100
AcDbEntity
  8
R-ANNO-TEXT
370
    20
100
AcDbVertex
100
AcDb2dVertex
 10
-0.104675435317636
 20
-0.3155923492037229
 30
0.0
 70
     8
  0
VERTEX
  5
56C
330
457
100
AcDbEntity
  8
R-ANNO-TEXT
370
    20
100
AcDbVertex
100
AcDb2dVertex
 10
-0.108009996035745
 20
-0.3146277086845526
 30
0.0
 70
     8
  0
VERTEX
  5
56D
330
457
100
AcDbEntity
  8
R-ANNO-TEXT
370
    20
100
AcDbVertex
100
AcDb2dVertex
 10
-0.1113431295408995
 20
-0.3137083722034113
 30
0.0
 70
     8
  0
VERTEX
  5
56E
330
457
100
AcDbEntity
  8
R-ANNO-TEXT
370
    20
100
AcDbVertex
100
AcDb2dVertex
 10
-0.1146448653778165
 20
-0.3128275619417287
 30
0.0
 70
     8
  0
VERTEX
  5
56F
330
457
100
AcDbEntity
  8
R-ANNO-TEXT
370
    20
100
AcDbVertex
100
AcDb2dVertex
 10
-0.1178852330912106
 20
-0.3119785000809361
 30
0.0
 70
     8
  0
VERTEX
  5
570
330
457
100
AcDbEntity
  8
R-ANNO-TEXT
370
    20
100
AcDbVertex
100
AcDb2dVertex
 10
-0.1210342622257987
 20
-0.3111544088024631
 30
0.0
 70
     8
  0
VERTEX
  5
571
330
457
100
AcDbEntity
  8
R-ANNO-TEXT
370
    20
100
AcDbVertex
100
AcDb2dVertex
 10
-0.1240619823262956
 20
-0.3103485102877412
 30
0.0
 70
     8
  0
VERTEX
  5
572
330
457
100
AcDbEntity
  8
R-ANNO-TEXT
370
    20
100
AcDbVertex
100
AcDb2dVertex
 10
-0.1269420856547132
 20
-0.3095539379810033
 30
0.0
 70
     8
  0
VERTEX
  5
573
330
457
100
AcDbEntity
  8
R-ANNO-TEXT
370
    20
100
AcDbVertex
100
AcDb2dVertex
 10
-0.1296629153422346
 20
-0.308763470377694
 30
0.0
 70
     8
  0
VERTEX
  5
574
330
457
100
AcDbEntity
  8
R-ANNO-TEXT
370
    20
100
AcDbVertex
100
AcDb2dVertex
 10
-0.132216477237338
 20
-0.3079697972360611
 30
0.0
 70
     8
  0
VERTEX
  5
575
330
457
100
AcDbEntity
  8
R-ANNO-TEXT
370
    20
100
AcDbVertex
100
AcDb2dVertex
 10
-0.1345947771885037
 20
-0.3071656083143521
 30
0.0
 70
     8
  0
VERTEX
  5
576
330
457
100
AcDbEntity
  8
R-ANNO-TEXT
370
    20
100
AcDbVertex
100
AcDb2dVertex
 10
-0.1367898210442098
 20
-0.3063435933708147
 30
0.0
 70
     8
  0
VERTEX
  5
577
330
457
100
AcDbEntity
  8
R-ANNO-TEXT
370
    20
100
AcDbVertex
100
AcDb2dVertex
 10
-0.1387936146529334
 20
-0.305496442163697
 30
0.0
 70
     8
  0
VERTEX
  5
578
330
457
100
AcDbEntity
  8
R-ANNO-TEXT
370
    20
100
AcDbVertex
100
AcDb2dVertex
 10
-0.1405981638631559
 20
-0.304616844451246
 30
0.0
 70
     8
  0
VERTEX
  5
579
330
457
100
AcDbEntity
  8
R-ANNO-TEXT
370
    20
100
AcDbVertex
100
AcDb2dVertex
 10
-0.1421954745233545
 20
-0.30369748999171
 30
0.0
 70
     8
  0
VERTEX
  5
57A
330
457
100
AcDbEntity
  8
R-ANNO-TEXT
370
    20
100
AcDbVertex
100
AcDb2dVertex
 10
-0.1435817279805696
 20
-0.3027332727911913
 30
0.0
 70
     8
  0
VERTEX
  5
57B
330
457
100
AcDbEntity
  8
R-ANNO-TEXT
370
    20
100
AcDbVertex
100
AcDb2dVertex
 10
-0.1447698075760917
 20
-0.3017279038472136
 30
0.0
 70
     8
  0
VERTEX
  5
57C
330
457
100
AcDbEntity
  8
R-ANNO-TEXT
370
    20
100
AcDbVertex
100
AcDb2dVertex
 10
-0.1457767721497727
 20
-0.3006872984051561
 30
0.0
 70
     8
  0
VERTEX
  5
57D
330
457
100
AcDbEntity
  8
R-ANNO-TEXT
370
    20
100
AcDbVertex
100
AcDb2dVertex
 10
-0.1466196805414655
 20
-0.2996173717103971
 30
0.0
 70
     8
  0
VERTEX
  5
57E
330
457
100
AcDbEntity
  8
R-ANNO-TEXT
370
    20
100
AcDbVertex
100
AcDb2dVertex
 10
-0.1473155915910196
 20
-0.2985240390083161
 30
0.0
 70
     8
  0
VERTEX
  5
57F
330
457
100
AcDbEntity
  8
R-ANNO-TEXT
370
    20
100
AcDbVertex
100
AcDb2dVertex
 10
-0.1478815641382902
 20
-0.297413215544291
 30
0.0
 70
     8
  0
VERTEX
  5
580
330
457
100
AcDbEntity
  8
R-ANNO-TEXT
370
    20
100
AcDbVertex
100
AcDb2dVertex
 10
-0.148334657023127
 20
-0.2962908165637015
 30
0.0
 70
     8
  0
VERTEX
  5
581
330
457
100
AcDbEntity
  8
R-ANNO-TEXT
370
    20
100
AcDbVertex
100
AcDb2dVertex
 10
-0.1486919290853828
 20
-0.295162757311926
 30
0.0
 70
     8
  0
VERTEX
  5
582
330
457
100
AcDbEntity
  8
R-ANNO-TEXT
370
    20
100
AcDbVertex
100
AcDb2dVertex
 10
-0.1489668332585614
 20
-0.2940329605215957
 30
0.0
 70
     8
  0
VERTEX
  5
583
330
457
100
AcDbEntity
  8
R-ANNO-TEXT
370
    20
100
AcDbVertex
100
AcDb2dVertex
 10
-0.1491583988507716
 20
-0.2928973788743541
 30
0.0
 70
     8
  0
VERTEX
  5
584
330
457
100
AcDbEntity
  8
R-ANNO-TEXT
370
    20
100
AcDbVertex
100
AcDb2dVertex
 10
-0.1492620492637731
 20
-0.2917499725390966
 30
0.0
 70
     8
  0
VERTEX
  5
585
330
457
100
AcDbEntity
  8
R-ANNO-TEXT
370
    20
100
AcDbVertex
100
AcDb2dVertex
 10
-0.1492732078993275
 20
-0.2905847016847183
 30
0.0
 70
     8
  0
VERTEX
  5
586
330
457
100
AcDbEntity
  8
R-ANNO-TEXT
370
    20
100
AcDbVertex
100
AcDb2dVertex
 10
-0.1491872981591957
 20
-0.2893955264801144
 30
0.0
 70
     8
  0
VERTEX
  5
587
330
457
100
AcDbEntity
  8
R-ANNO-TEXT
370
    20
100
AcDbVertex
100
AcDb2dVertex
 10
-0.1489997434451373
 20
-0.2881764070941814
 30
0.0
 70
     8
  0
VERTEX
  5
588
330
457
100
AcDbEntity
  8
R-ANNO-TEXT
370
    20
100
AcDbVertex
100
AcDb2dVertex
 10
-0.148705967158913
 20
-0.2869213036958143
 30
0.0
 70
     8
  0
VERTEX
  5
589
330
457
100
AcDbEntity
  8
R-ANNO-TEXT
370
    20
100
AcDbVertex
100
AcDb2dVertex
 10
-0.1483013927022836
 20
-0.2856241764539087
 30
0.0
 70
     8
  0
VERTEX
  5
58A
330
457
100
AcDbEntity
  8
R-ANNO-TEXT
370
    20
100
AcDbVertex
100
AcDb2dVertex
 10
-0.1477833413099694
 20
-0.2842826623824295
 30
0.0
 70
     8
  0
VERTEX
  5
58B
330
457
100
AcDbEntity
  8
R-ANNO-TEXT
370
    20
100
AcDbVertex
100
AcDb2dVertex
 10
-0.1471567255485329
 20
-0.2829091058756235
 30
0.0
 70
     8
  0
VERTEX
  5
58C
330
457
100
AcDbEntity
  8
R-ANNO-TEXT
370
    20
100
AcDbVertex
100
AcDb2dVertex
 10
-0.146428355817495
 20
-0.2815195281728053
 30
0.0
 70
     8
  0
VERTEX
  5
58D
330
457
100
AcDbEntity
  8
R-ANNO-TEXT
370
    20
100
AcDbVertex
100
AcDb2dVertex
 10
-0.145605042516378
 20
-0.2801299505132913
 30
0.0
 70
     8
  0
VERTEX
  5
58E
330
457
100
AcDbEntity
  8
R-ANNO-TEXT
370
    20
100
AcDbVertex
100
AcDb2dVertex
 10
-0.1446935960447027
 20
-0.2787563941363969
 30
0.0
 70
     8
  0
VERTEX
  5
58F
330
457
100
AcDbEntity
  8
R-ANNO-TEXT
370
    20
100
AcDbVertex
100
AcDb2dVertex
 10
-0.1437008268019935
 20
-0.2774148802814382
 30
0.0
 70
     8
  0
VERTEX
  5
590
330
457
100
AcDbEntity
  8
R-ANNO-TEXT
370
    20
100
AcDbVertex
100
AcDb2dVertex
 10
-0.1426335451877692
 20
-0.2761214301877306
 30
0.0
 70
     8
  0
VERTEX
  5
591
330
457
100
AcDbEntity
  8
R-ANNO-TEXT
370
    20
100
AcDbVertex
100
AcDb2dVertex
 10
-0.1414985616015518
 20
-0.2748920650945896
 30
0.0
 70
     8
  0
VERTEX
  5
592
330
457
100
AcDbEntity
  8
R-ANNO-TEXT
370
    20
100
AcDbVertex
100
AcDb2dVertex
 10
-0.1403003495430621
 20
-0.2737407368350424
 30
0.0
 70
     8
  0
VERTEX
  5
593
330
457
100
AcDbEntity
  8
R-ANNO-TEXT
370
    20
100
AcDbVertex
100
AcDb2dVertex
 10
-0.1390340349128061
 20
-0.2726731196169583
 30
0.0
 70
     8
  0
VERTEX
  5
594
330
457
100
AcDbEntity
  8
R-ANNO-TEXT
370
    20
100
AcDbVertex
100
AcDb2dVertex
 10
-0.1376924067114849
 20
-0.271692818241918
 30
0.0
 70
     8
  0
VERTEX
  5
595
330
457
100
AcDbEntity
  8
R-ANNO-TEXT
370
    20
100
AcDbVertex
100
AcDb2dVertex
 10
-0.1362682539398052
 20
-0.2708034375115025
 30
0.0
 70
     8
  0
VERTEX
  5
596
330
457
100
AcDbEntity
  8
R-ANNO-TEXT
370
    20
100
AcDbVertex
100
AcDb2dVertex
 10
-0.1347543655984684
 20
-0.270008582227292
 30
0.0
 70
     8
  0
VERTEX
  5
597
330
457
100
AcDbEntity
  8
R-ANNO-TEXT
370
    20
100
AcDbVertex
100
AcDb2dVertex
 10
-0.1331435306881779
 20
-0.2693118571908668
 30
0.0
 70
     8
  0
VERTEX
  5
598
330
457
100
AcDbEntity
  8
R-ANNO-TEXT
370
    20
100
AcDbVertex
100
AcDb2dVertex
 10
-0.131428538209637
 20
-0.2687168672038087
 30
0.0
 70
     8
  0
VERTEX
  5
599
330
457
100
AcDbEntity
  8
R-ANNO-TEXT
370
    20
100
AcDbVertex
100
AcDb2dVertex
 10
-0.1296021771635503
 20
-0.2682272170676976
 30
0.0
 70
     8
  0
VERTEX
  5
59A
330
457
100
AcDbEntity
  8
R-ANNO-TEXT
370
    20
100
AcDbVertex
100
AcDb2dVertex
 10
-0.1276617433912897
 20
-0.2678475462944756
 30
0.0
 70
     8
  0
VERTEX
  5
59B
330
457
100
AcDbEntity
  8
R-ANNO-TEXT
370
    20
100
AcDbVertex
100
AcDb2dVertex
 10
-0.1256225600969008
 20
-0.2675866332375341
 30
0.0
 70
     8
  0
VERTEX
  5
59C
330
457
100
AcDbEntity
  8
R-ANNO-TEXT
370
    20
100
AcDbVertex
100
AcDb2dVertex
 10
-0.1235044573250998
 20
-0.2674542909606243
 30
0.0
 70
     8
  0
VERTEX
  5
59D
330
457
100
AcDbEntity
  8
R-ANNO-TEXT
370
    20
100
AcDbVertex
100
AcDb2dVertex
 10
-0.1213272651206032
 20
-0.2674603325274991
 30
0.0
 70
     8
  0
VERTEX
  5
59E
330
457
100
AcDbEntity
  8
R-ANNO-TEXT
370
    20
100
AcDbVertex
100
AcDb2dVertex
 10
-0.1191108135281249
 20
-0.2676145710019107
 30
0.0
 70
     8
  0
VERTEX
  5
59F
330
457
100
AcDbEntity
  8
R-ANNO-TEXT
370
    20
100
AcDbVertex
100
AcDb2dVertex
 10
-0.1168749325923812
 20
-0.2679268194476108
 30
0.0
 70
     8
  0
VERTEX
  5
5A0
330
457
100
AcDbEntity
  8
R-ANNO-TEXT
370
    20
100
AcDbVertex
100
AcDb2dVertex
 10
-0.1146394523580874
 20
-0.2684068909283521
 30
0.0
 70
     8
  0
VERTEX
  5
5A1
330
457
100
AcDbEntity
  8
R-ANNO-TEXT
370
    20
100
AcDbVertex
100
AcDb2dVertex
 10
-0.1124242028699585
 20
-0.2690645985078861
 30
0.0
 70
     8
  0
VERTEX
  5
5A2
330
457
100
AcDbEntity
  8
R-ANNO-TEXT
370
    20
100
AcDbVertex
100
AcDb2dVertex
 10
-0.1102365593240562
 20
-0.269928943515878
 30
0.0
 70
     8
  0
VERTEX
  5
5A3
330
457
100
AcDbEntity
  8
R-ANNO-TEXT
370
    20
100
AcDbVertex
100
AcDb2dVertex
 10
-0.1080340775218258
 20
-0.2711056803456411
 30
0.0
 70
     8
  0
VERTEX
  5
5A4
330
457
100
AcDbEntity
  8
R-ANNO-TEXT
370
    20
100
AcDbVertex
100
AcDb2dVertex
 10
-0.1057618584160569
 20
-0.2727197516564006
 30
0.0
 70
     8
  0
VERTEX
  5
5A5
330
457
100
AcDbEntity
  8
R-ANNO-TEXT
370
    20
100
AcDbVertex
100
AcDb2dVertex
 10
-0.1033650029595401
 20
-0.274896100107382
 30
0.0
 70
     8
  0
VERTEX
  5
5A6
330
457
100
AcDbEntity
  8
R-ANNO-TEXT
370
    20
100
AcDbVertex
100
AcDb2dVertex
 10
-0.1007886121050661
 20
-0.277759668357811
 30
0.0
 70
     8
  0
VERTEX
  5
5A7
330
457
100
AcDbEntity
  8
R-ANNO-TEXT
370
    20
100
AcDbVertex
100
AcDb2dVertex
 10
-0.0979777868054255
 20
-0.2814353990669129
 30
0.0
 70
     8
  0
VERTEX
  5
5A8
330
457
100
AcDbEntity
  8
R-ANNO-TEXT
370
    20
100
AcDbVertex
100
AcDb2dVertex
 10
-0.0948776280134067
 20
-0.2860482348939137
 30
0.0
 70
     8
  0
VERTEX
  5
5A9
330
457
100
AcDbEntity
  8
R-ANNO-TEXT
370
    20
100
AcDbVertex
100
AcDb2dVertex
 10
-0.0914332366818027
 20
-0.2917231184980382
 30
0.0
 70
     8
  0
VERTEX
  5
5AA
330
457
100
AcDbEntity
  8
R-ANNO-TEXT
370
    20
100
AcDbVertex
100
AcDb2dVertex
 10
-0.0666198084475156
 20
-0.2917231184980382
 30
0.0
 70
    16
  0
VERTEX
  5
5AB
330
457
100
AcDbEntity
  8
R-ANNO-TEXT
370
    20
100
AcDbVertex
100
AcDb2dVertex
 10
-0.0699282533986401
 20
-0.2790430301725442
 30
0.0
 70
    16
  0
VERTEX
  5
5AC
330
457
100
AcDbEntity
  8
R-ANNO-TEXT
370
    20
100
AcDbVertex
100
AcDb2dVertex
 10
-0.0780156153367984
 20
-0.2663629640187146
 30
0.0
 70
    16
  0
VERTEX
  5
5AD
330
457
100
AcDbEntity
  8
R-ANNO-TEXT
370
    20
100
AcDbVertex
100
AcDb2dVertex
 10
-0.0940064976726041
 20
-0.2577258130095403
 30
0.0
 70
    16
  0
VERTEX
  5
5AE
330
457
100
AcDbEntity
  8
R-ANNO-TEXT
370
    20
100
AcDbVertex
100
AcDb2dVertex
 10
-0.1085269340013151
 20
-0.2523964976329527
 30
0.0
 70
    16
  0
VERTEX
  5
5AF
330
457
100
AcDbEntity
  8
R-ANNO-TEXT
370
    20
100
AcDbVertex
100
AcDb2dVertex
 10
-0.123231211870537
 20
-0.2523964976329527
 30
0.0
 70
    16
  0
VERTEX
  5
5B0
330
457
100
AcDbEntity
  8
R-ANNO-TEXT
370
    20
100
AcDbVertex
100
AcDb2dVertex
 10
-0.144736169124885
 20
-0.2551530568890046
 30
0.0
 70
    16
  0
VERTEX
  5
5B1
330
457
100
AcDbEntity
  8
R-ANNO-TEXT
370
    20
100
AcDbVertex
100
AcDb2dVertex
 10
-0.1574186065095662
 20
-0.2647090462024213
 30
0.0
 70
    16
  0
VERTEX
  5
5B2
330
457
100
AcDbEntity
  8
R-ANNO-TEXT
370
    20
100
AcDbVertex
100
AcDb2dVertex
 10
-0.1686305978871527
 20
-0.2808807289526891
 30
0.0
 70
    16
  0
VERTEX
  5
5B3
330
457
100
AcDbEntity
  8
R-ANNO-TEXT
370
    20
100
AcDbVertex
100
AcDb2dVertex
 10
-0.1686305978871527
 20
-0.3003602695072169
 30
0.0
 70
    16
  0
VERTEX
  5
5B4
330
457
100
AcDbEntity
  8
R-ANNO-TEXT
370
    20
100
AcDbVertex
100
AcDb2dVertex
 10
-0.163300312451492
 20
-0.3141429549291272
 30
0.0
 70
    16
  0
VERTEX
  5
5B5
330
457
100
AcDbEntity
  8
R-ANNO-TEXT
370
    20
100
AcDbVertex
100
AcDb2dVertex
 10
-0.1436333541411738
 20
-0.3255366430226889
 30
0.0
 70
    16
  0
VERTEX
  5
5B6
330
457
100
AcDbEntity
  8
R-ANNO-TEXT
370
    20
100
AcDbVertex
100
AcDb2dVertex
 10
-0.1175332954114883
 20
-0.333990035239685
 30
0.0
 70
    16
  0
VERTEX
  5
5B7
330
457
100
AcDbEntity
  8
R-ANNO-TEXT
370
    20
100
AcDbVertex
100
AcDb2dVertex
 10
-0.0918008416763716
 20
-0.3426271862488637
 30
0.0
 70
    16
  0
VERTEX
  5
5B8
330
457
100
AcDbEntity
  8
R-ANNO-TEXT
370
    20
100
AcDbVertex
100
AcDb2dVertex
 10
-0.0838973212787242
 20
-0.3532857948303656
 30
0.0
 70
    16
  0
VERTEX
  5
5B9
330
457
100
AcDbEntity
  8
R-ANNO-TEXT
370
    20
100
AcDbVertex
100
AcDb2dVertex
 10
-0.0838973212787242
 20
-0.3632093238998078
 30
0.0
 70
    16
  0
VERTEX
  5
5BA
330
457
100
AcDbEntity
  8
R-ANNO-TEXT
370
    20
100
AcDbVertex
100
AcDb2dVertex
 10
-0.0930874721717701
 20
-0.3733166339331015
 30
0.0
 70
    16
  0
VERTEX
  5
5BB
330
457
100
AcDbEntity
  8
R-ANNO-TEXT
370
    20
100
AcDbVertex
100
AcDb2dVertex
 10
-0.1092621439904529
 20
-0.3790134668940457
 30
0.0
 70
    16
  0
VERTEX
  5
5BC
330
457
100
AcDbEntity
  8
R-ANNO-TEXT
370
    20
100
AcDbVertex
100
AcDb2dVertex
 10
-0.1239664218596748
 20
-0.3790134668940457
 30
0.0
 70
    16
  0
VERTEX
  5
5BD
330
457
100
AcDbEntity
  8
R-ANNO-TEXT
370
    20
100
AcDbVertex
100
AcDb2dVertex
 10
-0.1403249091900538
 20
-0.3744192532011867
 30
0.0
 70
    16
  0
VERTEX
  5
5BE
330
457
100
AcDbEntity
  8
R-ANNO-TEXT
370
    20
100
AcDbVertex
100
AcDb2dVertex
 10
-0.1500664805893648
 20
-0.3639444034118675
 30
0.0
 70
    16
  0
VERTEX
  5
5BF
330
457
100
AcDbEntity
  8
R-ANNO-TEXT
370
    20
100
AcDbVertex
100
AcDb2dVertex
 10
-0.1531911360576121
 20
-0.3567774114268039
 30
0.0
 70
    16
  0
VERTEX
  5
5C0
330
457
100
AcDbEntity
  8
R-ANNO-TEXT
370
    20
100
AcDbVertex
100
AcDb2dVertex
 10
-0.1531911360576121
 20
-0.3516318770140678
 30
0.0
 70
    16
  0
VERTEX
  5
5C1
330
457
100
AcDbEntity
  8
R-ANNO-TEXT
370
    20
100
AcDbVertex
100
AcDb2dVertex
 10
-0.178739774281037
 20
-0.3516318770140678
 30
0.0
 70
    16
  0
VERTEX
  5
5C2
330
457
100
AcDbEntity
  8
R-ANNO-TEXT
370
    20
100
AcDbVertex
100
AcDb2dVertex
 10
-0.1821954928398783
 20
-0.3529867196368528
 30
0.0
 70
    16
  0
VERTEX
  5
5C3
330
457
100
AcDbEntity
  8
R-ANNO-TEXT
370
    20
100
AcDbVertex
100
AcDb2dVertex
 10
-0.1672957620210858
 20
-0.3754354029604077
 30
0.0
 70
    16
  0
VERTEX
  5
5C4
330
457
100
AcDbEntity
  8
R-ANNO-TEXT
370
    20
100
AcDbVertex
100
AcDb2dVertex
 10
-0.1482948030732312
 20
-0.3907260501019802
 30
0.0
 70
    16
  0
VERTEX
  5
5C5
330
457
100
AcDbEntity
  8
R-ANNO-TEXT
370
    20
100
AcDbVertex
100
AcDb2dVertex
 10
-0.1345511447557712
 20
-0.3947970345795069
 30
0.0
 70
    16
  0
VERTEX
  5
5C6
330
457
100
AcDbEntity
  8
R-ANNO-TEXT
370
    20
100
AcDbVertex
100
AcDb2dVertex
 10
-0.1046678233796483
 20
-0.3947970345795069
 30
0.0
 70
    16
  0
VERTEX
  5
5C7
330
457
100
AcDbEntity
  8
R-ANNO-TEXT
370
    20
100
AcDbVertex
100
AcDb2dVertex
 10
-0.0816505918079147
 20
-0.386754017782934
 30
0.0
 70
    16
  0
VERTEX
  5
5C8
330
457
100
AcDbEntity
  8
R-ANNO-TEXT
370
    20
100
AcDbVertex
100
AcDb2dVertex
 10
-0.0679498550110991
 20
-0.3703161863187052
 30
0.0
 70
    16
  0
VERTEX
  5
5C9
330
457
100
AcDbEntity
  8
R-ANNO-TEXT
370
    20
100
AcDbVertex
100
AcDb2dVertex
 10
-0.0637482832329106
 20
-0.353695704645741
 30
0.0
 70
    16
  0
VERTEX
  5
5CA
330
457
100
AcDbEntity
  8
R-ANNO-TEXT
370
    20
100
AcDbVertex
100
AcDb2dVertex
 10
-0.0637482832329106
 20
-0.3434677142184048
 30
0.0
 70
    16
  0
VERTEX
  5
5CB
330
457
100
AcDbEntity
  8
R-ANNO-TEXT
370
    20
100
AcDbVertex
100
AcDb2dVertex
 10
-0.0743435217714172
 20
-0.3279430894544975
 30
0.0
 70
    16
  0
VERTEX
  5
5CC
330
457
100
AcDbEntity
  8
R-ANNO-TEXT
370
    20
100
AcDbVertex
100
AcDb2dVertex
 10
-0.0971780830994462
 20
-0.3169845203638975
 30
0.0
 70
    16
  0
VERTEX
  5
5CD
330
457
100
AcDbEntity
  8
R-ANNO-TEXT
370
    20
100
AcDbVertex
100
AcDb2dVertex
 10
-0.1256756302129569
 20
-0.3102267508724763
 30
0.0
 70
    16
  0
VERTEX
  5
5CE
330
457
100
AcDbEntity
  8
R-ANNO-TEXT
370
    20
100
AcDbVertex
100
AcDb2dVertex
 10
-0.1444912900065021
 20
-0.3041995378726456
 30
0.0
 70
    16
  0
VERTEX
  5
5CF
330
457
100
AcDbEntity
  8
R-ANNO-TEXT
370
    20
100
AcDbVertex
100
AcDb2dVertex
 10
-0.1495320569011593
 20
-0.2951600375872019
 30
0.0
 70
    16
  0
VERTEX
  5
5D0
330
457
100
AcDbEntity
  8
R-ANNO-TEXT
370
    20
100
AcDbVertex
100
AcDb2dVertex
 10
-0.1495320569011593
 20
-0.2861368556501018
 30
0.0
 70
    16
  0
VERTEX
  5
5D1
330
457
100
AcDbEntity
  8
R-ANNO-TEXT
370
    20
100
AcDbVertex
100
AcDb2dVertex
 10
-0.1421480717079027
 20
-0.2740375985358421
 30
0.0
 70
    16
  0
VERTEX
  5
5D2
330
457
100
AcDbEntity
  8
R-ANNO-TEXT
370
    20
100
AcDbVertex
100
AcDb2dVertex
 10
-0.1308670258765432
 20
-0.2670651407740685
 30
0.0
 70
    16
  0
VERTEX
  5
5D3
330
457
100
AcDbEntity
  8
R-ANNO-TEXT
370
    20
100
AcDbVertex
100
AcDb2dVertex
 10
-0.1119968877672284
 20
-0.2670651407740685
 30
0.0
 70
    16
  0
VERTEX
  5
5D4
330
457
100
AcDbEntity
  8
R-ANNO-TEXT
370
    20
100
AcDbVertex
100
AcDb2dVertex
 10
-0.1011260561052707
 20
-0.2750629717093398
 30
0.0
 70
    16
  0
VERTEX
  5
5D5
330
457
100
AcDbEntity
  8
R-ANNO-TEXT
370
    20
100
AcDbVertex
100
AcDb2dVertex
 10
-0.0914332366818027
 20
-0.2917231184980382
 30
0.0
 70
    16
  0
SEQEND
  5
5D6
330
457
100
AcDbEntity
  8
R-ANNO-TEXT
370
    20
  0
LWPOLYLINE
  5
5D7
330
1F3
100
AcDbEntity
  8
R-ANNO-TEXT
370
    20
100
AcDbPolyline
 90
        8
 70
     1
 43
0.0
 10
-0.0336839271397116
 20
-0.3596734526521592
 10
-0.0459431583012915
 20
-0.3918028172040841
 10
-0.0715024016122634
 20
-0.3918028172040841
 10
-0.0152317640764033
 20
-0.2557021826136605
 10
0.0056504276819325
 20
-0.2557021826136605
 10
0.0590097906021236
 20
-0.3918028172040841
 10
0.0353482156443874
 20
-0.3918028172040841
 10
0.0234378518225753
 20
-0.3596734526521592
  0
LWPOLYLINE
  5
5D8
330
1F3
100
AcDbEntity
  8
R-ANNO-TEXT
370
    20
100
AcDbPolyline
 90
        3
 70
     1
 43
0.0
 10
0.0182638735545338
 20
-0.3457161431656761
 10
-0.0047107857552364
 20
-0.2837397656625793
 10
-0.0283583974949542
 20
-0.3457161431656761
  0
LWPOLYLINE
  5
5D9
330
1F3
100
AcDbEntity
  8
R-ANNO-TEXT
370
    20
100
AcDbPolyline
 90
        8
 70
     1
 43
0.0
 10
0.1310855436934499
 20
-0.3596734526521592
 10
0.11882631253187
 20
-0.3918028172040841
 10
0.0932670692208981
 20
-0.3918028172040841
 10
0.1495377067567583
 20
-0.2557021826136605
 10
0.170419898515094
 20
-0.2557021826136605
 10
0.2237792614352851
 20
-0.3918028172040841
 10
0.2001176864775489
 20
-0.3918028172040841
 10
0.1882073226557368
 20
-0.3596734526521592
  0
LWPOLYLINE
  5
5DA
330
1F3
100
AcDbEntity
  8
R-ANNO-TEXT
370
    20
100
AcDbPolyline
 90
        3
 70
     1
 43
0.0
 10
0.1830333443876952
 20
-0.3457161431656761
 10
0.1600586850779251
 20
-0.2837397656625793
 10
0.1364110733382073
 20
-0.3457161431656761
  0
LWPOLYLINE
  5
5DB
330
1F3
100
AcDbEntity
  8
R-ANNO-TEXT
370
    20
100
AcDbPolyline
 90
       16
 70
     1
 43
0.0
 10
0.2295078658705918
 20
-0.2583895884342855
 10
0.2295078658705918
 20
-0.3916857507920754
 10
0.3030769139821998
 20
-0.3916857507920754
 10
0.3243907676558499
 20
-0.384340099498691
 10
0.3363628525724438
 20
-0.3755387451093393
 10
0.3432291766362006
 20
-0.3619846495942056
 10
0.3432291766362006
 20
-0.3477264483885198
 10
0.3351304140758182
 20
-0.3317079718706326
 10
0.3184047382119581
 20
-0.3216744269799063
 10
0.3150969700100992
 20
-0.3169929677697656
 10
0.3266387465099141
 20
-0.3054533457512374
 10
0.3346292031591991
 20
-0.2943575340298974
 10
0.3346292031591991
 20
-0.2821521633080879
 10
0.3286363541650317
 20
-0.2661741944293547
 10
0.3120700527529008
 20
-0.2583895884342855
 10
0.2295078658705918
 20
-0.2583895884342855
  0
LWPOLYLINE
  5
5DC
330
1F3
100
AcDbEntity
  8
R-ANNO-TEXT
370
    20
100
AcDbPolyline
 90
        9
 70
     1
 43
0.0
 10
0.2548218543010516
 20
-0.3295090744317761
 10
0.2548218543010516
 20
-0.3750035875361188
 10
0.2962590035196555
 20
-0.3750035875361188
 10
0.3108889691139038
 20
-0.3712399245617757
 10
0.3205084393286561
 20
-0.3603254992640368
 10
0.3205084393286561
 20
-0.3476820385356314
 10
0.312886706913108
 20
-0.3336344460132166
 10
0.3035422051301795
 20
-0.3295090744317761
 10
0.2548218543010516
 20
-0.3295090744317761
  0
HATCH
  5
5DD
330
1F3
100
AcDbEntity
  8
R-ANNO-TEXT
370
    25
100
AcDbHatch
 10
0.0
 20
0.0
 30
0.0
210
0.0
220
0.0
230
1.0
  2
SOLID
 70
     1
 71
     0
 91
       22
 92
        7
 72
     0
 73
     1
 93
       15
 10
-0.0320396649758725
 20
0.039536248776594
 10
-0.0189485491220443
 20
0.0532198933533499
 10
-0.011212888570743
 20
0.0689858123903302
 10
-0.0106178437657534
 20
0.0883213922984356
 10
-0.015080718846392
 20
0.1088468369918916
 10
-0.0237089596195805
 20
0.1243153009183722
 10
-0.0376926556953028
 20
0.1377014682129509
 10
-0.05465160182478
 20
0.144245813219154
 10
-0.0701950227528381
 20
0.1459837173173988
 10
-0.1330473037753699
 20
0.145983717317399
 10
-0.1330473037753699
 20
-0.0513145149045755
 10
-0.1019831069907884
 20
-0.0513145149045755
 10
-0.1019831069907895
 20
0.0260403538924283
 10
-0.0638457611557763
 20
0.0260403538924283
 10
-0.0436431558028183
 20
0.0315045617028482
 97
        0
 92
       22
 72
     0
 73
     1
 93
       10
 10
-0.1022557068001861
 20
0.055372961952509
 10
-0.1022557068001861
 20
0.1150008941097349
 10
-0.0677476110963637
 20
0.1150008941097351
 10
-0.0587455184123198
 20
0.1108756999016451
 10
-0.0486181478747561
 20
0.1030003009222611
 10
-0.0433669119589209
 20
0.0924997985119776
 10
-0.043366911958922
 20
0.0756239657278286
 10
-0.0482430465806427
 20
0.0673735551399819
 10
-0.0561198874399926
 20
0.0602482015491863
 10
-0.0692479642151733
 20
0.0553729619525081
 97
        0
 92
        7
 72
     0
 73
     1
 93
       12
 10
0.0388295700325248
 20
0.0319891013558795
 10
0.1067976330027764
 20
0.0319891013558795
 10
0.1067976330027764
 20
0.0620616888668515
 10
0.0388295700325248
 20
0.0620616888668515
 10
0.0388295700325248
 20
0.116930937891019
 10
0.1100672689864757
 20
0.116930937891019
 10
0.1100672689864746
 20
0.1459837173173986
 10
0.008223740730372
 20
0.1459837173173986
 10
0.008223740730372
 20
-0.0513145149045755
 10
0.1100672689864746
 20
-0.0513145149045755
 10
0.1100672689864734
 20
-0.022352550634178
 10
0.0388295700325236
 20
-0.022352550634178
 97
        0
 92
        7
 72
     0
 73
     1
 93
       13
 10
0.1614316011045147
 20
0.1159245658378023
 10
0.2191213263936476
 20
-0.0513145149045755
 10
0.2453439287977943
 20
-0.0513145149045755
 10
0.3046070180398164
 20
0.1175256336762407
 10
0.3046070180398175
 20
-0.0513145149045755
 10
0.3345007769719011
 20
-0.0513145149045755
 10
0.3345007769719011
 20
0.1459837173173986
 10
0.2899223398704409
 20
0.1459837173173986
 10
0.2330631389578508
 20
-0.0191444332710558
 10
0.1760937643464533
 20
0.1459837173173986
 10
0.1304889328705039
 20
0.1459837173173986
 10
0.1304889328705039
 20
-0.0513145149045755
 10
0.1614316011045147
 20
-0.0513145149045755
 97
        0
 92
        7
 72
     0
 73
     1
 93
       11
 10
0.3888268501872349
 20
0.0456748154102233
 10
0.4571879483070996
 20
-0.0513145149045755
 10
0.4941706297532356
 20
-0.0513145149045755
 10
0.4193918755900573
 20
0.0485512054460879
 10
0.4945815467007132
 20
0.1459837173173986
 10
0.4580097822020591
 20
0.1459837173173988
 10
0.3888268501872349
 20
0.0507626003477215
 10
0.3888268501872349
 20
0.1459837173173988
 10
0.3580079229533062
 20
0.1459837173173986
 10
0.3580079229533073
 20
-0.0513145149045755
 10
0.3888268501872349
 20
-0.0513145149045755
 97
        0
 92
        7
 72
     0
 73
     1
 93
       25
 10
0.6683227085586641
 20
0.0024709164267591
 10
0.6773261547412457
 20
0.0308265077233081
 10
0.6773261547412446
 20
0.0600822909505054
 10
0.6719240818259365
 20
0.0798862030216312
 10
0.6606697675905138
 20
0.1028407535925644
 10
0.6453639116830212
 20
0.1203942190945542
 10
0.6205998340873875
 20
0.1389062988748564
 10
0.5958793547616615
 20
0.1459837173173988
 10
0.5506715929020956
 20
0.1459837173173986
 10
0.5244202807118537
 20
0.1359691070319429
 10
0.5075798177612545
 20
0.1225982825322696
 10
0.4907393548106509
 20
0.1045228959434237
 10
0.4798425724172906
 20
0.0839714217106185
 10
0.4734397174842698
 20
0.0640217974312152
 10
0.4734397174842709
 20
0.0314045009609174
 10
0.4758809342820925
 20
0.0220852829001177
 10
0.4847580365827941
 20
0.0007841845404397
 10
0.4962982513535353
 20
-0.0176323796900659
 10
0.5191567852228064
 20
-0.0380459239703908
 10
0.5482292828939262
 20
-0.0529123162267857
 10
0.562654557864557
 20
-0.0557968281842944
 10
0.5897297341975561
 20
-0.0557968281842944
 10
0.5998965123653488
 20
-0.0537902034584907
 10
0.6260064880746408
 20
-0.0411877159742868
 10
0.6498656217598987
 20
-0.0236342504722988
 97
        0
 92
       22
 72
     0
 73
     1
 93
       25
 10
0.5180104773298822
 20
0.0006853878431294
 10
0.5098247674499135
 20
0.013748632745549
 10
0.5025930388588518
 20
0.0311015658098257
 10
0.5015647174842708
 20
0.0350271291333413
 10
0.5015647174842708
 20
0.0596190253184332
 10
0.5058596111121194
 20
0.0730007925288145
 10
0.5138482733195316
 20
0.0880675140236158
 10
0.5267200201382849
 20
0.1018831555831854
 10
0.5385052891549036
 20
0.1112403071154739
 10
0.5558541372340087
 20
0.1178587173173988
 10
0.5919325753769256
 20
0.1178587173173988
 10
0.6078954091469891
 20
0.1132885933877255
 10
0.6261302562363902
 20
0.0996573590808172
 10
0.6370432602303089
 20
0.0871418199114853
 10
0.6454940215512539
 20
0.0699054584551862
 10
0.6492011547412446
 20
0.0563151680460177
 10
0.6492011547412436
 20
0.0351844198351503
 10
0.6428376688688998
 20
0.0151431599710388
 10
0.6295300386766768
 20
-0.0036787652323542
 10
0.6114363938856782
 20
-0.0169904878553857
 10
0.5909157727713033
 20
-0.0268951646594307
 10
0.5869807241960679
 20
-0.0276718281842943
 10
0.5654389676714345
 20
-0.0276718281842943
 10
0.5575649085200885
 20
-0.0260973127714221
 10
0.5351878767925211
 20
-0.0146546863084662
 97
        0
 92
        7
 72
     0
 73
     1
 93
        8
 10
-0.3315704770844585
 20
-0.2557021826136605
 10
-0.3524526688427942
 20
-0.2557021826136605
 10
-0.4087233063786544
 20
-0.3918028172040841
 10
-0.3831640630676836
 20
-0.3918028172040841
 10
-0.3709048319061026
 20
-0.3596734526521592
 10
-0.3137830529438146
 20
-0.3596734526521592
 10
-0.3018726891220047
 20
-0.3918028172040841
 10
-0.2782111141642674
 20
-0.3918028172040841
 97
        0
 92
       22
 72
     0
 73
     1
 93
        3
 10
-0.3419316905216274
 20
-0.2837397656625806
 10
-0.3189570312118584
 20
-0.3457161431656761
 10
-0.3655793022613463
 20
-0.3457161431656761
 97
        0
 92
        7
 72
     0
 73
     1
 93
      325
 10
-0.243450265938161
 20
-0.3079697972360602
 10
-0.2458285658893222
 20
-0.3071656083143499
 10
-0.2480236097450228
 20
-0.3063435933708165
 10
-0.2500274033537508
 20
-0.3054964421636996
 10
-0.2518319525639678
 20
-0.3046168444512478
 10
-0.2534292632241708
 20
-0.3036974899917113
 10
-0.2548155166813837
 20
-0.3027332727911918
 10
-0.2560035962769158
 20
-0.3017279038472069
 10
-0.2574836193745666
 20
-0.3001984358499823
 10
-0.2588707534221435
 20
-0.2980191357550126
 10
-0.2597768579800752
 20
-0.2957745389710849
 10
-0.2603421474039591
 20
-0.2934513215046706
 10
-0.2605488134171197
 20
-0.2911635361894267
 10
-0.260377425979138
 20
-0.28879116617277
 10
-0.259791508714533
 20
-0.2862879459182679
 10
-0.2590171300107824
 20
-0.2842826623824441
 10
-0.2583905142493548
 20
-0.2829091058756315
 10
-0.2576621445183258
 20
-0.2815195281728102
 10
-0.2568388312171999
 20
-0.2801299505132939
 10
-0.2559273847455157
 20
-0.2787563941363853
 10
-0.2549346155028098
 20
-0.2774148802814444
 10
-0.2538673338885811
 20
-0.2761214301877244
 10
-0.2527323503023815
 20
-0.2748920650946025
 10
-0.2515341382438774
 20
-0.2737407368350437
 10
-0.2502678236136235
 20
-0.2726731196169543
 10
-0.2489261954123023
 20
-0.2716928182419154
 10
-0.2475020426406238
 20
-0.2708034375115011
 10
-0.2459881542992903
 20
-0.2700085822272933
 10
-0.2443773193889964
 20
-0.2693118571908659
 10
-0.2426623269104555
 20
-0.2687168672038092
 10
-0.2408359658643699
 20
-0.2682272170676976
 10
-0.2388955320921104
 20
-0.267847546294476
 10
-0.2368563487977215
 20
-0.2675866332375341
 10
-0.2347382460259195
 20
-0.2674542909606243
 10
-0.2325610538214229
 20
-0.2674603325274991
 10
-0.2303446022289457
 20
-0.2676145710019107
 10
-0.2281087212931976
 20
-0.2679268194476116
 10
-0.2258732410589093
 20
-0.2684068909283521
 10
-0.2236579915707793
 20
-0.2690645985078874
 10
-0.2214703480248814
 20
-0.2699289435158754
 10
-0.2192678662226533
 20
-0.271105680345638
 10
-0.2169956471168777
 20
-0.2727197516563993
 10
-0.2145987916603587
 20
-0.2748961001073811
 10
-0.2120224008058857
 20
-0.2777596683578127
 10
-0.2092115755062385
 20
-0.2814353990669254
 10
-0.2061114167142353
 20
-0.2860482348939151
 10
-0.2026670253826224
 20
-0.2917231184980382
 10
-0.1945519834446574
 20
-0.2914403756503412
 10
-0.1886142188979512
 20
-0.2906499339969786
 10
-0.1845496668797175
 20
-0.2894384738725408
 10
-0.182054262527167
 20
-0.2878926756116207
 10
-0.1808239409775159
 20
-0.2860992195488112
 10
-0.1805546373679656
 20
-0.2841447860186976
 10
-0.180942286835738
 20
-0.2821160553558846
 10
-0.1816828245180335
 20
-0.2800997078949634
 10
-0.182524418636606
 20
-0.2781672294774795
 10
-0.1834241697512029
 20
-0.2763293279730798
 10
-0.1843914115061696
 20
-0.2745815167583339
 10
-0.18543547754581
 20
-0.2729193092097724
 10
-0.1865657015144218
 20
-0.2713382187040456
 10
-0.1877914170563255
 20
-0.2698337586176875
 10
-0.1891219578158398
 20
-0.2684014423273107
 10
-0.1905666574372256
 20
-0.2670367832094924
 10
-0.1921302425360993
 20
-0.2657358031276793
 10
-0.1937990116130472
 20
-0.2644965578928224
 10
-0.1955546561399513
 20
-0.2633176118027602
 10
-0.197378867588659
 20
-0.262197529155312
 10
-0.1992533374310723
 20
-0.261134874248313
 10
-0.2011597571389723
 20
-0.2601282113796048
 10
-0.2030798181842652
 20
-0.259176104847004
 10
-0.2049952120389231
 20
-0.2582771189483011
 10
-0.2068912201010631
 20
-0.2574307152988511
 10
-0.2087674834747577
 20
-0.2566399447837622
 10
-0.2106272331902692
 20
-0.2559087556057058
 10
-0.2124737002780674
 20
-0.2552410959672664
 10
-0.2143101157684579
 20
-0.2546409140710941
 10
-0.2161397106917839
 20
-0.2541121581198116
 10
-0.2179657160784831
 20
-0.2536587763160298
 10
-0.219791362958891
 20
-0.2532847168623826
 10
-0.2216214977768616
 20
-0.2529924324420101
 10
-0.2234674286303218
 20
-0.2527783936600985
 10
-0.225342079030687
 20
-0.2526375756023493
 10
-0.2272583724893673
 20
-0.2525649533544656
 10
-0.2292292325177736
 20
-0.2525555020021502
 10
-0.2312675826273303
 20
-0.2526041966311037
 10
-0.2333863463294472
 20
-0.2527060123270286
 10
-0.2355984471355421
 20
-0.2528559241756278
 10
-0.2379095689616217
 20
-0.2530510607869911
 10
-0.2402964373420524
 20
-0.2532971648687647
 10
-0.2427285382157862
 20
-0.2536021326529818
 10
-0.2451753575217685
 20
-0.253973860371675
 10
-0.247606381198977
 20
-0.2544202442568797
 10
-0.2499910951863504
 20
-0.2549491805406285
 10
-0.2522989854228497
 20
-0.2555685654549586
 10
-0.2544995378474257
 20
-0.2562862952318987
 10
-0.2565697173290871
 20
-0.2571088902547141
 10
-0.2585164044570554
 20
-0.2580373675115894
 10
-0.2603539587505932
 20
-0.2590713681419401
 10
-0.2620967397289409
 20
-0.2602105332851758
 10
-0.2637591069113876
 20
-0.2614545040807066
 10
-0.2653554198171748
 20
-0.2628029216679475
 10
-0.2669000379655773
 20
-0.2642554271863173
 10
-0.2684073208758719
 20
-0.2658116617752153
 10
-0.2698860637381184
 20
-0.267470249614786
 10
-0.2713228044257121
 20
-0.269225747047809
 10
-0.2726985164828199
 20
-0.2710716934578539
 10
-0.2739941734536588
 20
-0.2730016282284078
 10
-0.2751907488824445
 20
-0.2750090907430684
 10
-0.276269216313374
 20
-0.2770876203853216
 10
-0.2772105492906085
 20
-0.2792307565386967
 10
-0.2779957213583784
 20
-0.2814320385867335
 10
-0.278610791754651
 20
-0.2836831514607199
 10
-0.2790621624925815
 20
-0.2859683622829507
 10
-0.279361321279068
 20
-0.2882700837234564
 10
-0.2795197558210294
 20
-0.2905707284522419
 10
-0.2795489538253915
 20
-0.292852709139479
 10
-0.2794604029990666
 20
-0.2950984384550921
 10
-0.2792655910489739
 20
-0.2972903290691864
 10
-0.2789760056820278
 20
-0.2994107936517931
 10
-0.2785982882205851
 20
-0.3014462528712283
 10
-0.2781196944487529
 20
-0.3033991593889702
 10
-0.2775226337660519
 20
-0.3052759738648265
 10
-0.2767895155720146
 20
-0.3070831569585679
 10
-0.275902749266177
 20
-0.3088271693299545
 10
-0.2748447442480728
 20
-0.3105144716387547
 10
-0.2735979099172403
 20
-0.3121515245447646
 10
-0.2721446556731966
 20
-0.3137447887077371
 10
-0.2704728954597357
 20
-0.3152994685516659
 10
-0.2685925613975648
 20
-0.3168157435573491
 10
-0.266519090151619
 20
-0.3182925369698362
 10
-0.2642679183868557
 20
-0.3197287720341402
 10
-0.2618544827682345
 20
-0.3211233719952751
 10
-0.2592942199607295
 20
-0.322475260098269
 10
-0.2566025666292437
 20
-0.3237833595881399
 10
-0.2537949594387623
 20
-0.3250465937099283
 10
-0.2508864760480545
 20
-0.3262650821126698
 10
-0.247890758091015
 20
-0.3274437300616317
 10
-0.2448210881954493
 20
-0.3285886392260737
 10
-0.2416907489891351
 20
-0.3297059112752652
 10
-0.2385130230997656
 20
-0.3308016478784976
 10
-0.2353011931552529
 20
-0.331881950704997
 10
-0.2320685417833512
 20
-0.3329529214240283
 10
-0.2288283516116474
 20
-0.3340206617050945
 10
-0.2255973755225626
 20
-0.335090854481471
 10
-0.2224062474186239
 20
-0.3361675077444799
 10
-0.2192890714565354
 20
-0.3372542107494794
 10
-0.2162799517933445
 20
-0.338354552751869
 10
-0.213412992585813
 20
-0.3394721230071132
 10
-0.2107222979909407
 20
-0.3406105107706443
 10
-0.2082419721656081
 20
-0.3417733052978789
 10
-0.2060061192667695
 20
-0.3429640958442515
 10
-0.2040399284964722
 20
-0.3441849761457076
 10
-0.2023329292374376
 20
-0.3454320578602283
 10
-0.2008657359174981
 20
-0.3466999571263432
 10
-0.1996189629645162
 20
-0.347983290082539
 10
-0.198573224806341
 20
-0.3492766728673331
 10
-0.1977091358708194
 20
-0.3505747216192225
 10
-0.1970073105858061
 20
-0.3518720524767289
 10
-0.1961700071446082
 20
-0.3538063148852251
 10
-0.1955563369164059
 20
-0.3563574232048103
 10
-0.1954639160631966
 20
-0.3588697884196139
 10
-0.1959102661420875
 20
-0.3613686719343354
 10
-0.19666280179505
 20
-0.3632399540604529
 10
-0.1973082663012138
 20
-0.3644918217664474
 10
-0.1980930190440533
 20
-0.3657375878897802
 10
-0.1990127521525364
 20
-0.3669682792702171
 10
-0.2000631577556244
 20
-0.3681749227475288
 10
-0.2012399279823041
 20
-0.3693485451614973
 10
-0.2025387549615421
 20
-0.3704801733518908
 10
-0.2039553308222908
 20
-0.3715608341584842
 10
-0.2054853476935359
 20
-0.3725815544210507
 10
-0.2071224634318114
 20
-0.3735344377704166
 10
-0.2088521988039393
 20
-0.3744158950016869
 10
-0.2106580403042946
 20
-0.3752234137010086
 10
-0.2125234744272675
 20
-0.3759544814545466
 10
-0.2144319876672507
 20
-0.3766065858484486
 10
-0.2163670665186013
 20
-0.3771772144688659
 10
-0.2183121974757352
 20
-0.3776638549019617
 10
-0.2202508670330316
 20
-0.3780639947338882
 10
-0.2221703310592982
 20
-0.3783758992119828
 10
-0.2240729229211447
 20
-0.3786009442283209
 10
-0.2259647453596003
 20
-0.3787412833361596
 10
-0.2278519011157087
 20
-0.3787990700887582
 10
-0.2297404929305058
 20
-0.3787764580393733
 10
-0.231636623545014
 20
-0.3786756007412637
 10
-0.2335463957002826
 20
-0.3784986517476883
 10
-0.2354759121373517
 20
-0.3782477646119031
 10
-0.2374275660501102
 20
-0.3779243152043299
 10
-0.2393889124439286
 20
-0.377526568664051
 10
-0.241343796776996
 20
-0.377052012447308
 10
-0.243276064507566
 20
-0.3764981340103364
 10
-0.2451695610938309
 20
-0.3758624208093924
 10
-0.2470081319940098
 20
-0.3751423603007091
 10
-0.2487756226663351
 20
-0.3743354399405363
 10
-0.2504558785690281
 20
-0.3734391471851075
 10
-0.2520354375839184
 20
-0.3724543792941688
 10
-0.25351160728741
 20
-0.3713956727413437
 10
-0.2548843876794393
 20
-0.3702809738038479
 10
-0.2561537787600776
 20
-0.3691282287587683
 10
-0.2573197805292704
 20
-0.3679553838832938
 10
-0.2583823929870432
 20
-0.3667803854545699
 10
-0.2593416161333917
 20
-0.365621179749724
 10
-0.260605756078256
 20
-0.3639587689419121
 10
-0.2619221235272873
 20
-0.3618990679117533
 10
-0.2628893775147068
 20
-0.3600274000110057
 10
-0.2635657516114775
 20
-0.3583183362764042
 10
-0.2639041488470506
 20
-0.3571143210221979
 10
-0.2640843621974298
 20
-0.3563615977117362
 10
-0.2642717553328611
 20
-0.3556465613883808
 10
-0.2645223307800815
 20
-0.3549753137647582
 10
-0.2648920910658326
 20
-0.3543539565534535
 10
-0.265437038716857
 20
-0.3537885914670338
 10
-0.2662131762599018
 20
-0.3532853202180748
 10
-0.2672765062217053
 20
-0.3528502445191552
 10
-0.2686830311290045
 20
-0.3524894660828566
 10
-0.2704639114344665
 20
-0.3522068357205104
 10
-0.2725509392944125
 20
-0.3519972006384604
 10
-0.2748510647911073
 20
-0.3518531571418042
 10
-0.2772712380067843
 20
-0.3517673015356411
 10
-0.2797184090237048
 20
-0.3517322301250676
 10
-0.2820995279241179
 20
-0.3517405392151822
 10
-0.2843215447902836
 20
-0.351784825111082
 10
-0.2862914097044278
 20
-0.3518576841178653
 10
-0.2879327976928803
 20
-0.3519593719448832
 10
-0.2892362835582307
 20
-0.3521207819185035
 10
-0.2902091670471274
 20
-0.3523804667693464
 10
-0.2908587479062308
 20
-0.3527769792280351
 10
-0.2911923258821925
 20
-0.3533488720251885
 10
-0.2912172007216629
 20
-0.3541346978914284
 10
-0.2909406721712993
 20
-0.355173009557376
 10
-0.2903700399777531
 20
-0.3565023597536499
 10
-0.2895160273092168
 20
-0.35814567918128
 10
-0.2884030510200286
 20
-0.3600634104228
 10
-0.2870589513861177
 20
-0.3622003740311572
 10
-0.2855115686832277
 20
-0.3645013905594516
 10
-0.2837887431873498
 20
-0.366911280560509
 10
-0.2819183151743532
 20
-0.3693748645873076
 10
-0.2799281249200769
 20
-0.3718369631928327
 10
-0.2778460127003945
 20
-0.3742423969300783
 10
-0.2756982251413131
 20
-0.3765438607824301
 10
-0.2735046342691672
 20
-0.3787255474552413
 10
-0.2712835184604978
 20
-0.3807795240842617
 10
-0.2690531560917553
 20
-0.3826978578052449
 10
-0.2668318255394309
 20
-0.3844726157539999
 10
-0.2646378051799925
 20
-0.3860958650662929
 10
-0.2624893733899503
 20
-0.3875596728779223
 10
-0.2604048085457944
 20
-0.3888561063246296
 10
-0.2583923774704167
 20
-0.3899808817299464
 10
-0.2564203007727184
 20
-0.3909443121682186
 10
-0.2544467875079337
 20
-0.3917603599015269
 10
-0.2524300467313978
 20
-0.3924429871919601
 10
-0.250328287498387
 20
-0.3930061563015981
 10
-0.2480997188642042
 20
-0.3934638294925272
 10
-0.2457025498841381
 20
-0.3938299690268292
 10
-0.2430949896134793
 20
-0.3941185371665856
 10
-0.2402497011168303
 20
-0.3943398761509296
 10
-0.2371971634959491
 20
-0.3944898481271899
 10
-0.2339823098618932
 20
-0.394560695219742
 10
-0.2306500733257322
 20
-0.3945446595529631
 10
-0.2272453869985203
 20
-0.3944339832512305
 10
-0.2238131839913227
 20
-0.3942209084389208
 10
-0.2203983974151979
 20
-0.3938976772404112
 10
-0.2170459603811992
 20
-0.3934565317800782
 10
-0.2137941148064226
 20
-0.3928908926440329
 10
-0.2106543378320402
 20
-0.3921988942653227
 10
-0.2076314154052872
 20
-0.3913798495387355
 10
-0.2047301334733342
 20
-0.3904330713590469
 10
-0.2019552779834144
 20
-0.38935787262105
 10
-0.1993116348827317
 20
-0.3881535662195197
 10
-0.1968039901184859
 20
-0.3868194650492374
 10
-0.1944371296378944
 20
-0.3853548820049974
 10
-0.1922151011932471
 20
-0.3837619177297182
 10
-0.19013899975729
 20
-0.3820538238589735
 10
-0.188209182107838
 20
-0.3802466397764625
 10
-0.1864260050226829
 20
-0.3783564048658863
 10
-0.1847898252796931
 20
-0.3763991585109756
 10
-0.1833009996566404
 20
-0.3743909400954379
 10
-0.1819598849313664
 20
-0.3723477890029501
 10
-0.1807668378816862
 20
-0.3702857446172434
 10
-0.1797204313454903
 20
-0.3682203134369368
 10
-0.1788121024009059
 20
-0.3661648704202633
 10
-0.1780315041861546
 20
-0.364132257640406
 10
-0.1773682898394224
 20
-0.3621353171704702
 10
-0.1769062346942085
 20
-0.3605166242951729
 10
-0.1782822386084126
 20
-0.3581456791812658
 10
-0.1791362512769379
 20
-0.3565023597536467
 10
-0.1797068834704807
 20
-0.3551730095573733
 10
-0.1801192958964071
 20
-0.3536244800024324
 10
-0.1794708142003398
 20
-0.3525127099282912
 10
-0.1780024948574121
 20
-0.3521207819185039
 10
-0.1766990089920595
 20
-0.3519593719448832
 10
-0.1753339830864231
 20
-0.3518748053956311
 10
-0.1753050867164119
 20
-0.3515743857610398
 10
-0.1752461565407648
 20
-0.350073766919945
 10
-0.1752903388153293
 20
-0.3486045397843482
 10
-0.1754501211704884
 20
-0.347143874030877
 10
-0.1757379912366386
 20
-0.3456689393360741
 10
-0.1761664366441751
 20
-0.3441569053765745
 10
-0.1767479450234799
 20
-0.3425849418289837
 10
-0.1774934579169041
 20
-0.3409372339348335
 10
-0.1784077325145195
 20
-0.3392260291956255
 10
-0.179493979918437
 20
-0.3374705906777318
 10
-0.180755411230652
 20
-0.3356901814476352
 10
-0.1821952375532454
 20
-0.3339040645717106
 10
-0.1838166699882837
 20
-0.3321315031164103
 10
-0.1856229196377812
 20
-0.3303917601481698
 10
-0.1876171976038376
 20
-0.3287040987333727
 10
-0.189800039070086
 20
-0.3270844525289589
 10
-0.1921612755466973
 20
-0.3255354375536785
 10
-0.1946880626254865
 20
-0.3240563404167234
 10
-0.1973675558982169
 20
-0.3226464477273772
 10
-0.20018691095671
 20
-0.3213050460948397
 10
-0.2031332833927169
 20
-0.3200314221283493
 10
-0.206193828798068
 20
-0.318824862437133
 10
-0.2093557027645287
 20
-0.3176846536304221
 10
-0.2126032065426409
 20
-0.3166090715794949
 10
-0.2159092240184479
 20
-0.3155923492037251
 10
-0.2192437847365614
 20
-0.3146277086845517
 10
-0.2225769182417514
 20
-0.3137083722034064
 10
-0.2258786540787239
 20
-0.3128275619417344
 10
-0.2291190217920302
 20
-0.3119785000809361
 10
-0.2322680509265862
 20
-0.3111544088024645
 10
-0.2352957710270886
 20
-0.3103485102877523
 10
-0.2381758743555618
 20
-0.3095539379809993
 10
-0.2408967040430665
 20
-0.3087634703776874
 97
        0
 92
        7
 72
     0
 73
     1
 93
      332
 10
-0.1013694178418434
 20
-0.3166090715794922
 10
-0.1046754353176416
 20
-0.3155923492037225
 10
-0.108009996035755
 20
-0.3146277086845579
 10
-0.1113431295408895
 20
-0.31370837220341
 10
-0.1146448653778165
 20
-0.3128275619417349
 10
-0.1178852330912106
 20
-0.3119785000809361
 10
-0.1210342622257543
 20
-0.3111544088024645
 10
-0.1240619823262434
 20
-0.3103485102877581
 10
-0.1269420856547243
 20
-0.3095539379810033
 10
-0.1296629153422257
 20
-0.3087634703776918
 10
-0.1322164772373402
 20
-0.3079697972360669
 10
-0.134594777188487
 20
-0.3071656083143566
 10
-0.1367898210442131
 20
-0.3063435933708178
 10
-0.1387936146529323
 20
-0.3054964421637001
 10
-0.1405981638631526
 20
-0.3046168444512469
 10
-0.1421954745233467
 20
-0.3036974899917117
 10
-0.1435817279805718
 20
-0.3027332727911927
 10
-0.1447698075760928
 20
-0.3017279038472092
 10
-0.1457767721497827
 20
-0.3006872984051521
 10
-0.1466196805414699
 20
-0.299617371710394
 10
-0.1473155915910262
 20
-0.2985240390083113
 10
-0.1478815641382891
 20
-0.2974132155442843
 10
-0.1483346570231236
 20
-0.2962908165637059
 10
-0.1486919290853783
 20
-0.2951627573119175
 10
-0.1489668332585636
 20
-0.2940329605215881
 10
-0.1491583988507716
 20
-0.2928973788743501
 10
-0.1492620492637742
 20
-0.2917499725390775
 10
-0.1492732078993286
 20
-0.2905847016847147
 10
-0.1491872981591935
 20
-0.2893955264801011
 10
-0.1489997434451407
 20
-0.2881764070941899
 10
-0.1487059671589153
 20
-0.2869213036958174
 10
-0.1483013927022825
 20
-0.2856241764539211
 10
-0.1477833413099649
 20
-0.2842826623824313
 10
-0.1471567255485406
 20
-0.2829091058756421
 10
-0.1464283558174995
 20
-0.2815195281728124
 10
-0.1456050425163846
 20
-0.2801299505132935
 10
-0.1446935960446904
 20
-0.2787563941363906
 10
-0.1437008268019824
 20
-0.2774148802814289
 10
-0.1426335451877603
 20
-0.2761214301877231
 10
-0.141498561601564
 20
-0.2748920650945892
 10
-0.1403003495430555
 20
-0.2737407368350389
 10
-0.1390340349127994
 20
-0.2726731196169574
 10
-0.137692406711486
 20
-0.2716928182419176
 10
-0.1362682539398008
 20
-0.2708034375115025
 10
-0.134754365598464
 20
-0.2700085822272902
 10
-0.133143530688179
 20
-0.2693118571908659
 10
-0.1314285382096381
 20
-0.2687168672038083
 10
-0.1296021771635536
 20
-0.2682272170676976
 10
-0.1276617433912885
 20
-0.2678475462944756
 10
-0.1256225600969008
 20
-0.2675866332375341
 10
-0.1235044573250987
 20
-0.2674542909606243
 10
-0.1213272651206043
 20
-0.2674603325274991
 10
-0.1191108135281238
 20
-0.2676145710019107
 10
-0.1168749325923801
 20
-0.2679268194476112
 10
-0.1146394523580918
 20
-0.2684068909283503
 10
-0.1124242028699529
 20
-0.269064598507887
 10
-0.1102365593240528
 20
-0.2699289435158798
 10
-0.1080340775218291
 20
-0.2711056803456393
 10
-0.1057618584160547
 20
-0.2727197516564002
 10
-0.1033650029595368
 20
-0.2748961001073815
 10
-0.1007886121050683
 20
-0.2777596683578021
 10
-0.0979777868054166
 20
-0.2814353990669285
 10
-0.0948776280133967
 20
-0.2860482348939066
 10
-0.0914332366818027
 20
-0.2917231184980382
 10
-0.0833181947438377
 20
-0.2914403756503412
 10
-0.0773804301971337
 20
-0.2906499339969786
 10
-0.0733158781789001
 20
-0.2894384738725417
 10
-0.0708204738263507
 20
-0.2878926756116216
 10
-0.0695901522766951
 20
-0.2860992195488117
 10
-0.0693208486671471
 20
-0.2841447860187016
 10
-0.0697084981349172
 20
-0.2821160553558872
 10
-0.0704490358172183
 20
-0.2800997078949528
 10
-0.0712906299357885
 20
-0.2781672294774822
 10
-0.0721903810503999
 20
-0.2763293279730572
 10
-0.0731576228053466
 20
-0.2745815167583228
 10
-0.0742016888449826
 20
-0.2729193092097799
 10
-0.0753319128136043
 20
-0.2713382187040469
 10
-0.0765576283555125
 20
-0.2698337586176933
 10
-0.0778881691150013
 20
-0.268401442327324
 10
-0.0793328687363881
 20
-0.2670367832095009
 10
-0.0808964538352752
 20
-0.2657358031276806
 10
-0.0825652229122365
 20
-0.2644965578928233
 10
-0.0843208674391272
 20
-0.2633176118027611
 10
-0.086145078887856
 20
-0.2621975291553173
 10
-0.0880195487302227
 20
-0.2611348742483326
 10
-0.0899259684381371
 20
-0.2601282113796177
 10
-0.0918460294834955
 20
-0.2591761048469912
 10
-0.093761423338079
 20
-0.2582771189483091
 10
-0.0956574314002445
 20
-0.2574307152988426
 10
-0.0975336947739469
 20
-0.2566399447837631
 10
-0.0993934444894606
 20
-0.2559087556057071
 10
-0.1012399115772411
 20
-0.2552410959672717
 10
-0.1030763270676094
 20
-0.2546409140710963
 10
-0.1049059219909731
 20
-0.2541121581198125
 10
-0.1067319273776646
 20
-0.2536587763160298
 10
-0.1085575742580647
 20
-0.2532847168623844
 10
-0.1103877090760397
 20
-0.252992432442011
 10
-0.1122336399295087
 20
-0.252778393660098
 10
-0.114108290329864
 20
-0.2526375756023493
 10
-0.116024583788541
 20
-0.252564953354466
 10
-0.117995443816955
 20
-0.2525555020021502
 10
-0.1200337939265117
 20
-0.2526041966311037
 10
-0.1221525576286253
 20
-0.2527060123270286
 10
-0.1243646584347247
 20
-0.2528559241756278
 10
-0.1266757802607976
 20
-0.2530510607869907
 10
-0.1290626486412283
 20
-0.2532971648687643
 10
-0.131494749514961
 20
-0.2536021326529814
 10
-0.1339415688209544
 20
-0.2539738603716755
 10
-0.1363725924981562
 20
-0.2544202442568801
 10
-0.1387573064855219
 20
-0.2549491805406281
 10
-0.1410651967220311
 20
-0.2555685654549578
 10
-0.1432657491466038
 20
-0.2562862952318983
 10
-0.1453359286282763
 20
-0.2571088902547158
 10
-0.1472826157562335
 20
-0.2580373675115894
 10
-0.1491201700497791
 20
-0.2590713681419432
 10
-0.1508629510281312
 20
-0.2602105332851781
 10
-0.1525253182105668
 20
-0.2614545040807097
 10
-0.1541216311163596
 20
-0.2628029216679528
 10
-0.1556662492647753
 20
-0.264255427186336
 10
-0.1571735321750467
 20
-0.2658116617752317
 10
-0.1586522750373043
 20
-0.2674702496147869
 10
-0.1600890157248669
 20
-0.269225747047805
 10
-0.1614647277819903
 20
-0.2710716934578272
 10
-0.1627603847528514
 20
-0.2730016282284255
 10
-0.1639569601816304
 20
-0.2750090907430804
 10
-0.165035427612541
 20
-0.2770876203853145
 10
-0.1659767605897877
 20
-0.279230756538694
 10
-0.1667619326575553
 20
-0.2814320385867348
 10
-0.1673770030538368
 20
-0.2836831514607137
 10
-0.1678283737917596
 20
-0.2859683622829405
 10
-0.1681275325782461
 20
-0.2882700837234422
 10
-0.1682859671202086
 20
-0.2905707284522689
 10
-0.1683151651245696
 20
-0.292852709139511
 10
-0.1682266142982469
 20
-0.2950984384551054
 10
-0.1680318023481564
 20
-0.2972903290691438
 10
-0.1677422169812059
 20
-0.2994107936517896
 10
-0.1673644995197709
 20
-0.3014462528712056
 10
-0.1668859057479366
 20
-0.3033991593889578
 10
-0.1662888450652278
 20
-0.3052759738648278
 10
-0.1655557268711882
 20
-0.3070831569585732
 10
-0.1646689605653562
 20
-0.3088271693299598
 10
-0.1636109555472509
 20
-0.3105144716387591
 10
-0.1623641212164206
 20
-0.3121515245447575
 10
-0.1609108669723858
 20
-0.313744788707738
 10
-0.1592391067589061
 20
-0.3152994685516659
 10
-0.1573587726967385
 20
-0.3168157435573611
 10
-0.1552853014507971
 20
-0.3182925369698402
 10
-0.1530341296860305
 20
-0.3197287720341433
 10
-0.1506206940674382
 20
-0.3211233719952768
 10
-0.1480604312599154
 20
-0.3224752600982623
 10
-0.1453687779284285
 20
-0.3237833595881447
 10
-0.1425611707379437
 20
-0.3250465937099229
 10
-0.1396526873472059
 20
-0.3262650821126831
 10
-0.1366569693901554
 20
-0.3274437300616362
 10
-0.1335872994945864
 20
-0.3285886392260946
 10
-0.1304569602882721
 20
-0.3297059112752732
 10
-0.1272792343990503
 20
-0.3308016478784617
 10
-0.1240674044544532
 20
-0.3318819507049877
 10
-0.1208347530821696
 20
-0.3329529214241593
 10
-0.1175945629107444
 20
-0.3340206617049621
 10
-0.1143635868216775
 20
-0.3350908544814821
 10
-0.1111724587177842
 20
-0.3361675077444772
 10
-0.1080552827557357
 20
-0.3372542107494607
 10
-0.1050461630925048
 20
-0.3383545527518699
 10
-0.1021792038849945
 20
-0.3394721230071127
 10
-0.0994885092901177
 20
-0.3406105107706492
 10
-0.0970081834647829
 20
-0.3417733052978824
 10
-0.0947723305659487
 20
-0.3429640958442497
 10
-0.092806139795657
 20
-0.3441849761457063
 10
-0.0910991405366291
 20
-0.3454320578602217
 10
-0.0896319472166774
 20
-0.3466999571263494
 10
-0.0883851742636976
 20
-0.3479832900825386
 10
-0.087339436105518
 20
-0.3492766728673287
 10
-0.0864753471699908
 20
-0.3505747216192288
 10
-0.0857735218849831
 20
-0.35187205247674
 10
-0.085214574678334
 20
-0.3531632815783645
 10
-0.0847827697316117
 20
-0.3544442214810806
 10
-0.0844769702413018
 20
-0.3557154704157948
 10
-0.084299689157572
 20
-0.3569788230318691
 10
-0.0842534394306149
 20
-0.3582360739786683
 10
-0.0843407340106151
 20
-0.3594890179055583
 10
-0.0845640858477581
 20
-0.3607394494619092
 10
-0.0849260078922409
 20
-0.36198916329709
 10
-0.0854290130942359
 20
-0.3632399540604516
 10
-0.0860744776003919
 20
-0.3644918217664328
 10
-0.0868592303432281
 20
-0.3657375878897691
 10
-0.0877789634517046
 20
-0.3669682792702069
 10
-0.088829369054807
 20
-0.3681749227475279
 10
-0.09000613928148
 20
-0.3693485451614928
 10
-0.0913049662607146
 20
-0.3704801733518872
 10
-0.09272154212146
 20
-0.3715608341584806
 10
-0.0942515589927051
 20
-0.3725815544210409
 10
-0.0958886747309795
 20
-0.3735344377704113
 10
-0.097618410103123
 20
-0.3744158950016896
 10
-0.0994242516034605
 20
-0.3752234137010069
 10
-0.1012896857264467
 20
-0.3759544814545457
 10
-0.1031981989664232
 20
-0.3766065858484455
 10
-0.1051332778177905
 20
-0.3771772144688676
 10
-0.1070784087749166
 20
-0.3776638549019613
 10
-0.1090170783322075
 20
-0.3780639947338882
 10
-0.1109365423584785
 20
-0.3783758992119828
 10
-0.1128391342203261
 20
-0.3786009442283209
 10
-0.114730956658784
 20
-0.3787412833361596
 10
-0.1166181124148902
 20
-0.3787990700887582
 10
-0.1185067042296828
 20
-0.3787764580393738
 10
-0.1204028348441932
 20
-0.3786756007412642
 10
-0.1223126069994596
 20
-0.3784986517476883
 10
-0.1242421234365343
 20
-0.3782477646119022
 10
-0.1261937773492949
 20
-0.3779243152043317
 10
-0.1281551237431033
 20
-0.3775265686640505
 10
-0.1301100080761797
 20
-0.3770520124473071
 10
-0.1320422758067408
 20
-0.3764981340103368
 10
-0.1339357723930046
 20
-0.3758624208093932
 10
-0.1357743432931935
 20
-0.3751423603007118
 10
-0.1375418339655243
 20
-0.3743354399405354
 10
-0.1392220898682195
 20
-0.3734391471851075
 10
-0.1408016488830965
 20
-0.3724543792941675
 10
-0.1422778185865714
 20
-0.3713956727413596
 10
-0.1436505989786341
 20
-0.3702809738038377
 10
-0.1449199900592535
 20
-0.3691282287587807
 10
-0.1460859918284529
 20
-0.3679553838832921
 10
-0.1471486042862247
 20
-0.366780385454561
 10
-0.148107827432602
 20
-0.3656211797497106
 10
-0.1489636612675205
 20
-0.3644957130459012
 10
-0.1497172425945703
 20
-0.3634185218240424
 10
-0.1503742554314091
 20
-0.3623905033798902
 10
-0.1509415205992459
 20
-0.3614091452130625
 10
-0.1514258589193429
 20
-0.3604719348230279
 10
-0.1518340912128646
 20
-0.359576359709366
 10
-0.1521730383010367
 20
-0.3587199073716514
 10
-0.1524495210050836
 20
-0.3579000653094404
 10
-0.1526703601462387
 20
-0.357114321022217
 10
-0.1528505734966146
 20
-0.3563615977117003
 10
-0.1530379666320381
 20
-0.3556465613883781
 10
-0.1532885420792573
 20
-0.3549753137647631
 10
-0.1536583023650118
 20
-0.3543539565534601
 10
-0.1542032500160406
 20
-0.3537885914670347
 10
-0.154979387559081
 20
-0.3532853202180752
 10
-0.1560427175208856
 20
-0.3528502445191557
 10
-0.1574492424281804
 20
-0.3524894660828575
 10
-0.1592301227336434
 20
-0.3522068357205104
 10
-0.1613171505935995
 20
-0.35199720063846
 10
-0.1636172760902843
 20
-0.3518531571418046
 10
-0.1660374493059658
 20
-0.3517673015356411
 10
-0.168484620322894
 20
-0.3517322301250676
 10
-0.1708657392233026
 20
-0.3517405392151822
 10
-0.1730877560894595
 20
-0.351784825111082
 10
-0.1750576210036092
 20
-0.3518576841178653
 10
-0.1753339830864242
 20
-0.3518748053956311
 10
-0.1754546417118752
 20
-0.3531292266310424
 10
-0.1756823338967561
 20
-0.3547611198533329
 10
-0.1759794813893745
 20
-0.3564869503519192
 10
-0.1763526253028336
 20
-0.3582998214531137
 10
-0.1768901119581034
 20
-0.3605072273452352
 10
-0.175825162685278
 20
-0.3622003740311905
 10
-0.1742777799824291
 20
-0.3645013905594299
 10
-0.1725549544865201
 20
-0.3669112805605144
 10
-0.1706845264735501
 20
-0.3693748645872938
 10
-0.1686943362192372
 20
-0.3718369631928491
 10
-0.1666122239995604
 20
-0.374242396930089
 10
-0.1644644364404757
 20
-0.3765438607824425
 10
-0.1622708455683586
 20
-0.3787255474552227
 10
-0.1600497297596659
 20
-0.3807795240842457
 10
-0.15781936739094
 20
-0.3826978578052356
 10
-0.1555980368386212
 20
-0.3844726157539826
 10
-0.153404016479185
 20
-0.3860958650663
 10
-0.1512555846891339
 20
-0.3875596728779231
 10
-0.1491710198449669
 20
-0.3888561063246327
 10
-0.147158588769597
 20
-0.3899808817299513
 10
-0.1451865120719042
 20
-0.390944312168215
 10
-0.1432129988071129
 20
-0.3917603599015282
 10
-0.1411962580305792
 20
-0.3924429871919601
 10
-0.1390944987975684
 20
-0.3930061563016007
 10
-0.1368659301633845
 20
-0.3934638294925272
 10
-0.134468761183314
 20
-0.3938299690268296
 10
-0.1318612009126574
 20
-0.3941185371665856
 10
-0.1290159124160095
 20
-0.3943398761509296
 10
-0.1259633747951305
 20
-0.3944898481271895
 10
-0.1227485211610779
 20
-0.3945606952197416
 10
-0.1194162846249136
 20
-0.3945446595529631
 10
-0.1160115982977017
 20
-0.3944339832512305
 10
-0.1125793952905041
 20
-0.3942209084389212
 10
-0.1091646087143716
 20
-0.3938976772404112
 10
-0.1058121716803784
 20
-0.3934565317800778
 10
-0.1025603261056041
 20
-0.3928908926440324
 10
-0.0994205491312228
 20
-0.3921988942653223
 10
-0.0963976267044731
 20
-0.3913798495387377
 10
-0.0934963447725101
 20
-0.3904330713590456
 10
-0.0907214892826025
 20
-0.3893578726210509
 10
-0.088077846181911
 20
-0.3881535662195161
 10
-0.0855702014176574
 20
-0.3868194650492351
 10
-0.0832033409370692
 20
-0.3853548820049939
 10
-0.0809813124924275
 20
-0.3837619177297142
 10
-0.0789052110564759
 20
-0.3820538238589757
 10
-0.0769753934070128
 20
-0.380246639776455
 10
-0.0751922163218744
 20
-0.3783564048658952
 10
-0.0735560365788768
 20
-0.3763991585109823
 10
-0.0720672109558251
 20
-0.374390940095437
 10
-0.0707260962305623
 20
-0.3723477890029687
 10
-0.0695330491808677
 20
-0.3702857446172514
 10
-0.0684866426446806
 20
-0.3682203134369444
 10
-0.0675783137001052
 20
-0.3661648704202767
 10
-0.066797715485345
 20
-0.3641322576404171
 10
-0.0661345011386094
 20
-0.362135317170488
 10
-0.0655783237980989
 20
-0.3601868910836767
 10
-0.0651188366020206
 20
-0.3582998214531616
 10
-0.0647456926885637
 20
-0.3564869503519645
 10
-0.0644485451959365
 20
-0.354761119853316
 10
-0.0642208530110555
 20
-0.3531292266310575
 10
-0.0640712980155922
 20
-0.3515743857610247
 10
-0.0640123678399474
 20
-0.3500737669199427
 10
-0.0640565501145096
 20
-0.3486045397843505
 10
-0.064216332469671
 20
-0.3471438740308645
 10
-0.0645042025358256
 20
-0.3456689393360519
 10
-0.064932647943351
 20
-0.3441569053765603
 10
-0.0655141563226558
 20
-0.3425849418289886
 10
-0.0662596692160822
 20
-0.3409372339348455
 10
-0.0671739438137042
 20
-0.3392260291956246
 10
-0.0682601912176073
 20
-0.3374705906777429
 10
-0.0695216225298256
 20
-0.3356901814476467
 10
-0.0709614488524368
 20
-0.3339040645717084
 10
-0.0725828812874552
 20
-0.3321315031164098
 10
-0.0743891309369516
 20
-0.3303917601481707
 10
-0.0763834089030091
 20
-0.3287040987333829
 10
-0.0785662503692553
 20
-0.3270844525289607
 10
-0.080927486845882
 20
-0.3255354375536652
 10
-0.0834542739246736
 20
-0.324056340416734
 10
-0.086133767197415
 20
-0.3226464477273727
 10
-0.0889531222559093
 20
-0.3213050460948388
 10
-0.0918994946919127
 20
-0.3200314221283413
 10
-0.0949600400972439
 20
-0.3188248624371366
 10
-0.0981219140637035
 20
-0.3176846536304292
 97
        0
 92
        7
 72
     0
 73
     1
 93
        8
 10
0.0056504276819325
 20
-0.2557021826136605
 10
-0.0152317640764044
 20
-0.2557021826136605
 10
-0.0715024016122634
 20
-0.3918028172040841
 10
-0.0459431583012915
 20
-0.3918028172040841
 10
-0.0336839271397105
 20
-0.3596734526521592
 10
0.0234378518225742
 20
-0.3596734526521592
 10
0.0353482156443874
 20
-0.3918028172040841
 10
0.0590097906021236
 20
-0.3918028172040841
 97
        0
 92
       22
 72
     0
 73
     1
 93
        3
 10
-0.0047107857552364
 20
-0.2837397656625797
 10
0.0182638735545349
 20
-0.3457161431656761
 10
-0.0283583974949553
 20
-0.3457161431656761
 97
        0
 92
        7
 72
     0
 73
     1
 93
        8
 10
0.170419898515094
 20
-0.2557021826136605
 10
0.1495377067567571
 20
-0.2557021826136605
 10
0.0932670692208981
 20
-0.3918028172040841
 10
0.1188263125318689
 20
-0.3918028172040841
 10
0.1310855436934499
 20
-0.3596734526521592
 10
0.1882073226557368
 20
-0.3596734526521592
 10
0.2001176864775478
 20
-0.3918028172040841
 10
0.2237792614352863
 20
-0.3918028172040841
 97
        0
 92
       22
 72
     0
 73
     1
 93
        3
 10
0.160058685077924
 20
-0.2837397656625797
 10
0.1830333443876952
 20
-0.3457161431656761
 10
0.1364110733382051
 20
-0.3457161431656761
 97
        0
 92
        7
 72
     0
 73
     1
 93
        9
 10
0.6735000746894338
 20
-0.2583895884342855
 10
0.6458836290891368
 20
-0.2583895884342855
 10
0.6112447906332275
 20
-0.3142725705057536
 10
0.5766059521773148
 20
-0.2583895884342855
 10
0.5491335760838512
 20
-0.2583895884342855
 10
0.597379187304118
 20
-0.3390729346876635
 10
0.597379187304118
 20
-0.392401252720461
 10
0.6236462469291649
 20
-0.392401252720461
 10
0.6236462469291649
 20
-0.340948790910053
 97
        0
 92
        7
 72
     0
 73
     1
 93
       22
 10
0.5567751424586021
 20
-0.3477779088321311
 10
0.5591770297126475
 20
-0.3355305893126848
 10
0.5591770297126465
 20
-0.3115162551380579
 10
0.5522115879104995
 20
-0.2879821814843595
 10
0.5390012340420803
 20
-0.2714122733882505
 10
0.5265114619671607
 20
-0.2610861068108434
 10
0.5084973596194697
 20
-0.2536416585606602
 10
0.494806643917527
 20
-0.2519606469649203
 10
0.484478565165486
 20
-0.2519606469649203
 10
0.4662242688866203
 20
-0.2579642471373291
 10
0.4486905544012699
 20
-0.2694911204462125
 10
0.4366811441598662
 20
-0.2870216160991736
 10
0.4306764520535744
 20
-0.3021506539458305
 10
0.4280343708683643
 20
-0.3117563964843599
 10
0.4280343708683643
 20
-0.3364911768695378
 10
0.434279282934641
 20
-0.357383651370649
 10
0.4503718598618079
 20
-0.3794768547749072
 10
0.4645429634260823
 20
-0.3898030213523129
 10
0.4741504864134417
 20
-0.3943657512752772
 10
0.509698303246492
 20
-0.3943657512752772
 10
0.5322759861710991
 20
-0.3840395846978701
 10
0.5469274515688949
 20
-0.3681901228123183
 97
        0
 92
       22
 72
     0
 73
     1
 93
       22
 10
0.5296903253499164
 20
-0.3564526145181786
 10
0.5199374449236105
 20
-0.3670029521393094
 10
0.5052055605053996
 20
-0.3737407512752768
 10
0.4787992143621201
 20
-0.3737407512752768
 10
0.4751317711778392
 20
-0.3719990377472726
 10
0.4651360572040209
 20
-0.3647153842840423
 10
0.4530292612880772
 20
-0.3480941864513207
 10
0.4486593708683651
 20
-0.3334746332538327
 10
0.4486593708683651
 20
-0.3145411635634501
 10
0.450263383561399
 20
-0.3087094983428282
 10
0.4550002917667495
 20
-0.2967746876570767
 10
0.4634120043492763
 20
-0.2844958589804114
 10
0.4752676069265338
 20
-0.2767018442539428
 10
0.4877831447202408
 20
-0.2725856469649202
 10
0.4935451625829524
 20
-0.2725856469649202
 10
0.5032063025932143
 20
-0.2737718879722486
 10
0.5157633683298969
 20
-0.2789611793533342
 10
0.524208937193138
 20
-0.2859437207800029
 10
0.5335764713215108
 20
-0.2976935331726427
 10
0.5385520297126467
 20
-0.3145044061899451
 10
0.5385520297126467
 20
-0.3335272310145467
 10
0.5370462330737402
 20
-0.3412053485185718
 97
        0
 92
        7
 72
     0
 73
     1
 93
        6
 10
0.4399851642119535
 20
-0.3741140380065531
 10
0.3782823418147263
 20
-0.3741140380065531
 10
0.3782823418147263
 20
-0.2583895884342855
 10
0.3542564675222859
 20
-0.2583895884342855
 10
0.3542564675222859
 20
-0.393222003561303
 10
0.4399851642119535
 20
-0.393222003561303
 97
        0
 92
        7
 72
     0
 73
     1
 93
       15
 10
0.3243907676558466
 20
-0.3843400994986914
 10
0.3363628525724438
 20
-0.3755387451093406
 10
0.3432291766362006
 20
-0.3619846495942043
 10
0.3432291766362006
 20
-0.3477264483885198
 10
0.3351304140758193
 20
-0.3317079718706322
 10
0.3184047382119581
 20
-0.3216744269799054
 10
0.3150969700100992
 20
-0.3169929677697656
 10
0.326638746509913
 20
-0.3054533457512396
 10
0.3346292031591991
 20
-0.2943575340298983
 10
0.3346292031591991
 20
-0.2821521633080861
 10
0.3286363541650306
 20
-0.2661741944293539
 10
0.3120700527529008
 20
-0.2583895884342855
 10
0.2295078658705918
 20
-0.2583895884342855
 10
0.2295078658705918
 20
-0.3916857507920754
 10
0.3030769139821987
 20
-0.3916857507920754
 97
        0
 92
       22
 72
     0
 73
     1
 93
        8
 10
0.2548218543010516
 20
-0.3750035875361188
 10
0.2548218543010505
 20
-0.3295090744317761
 10
0.3035422051301784
 20
-0.3295090744317761
 10
0.312886706913108
 20
-0.3336344460132166
 10
0.320508439328655
 20
-0.3476820385356301
 10
0.3205084393286561
 20
-0.3603254992640368
 10
0.3108889691139038
 20
-0.3712399245617752
 10
0.2962590035196544
 20
-0.3750035875361188
 97
        0
 92
       22
 72
     0
 73
     1
 93
        8
 10
0.2548218543010505
 20
-0.314550669749277
 10
0.2548218543010516
 20
-0.2749968779642273
 10
0.2966111473964217
 20
-0.2749968779642273
 10
0.3072251006549709
 20
-0.2819911526482439
 10
0.3116877935338802
 20
-0.2892265885753225
 10
0.3116877935338802
 20
-0.2986326752350323
 10
0.3049334454445418
 20
-0.3097270236262219
 10
0.2966111473964206
 20
-0.314550669749277
 97
        0
 75
     0
 76
     1
 47
0.0015905179214237
 98
       22
 10
-0.1172614137203409
 20
0.0370136790393096
 10
-0.1172614137203409
 20
0.0370136790393096
 10
0.0268159222752107
 20
0.0309270247727769
 10
0.148571422562197
 20
0.0329559163549522
 10
0.3697605874275955
 20
0.0228114994040598
 10
0.4976038567182196
 20
-0.0137083852351503
 10
0.4976038567182196
 20
-0.0137083852351503
 10
-0.3508956128618978
 20
-0.2673821536293772
 10
-0.3508956128618978
 20
-0.2673821536293772
 10
-0.2682573192879289
 20
-0.3086936605839439
 10
-0.1391108796194118
 20
-0.3175990993276931
 10
-0.022512185268232
 20
-0.3204081967676684
 10
-0.022512185268232
 20
-0.3204081967676684
 10
0.1362305899837224
 20
-0.3112786659277398
 10
0.1362305899837224
 20
-0.3112786659277398
 10
0.6075238088933899
 20
-0.3384343804338461
 10
0.5438913135227298
 20
-0.3503632602365267
 10
0.5438913135227298
 20
-0.3503632602365267
 10
0.3619421181456939
 20
-0.3851558416876708
 10
0.2734531661224382
 20
-0.3851558416876708
 10
0.2734531661224382
 20
-0.3851558416876708
 10
0.2734531661224382
 20
-0.3851558416876708
1001
ACAD
1010
0.0
1020
0.0
1030
0.0
  0
LWPOLYLINE
  5
5DE
330
1F3
100
AcDbEntity
  8
R-ANNO-TEXT
370
    20
100
AcDbPolyline
 90
        9
 70
     1
 43
0.0
 10
0.2548218543010516
 20
-0.314550669749277
 10
0.2548218543010516
 20
-0.2749968779642273
 10
0.2966111473964206
 20
-0.2749968779642273
 10
0.3072251006549675
 20
-0.281991152648243
 10
0.3116877935338802
 20
-0.2892265885753229
 10
0.3116877935338802
 20
-0.2986326752350319
 10
0.3049334454445407
 20
-0.3097270236262215
 10
0.2966111473964206
 20
-0.314550669749277
 10
0.2548218543010516
 20
-0.314550669749277
  0
LWPOLYLINE
  5
5DF
330
1F3
100
AcDbEntity
  8
R-ANNO-TEXT
370
    20
100
AcDbPolyline
 90
        6
 70
     1
 43
0.0
 10
0.3782823418147252
 20
-0.2583895884342855
 10
0.3542564675222859
 20
-0.2583895884342855
 10
0.3542564675222859
 20
-0.393222003561303
 10
0.4399851642119524
 20
-0.393222003561303
 10
0.4399851642119524
 20
-0.3741140380065531
 10
0.3782823418147252
 20
-0.3741140380065531
  0
LWPOLYLINE
  5
5E0
330
1F3
100
AcDbEntity
  8
R-ANNO-TEXT
370
    20
100
AcDbPolyline
 90
       23
 70
     0
 43
0.0
 10
0.4948066439175259
 20
-0.2519606469649203
 10
0.484478565165486
 20
-0.2519606469649203
 10
0.4662242688866226
 20
-0.2579642471373287
 10
0.4486905544012688
 20
-0.2694911204462134
 10
0.4366811441598662
 20
-0.2870216160991754
 10
0.4306764520535767
 20
-0.3021506539458416
 10
0.4280343708683655
 20
-0.3117563964843582
 10
0.4280343708683655
 20
-0.3364911768695409
 10
0.434279282934641
 20
-0.3573836513706494
 10
0.4503718598618079
 20
-0.3794768547749081
 10
0.4645429634260834
 20
-0.3898030213523116
 10
0.4741504864134417
 20
-0.3943657512752772
 10
0.509698303246492
 20
-0.3943657512752772
 10
0.5322759861711014
 20
-0.3840395846978692
 10
0.5469274515688961
 20
-0.3681901228123161
 10
0.5567751424586021
 20
-0.3477779088321329
 10
0.5591770297126465
 20
-0.3355305893126879
 10
0.5591770297126465
 20
-0.311516255138061
 10
0.5522115879104995
 20
-0.2879821814843595
 10
0.539001234042077
 20
-0.2714122733882505
 10
0.5265114619671597
 20
-0.2610861068108425
 10
0.5084973596194676
 20
-0.2536416585606602
 10
0.4948066439175259
 20
-0.2519606469649203
  0
LWPOLYLINE
  5
5E1
330
1F3
100
AcDbEntity
  8
R-ANNO-TEXT
370
    20
100
AcDbPolyline
 90
       22
 70
     1
 43
0.0
 10
0.4935451625829524
 20
-0.2725856469649202
 10
0.4877831447202408
 20
-0.2725856469649202
 10
0.4752676069265372
 20
-0.2767018442539424
 10
0.4634120043492751
 20
-0.2844958589804132
 10
0.4550002917667451
 20
-0.296774687657082
 10
0.4502633835614045
 20
-0.30870949834283
 10
0.4486593708683651
 20
-0.314541163563451
 10
0.4486593708683651
 20
-0.3334746332538381
 10
0.4530292612880793
 20
-0.3480941864513221
 10
0.4651360572040209
 20
-0.364715384284044
 10
0.4751317711778358
 20
-0.3719990377472717
 10
0.4787992143621189
 20
-0.3737407512752773
 10
0.5052055605053985
 20
-0.3737407512752773
 10
0.5199374449236105
 20
-0.3670029521393094
 10
0.5296903253499153
 20
-0.3564526145181772
 10
0.5370462330737402
 20
-0.3412053485185749
 10
0.5385520297126467
 20
-0.3335272310145432
 10
0.5385520297126467
 20
-0.3145044061899456
 10
0.5335764713215097
 20
-0.2976935331726436
 10
0.5242089371931358
 20
-0.2859437207800051
 10
0.5157633683298957
 20
-0.2789611793533342
 10
0.5032063025932132
 20
-0.2737718879722486
  0
LWPOLYLINE
  5
5E2
330
1F3
100
AcDbEntity
  8
R-ANNO-TEXT
370
    20
100
AcDbPolyline
 90
        9
 70
     1
 43
0.0
 10
0.5766059521773171
 20
-0.2583895884342855
 10
0.5491335760838501
 20
-0.2583895884342855
 10
0.597379187304118
 20
-0.339072934687664
 10
0.597379187304118
 20
-0.392401252720461
 10
0.6236462469291649
 20
-0.392401252720461
 10
0.6236462469291649
 20
-0.3409487909100548
 10
0.6735000746894338
 20
-0.2583895884342855
 10
0.6458836290891357
 20
-0.2583895884342855
 10
0.6112447906332264
 20
-0.3142725705057545
  0
LWPOLYLINE
  5
5E3
330
1F3
100
AcDbEntity
  8
R-ANNO-TEXT
370
    25
100
AcDbPolyline
 90
        4
 70
     0
 43
0.0
 10
-0.453213216074394
 20
-0.1101312965536136
 10
-0.453213216074394
 20
-0.1539544649098721
 10
0.720151941392423
 20
-0.1539544649098721
 10
0.720151941392423
 20
-0.1949727397717913
  0
ARC
  5
5E4
102
{ACAD_REACTORS
330
61A
102
}
330
1F3
100
AcDbEntity
  8
R-ANNO-TEXT
370
    25
100
AcDbCircle
 10
-0.2140355703425156
 20
0.1016251002118045
 30
0.0
 40
0.0054753377906536
100
AcDbArc
 50
292.5
 51
30.06084317667183
  0
ARC
  5
5E5
102
{ACAD_REACTORS
330
61B
102
}
330
1F3
100
AcDbEntity
  8
R-ANNO-TEXT
370
    25
100
AcDbCircle
 10
-0.203558965047087
 20
0.0763323376199527
 30
0.0
 40
0.0054753377906536
100
AcDbArc
 50
14.9391568233282
 51
112.4999999999999
  0
ARC
  5
5E6
102
{ACAD_REACTORS
330
615
102
}
330
1F3
100
AcDbEntity
  8
R-ANNO-TEXT
370
    25
100
AcDbCircle
 10
-0.2772555451840108
 20
0.1500289177568725
 30
0.0
 40
0.0054753377906536
100
AcDbArc
 50
337.499999999999
 51
75.0608431766728
  0
ARC
  5
5E7
102
{ACAD_REACTORS
330
615
102
}
330
1F3
100
AcDbEntity
  8
R-ANNO-TEXT
370
    25
100
AcDbCircle
 10
-0.330892723130457
 20
0.1500289177568725
 30
0.0
 40
0.0054753377906536
100
AcDbArc
 50
104.9391568233282
 51
202.5
  0
ARC
  5
5E8
102
{ACAD_REACTORS
330
614
102
}
330
1F3
100
AcDbEntity
  8
R-ANNO-TEXT
370
    25
100
AcDbCircle
 10
-0.3561854857223057
 20
0.1395523124614455
 30
0.0
 40
0.0054753377906536
100
AcDbArc
 50
22.50000000000001
 51
120.0608431766718
  0
ARC
  5
5E9
102
{ACAD_REACTORS
330
615
102
}
330
1F3
100
AcDbEntity
  8
R-ANNO-TEXT
370
    25
100
AcDbCircle
 10
-0.3040741341572317
 20
0.0495137486467301
 30
0.0
 40
0.1095067558130727
100
AcDbArc
 50
75.06084317667196
 51
104.9391568233279
  0
ARC
  5
5EA
102
{ACAD_REACTORS
330
614
102
}
330
1F3
100
AcDbEntity
  8
R-ANNO-TEXT
370
    25
100
AcDbCircle
 10
-0.3941126979719478
 20
0.1016251002118045
 30
0.0
 40
0.0054753377906536
100
AcDbArc
 50
149.9391568233271
 51
247.4999999999981
  0
ARC
  5
5EB
102
{ACAD_REACTORS
330
614
102
}
330
1F3
100
AcDbEntity
  8
R-ANNO-TEXT
370
    25
100
AcDbCircle
 10
-0.3040741341572317
 20
0.0495137486467301
 30
0.0
 40
0.1095067558130727
100
AcDbArc
 50
120.0608431766719
 51
149.9391568233279
  0
ARC
  5
5EC
102
{ACAD_REACTORS
330
61A
102
}
330
1F3
100
AcDbEntity
  8
R-ANNO-TEXT
370
    25
100
AcDbCircle
 10
-0.2519627825921578
 20
0.1395523124614455
 30
0.0
 40
0.0054753377906536
100
AcDbArc
 50
59.93915682332772
 51
157.5000000000017
  0
LINE
  5
5ED
102
{ACAD_REACTORS
330
61A
102
}
330
1F3
100
AcDbEntity
  8
R-ANNO-TEXT
370
    25
100
AcDbLine
 10
-0.2838399240837497
 20
0.0769018322976689
 30
0.0
 11
-0.2570213351105288
 21
0.1416476335205306
 31
0.0
  0
ARC
  5
5EE
102
{ACAD_REACTORS
330
61B
102
}
330
1F3
100
AcDbEntity
  8
R-ANNO-TEXT
370
    25
100
AcDbCircle
 10
-0.2683047662699522
 20
0.0495137486467301
 30
0.0
 40
0.0054753377906536
100
AcDbArc
 50
112.4999999999999
 51
247.5000000000018
  0
ARC
  5
5EF
102
{ACAD_REACTORS
330
61A
102
}
330
1F3
100
AcDbEntity
  8
R-ANNO-TEXT
370
    25
100
AcDbCircle
 10
-0.2787813715653808
 20
0.0748065112385827
 30
0.0
 40
0.0054753377906536
100
AcDbArc
 50
157.4999999999999
 51
292.5
  0
ARC
  5
5F0
102
{ACAD_REACTORS
330
615
102
}
330
1F3
100
AcDbEntity
  8
R-ANNO-TEXT
370
    25
100
AcDbCircle
 10
-0.3040741341572339
 20
0.08528311653401
 30
0.0
 40
0.0054753377906536
100
AcDbArc
 50
202.5
 51
337.5000000000018
  0
ARC
  5
5F1
102
{ACAD_REACTORS
330
614
102
}
330
1F3
100
AcDbEntity
  8
R-ANNO-TEXT
370
    25
100
AcDbCircle
 10
-0.3293668967490848
 20
0.0748065112385819
 30
0.0
 40
0.0054753377906536
100
AcDbArc
 50
247.5000000000018
 51
22.50000000000001
  0
ARC
  5
5F2
102
{ACAD_REACTORS
330
5FF
102
}
330
1F3
100
AcDbEntity
  8
R-ANNO-TEXT
370
    25
100
AcDbCircle
 10
-0.2787813715653831
 20
0.0242209860548774
 30
0.0
 40
0.0054753377906536
100
AcDbArc
 50
67.50000000000089
 51
202.5
  0
ARC
  5
5F3
102
{ACAD_REACTORS
330
60E
102
}
330
1F3
100
AcDbEntity
  8
R-ANNO-TEXT
370
    25
100
AcDbCircle
 10
-0.3293668967490848
 20
0.0242209860548774
 30
0.0
 40
0.0054753377906536
100
AcDbArc
 50
337.499999999999
 51
112.4999999999999
  0
ARC
  5
5F4
102
{ACAD_REACTORS
330
60D
102
}
330
1F3
100
AcDbEntity
  8
R-ANNO-TEXT
370
    25
100
AcDbCircle
 10
-0.3040741341572317
 20
0.0137443807594497
 30
0.0
 40
0.0054753377906536
100
AcDbArc
 50
22.50000000000001
 51
157.4999999999972
  0
ARC
  5
5F5
102
{ACAD_REACTORS
330
60F
102
}
330
1F3
100
AcDbEntity
  8
R-ANNO-TEXT
370
    25
100
AcDbCircle
 10
-0.3398435020445112
 20
0.0495137486467292
 30
0.0
 40
0.0054753377906536
100
AcDbArc
 50
292.5
 51
67.49999999999913
  0
ARC
  5
5F6
102
{ACAD_REACTORS
330
61B
102
}
330
1F3
100
AcDbEntity
  8
R-ANNO-TEXT
370
    25
100
AcDbCircle
 10
-0.2035589650470893
 20
0.022695159673507
 30
0.0
 40
0.0054753377906536
100
AcDbArc
 50
247.5000000000018
 51
345.0608431766722
  0
ARC
  5
5F7
102
{ACAD_REACTORS
330
5FF
102
}
330
1F3
100
AcDbEntity
  8
R-ANNO-TEXT
370
    25
100
AcDbCircle
 10
-0.2140355703425179
 20
-0.0025976029183443
 30
0.0
 40
0.0054753377906536
100
AcDbArc
 50
329.9391568233272
 51
67.49999999999824
  0
ARC
  5
5F8
102
{ACAD_REACTORS
330
5FF
102
}
330
1F3
100
AcDbEntity
  8
R-ANNO-TEXT
370
    25
100
AcDbCircle
 10
-0.2519627825921578
 20
-0.0405248151679851
 30
0.0
 40
0.0054753377906536
100
AcDbArc
 50
202.5
 51
300.0608431766718
  0
ARC
  5
5F9
102
{ACAD_REACTORS
330
60D
102
}
330
1F3
100
AcDbEntity
  8
R-ANNO-TEXT
370
    25
100
AcDbCircle
 10
-0.2772555451840086
 20
-0.0510014204634128
 30
0.0
 40
0.0054753377906536
100
AcDbArc
 50
284.9391568233282
 51
22.50000000000001
  0
ARC
  5
5FA
102
{ACAD_REACTORS
330
5FF
102
}
330
1F3
100
AcDbEntity
  8
R-ANNO-TEXT
370
    25
100
AcDbCircle
 10
-0.3040741341572317
 20
0.0495137486467301
 30
0.0
 40
0.1095067558130727
100
AcDbArc
 50
300.0608431766718
 51
329.9391568233279
  0
LINE
  5
5FB
102
{ACAD_REACTORS
330
61B
102
}
330
1F3
100
AcDbEntity
  8
R-ANNO-TEXT
370
    25
100
AcDbLine
 10
-0.2704000873290402
 20
0.0444551961283599
 30
0.0
 11
-0.2056542861061772
 21
0.0176366071551368
 31
0.0
  0
LINE
  5
5FC
102
{ACAD_REACTORS
330
5FF
102
}
330
1F3
100
AcDbEntity
  8
R-ANNO-TEXT
370
    25
100
AcDbLine
 10
-0.2766860505062929
 20
0.0292795385732485
 30
0.0
 11
-0.2119402492834321
 21
0.0024609496000259
 31
0.0
  0
LINE
  5
5FD
102
{ACAD_REACTORS
330
5FF
102
}
330
1F3
100
AcDbEntity
  8
R-ANNO-TEXT
370
    25
100
AcDbLine
 10
-0.2838399240837519
 20
0.0221256649957922
 30
0.0
 11
-0.2570213351105266
 21
-0.0426201362270708
 31
0.0
  0
LINE
  5
5FE
102
{ACAD_REACTORS
330
60D
102
}
330
1F3
100
AcDbEntity
  8
R-ANNO-TEXT
370
    25
100
AcDbLine
 10
-0.2990155816388629
 20
0.0158397018185355
 30
0.0
 11
-0.2721969926656398
 21
-0.0489060994043271
 31
0.0
  0
HATCH
  5
5FF
330
1F3
100
AcDbEntity
  8
R-ANNO-TEXT
370
    25
100
AcDbHatch
 10
0.0
 20
0.0
 30
0.0
210
0.0
220
0.0
230
1.0
  2
SOLID
 70
     1
 71
     1
 91
        1
 92
        7
 72
     1
 73
     1
 93
        6
 10
-0.2766860505062929
 20
0.0292795385732485
 42
0.6681786379194682
 10
-0.2838399240837532
 20
0.0221256649957952
 42
0.0
 10
-0.2570213351105266
 20
-0.0426201362270708
 42
0.4534141234452422
 10
-0.2492200798782065
 20
-0.045263686947707
 42
0.1311123756655105
 10
-0.2092966985627949
 20
-0.0053403056322957
 42
0.4534141234453834
 10
-0.2119402492834321
 20
0.0024609496000259
 42
0.0
 97
        6
330
5F2
330
5FD
330
5F8
330
5FA
330
5F7
330
5FC
 75
     0
 76
     1
 47
0.0008898326864094
 98
        1
 10
-0.2302070834562075
 20
0.0007965971922861
  0
ARC
  5
600
102
{ACAD_REACTORS
330
60F
102
}
330
1F3
100
AcDbEntity
  8
R-ANNO-TEXT
370
    25
100
AcDbCircle
 10
-0.4045893032673743
 20
0.0763323376199519
 30
0.0
 40
0.0054753377906536
100
AcDbArc
 50
67.50000000000089
 51
165.0608431766717
  0
ARC
  5
601
102
{ACAD_REACTORS
330
60E
102
}
330
1F3
100
AcDbEntity
  8
R-ANNO-TEXT
370
    25
100
AcDbCircle
 10
-0.3941126979719478
 20
-0.0025976029183443
 30
0.0
 40
0.0054753377906536
100
AcDbArc
 50
112.4999999999999
 51
210.0608431766715
  0
ARC
  5
602
102
{ACAD_REACTORS
330
60F
102
}
330
1F3
100
AcDbEntity
  8
R-ANNO-TEXT
370
    25
100
AcDbCircle
 10
-0.4045893032673764
 20
0.022695159673507
 30
0.0
 40
0.0054753377906536
100
AcDbArc
 50
194.9391568233283
 51
292.5
  0
ARC
  5
603
102
{ACAD_REACTORS
330
60F
102
}
330
1F3
100
AcDbEntity
  8
R-ANNO-TEXT
370
    25
100
AcDbCircle
 10
-0.3040741341572317
 20
0.0495137486467301
 30
0.0
 40
0.1095067558130727
100
AcDbArc
 50
165.060843176672
 51
194.939156823328
  0
ARC
  5
604
102
{ACAD_REACTORS
330
60D
102
}
330
1F3
100
AcDbEntity
  8
R-ANNO-TEXT
370
    25
100
AcDbCircle
 10
-0.330892723130457
 20
-0.0510014204634137
 30
0.0
 40
0.0054753377906536
100
AcDbArc
 50
157.5000000000017
 51
255.0608431766727
  0
ARC
  5
605
102
{ACAD_REACTORS
330
60E
102
}
330
1F3
100
AcDbEntity
  8
R-ANNO-TEXT
370
    25
100
AcDbCircle
 10
-0.3561854857223057
 20
-0.0405248151679851
 30
0.0
 40
0.0054753377906536
100
AcDbArc
 50
239.9391568233282
 51
337.499999999999
  0
ARC
  5
606
102
{ACAD_REACTORS
330
60E
102
}
330
1F3
100
AcDbEntity
  8
R-ANNO-TEXT
370
    25
100
AcDbCircle
 10
-0.3040741341572317
 20
0.0495137486467301
 30
0.0
 40
0.1095067558130727
100
AcDbArc
 50
210.0608431766719
 51
239.939156823328
  0
ARC
  5
607
102
{ACAD_REACTORS
330
60D
102
}
330
1F3
100
AcDbEntity
  8
R-ANNO-TEXT
370
    25
100
AcDbCircle
 10
-0.3040741341572317
 20
0.0495137486467301
 30
0.0
 40
0.1095067558130727
100
AcDbArc
 50
255.0608431766721
 51
284.9391568233279
  0
LINE
  5
608
102
{ACAD_REACTORS
330
60D
102
}
330
1F3
100
AcDbEntity
  8
R-ANNO-TEXT
370
    25
100
AcDbLine
 10
-0.3091326866756028
 20
0.0158397018185355
 30
0.0
 11
-0.3359512756488259
 21
-0.0489060994043271
 31
0.0
  0
LINE
  5
609
102
{ACAD_REACTORS
330
60E
102
}
330
1F3
100
AcDbEntity
  8
R-ANNO-TEXT
370
    25
100
AcDbLine
 10
-0.3243083442307137
 20
0.0221256649957922
 30
0.0
 11
-0.3511269332039391
 21
-0.0426201362270708
 31
0.0
  0
LINE
  5
60A
102
{ACAD_REACTORS
330
60E
102
}
330
1F3
100
AcDbEntity
  8
R-ANNO-TEXT
370
    25
100
AcDbLine
 10
-0.3314622178081683
 20
0.0292795385732472
 30
0.0
 11
-0.3962080190310335
 21
0.0024609496000259
 31
0.0
  0
LINE
  5
60B
102
{ACAD_REACTORS
330
60F
102
}
330
1F3
100
AcDbEntity
  8
R-ANNO-TEXT
370
    25
100
AcDbLine
 10
-0.3377481809854277
 20
0.0545723011651012
 30
0.0
 11
-0.4024939822082907
 21
0.0813908901383229
 31
0.0
  0
LINE
  5
60C
102
{ACAD_REACTORS
330
60F
102
}
330
1F3
100
AcDbEntity
  8
R-ANNO-TEXT
370
    25
100
AcDbLine
 10
-0.3377481809854277
 20
0.044455196128359
 30
0.0
 11
-0.4024939822082907
 21
0.0176366071551359
 31
0.0
  0
HATCH
  5
60D
330
1F3
100
AcDbEntity
  8
R-ANNO-TEXT
370
    25
100
AcDbHatch
 10
0.0
 20
0.0
 30
0.0
210
0.0
220
0.0
230
1.0
  2
SOLID
 70
     1
 71
     1
 91
        1
 92
        7
 72
     1
 73
     1
 93
        6
 10
-0.3359512756488259
 20
-0.0489060994043271
 42
0.4534141234453922
 10
-0.3323042278132581
 20
-0.0562916925218423
 42
0.1311123756655163
 10
-0.2758440405012083
 20
-0.0562916925218415
 42
0.4534141234453607
 10
-0.2721969926656398
 20
-0.0489060994043271
 42
0.0
 10
-0.2990155816388629
 20
0.0158397018185355
 42
0.6681786379192526
 10
-0.3091326866756035
 20
0.0158397018185337
 42
0.0
 97
        6
330
5F4
330
608
330
604
330
607
330
5F9
330
5FE
 75
     0
 76
     1
 47
0.0008898326864094
 98
        1
 10
-0.3070483969720661
 20
-0.0099378748356287
  0
HATCH
  5
60E
330
1F3
100
AcDbEntity
  8
R-ANNO-TEXT
370
    25
100
AcDbHatch
 10
0.0
 20
0.0
 30
0.0
210
0.0
220
0.0
230
1.0
  2
SOLID
 70
     1
 71
     1
 91
        1
 92
        7
 72
     1
 73
     1
 93
        6
 10
-0.3962080190310335
 20
0.0024609496000259
 42
0.4534141234453458
 10
-0.3988515697516697
 20
-0.0053403056322956
 42
0.1311123756655114
 10
-0.3589281884362574
 20
-0.0452636869477068
 42
0.4534141234451018
 10
-0.3511269332039391
 20
-0.0426201362270708
 42
0.0
 10
-0.3243083442307137
 20
0.0221256649957922
 42
0.6681786379190447
 10
-0.3314622178081692
 20
0.0292795385732468
 42
0.0
 97
        6
330
60A
330
601
330
606
330
605
330
609
330
5F3
 75
     0
 76
     1
 47
0.0008898326864094
 98
        1
 10
-0.3586910681346567
 20
0.007695381587578
  0
HATCH
  5
60F
330
1F3
100
AcDbEntity
  8
R-ANNO-TEXT
370
    25
100
AcDbHatch
 10
0.0
 20
0.0
 30
0.0
210
0.0
220
0.0
230
1.0
  2
SOLID
 70
     1
 71
     1
 91
        1
 92
        7
 72
     1
 73
     1
 93
        6
 10
-0.4098795753258033
 20
0.0212836549907065
 42
0.4534141234453037
 10
-0.4024939822082907
 20
0.0176366071551359
 42
0.0
 10
-0.3377481809854277
 20
0.044455196128359
 42
0.6681786379194408
 10
-0.3377481809854268
 20
0.0545723011651008
 42
0.0
 10
-0.4024939822082907
 20
0.0813908901383229
 42
0.4534141234452345
 10
-0.4098795753258028
 20
0.0777438423027531
 42
0.1311123756655083
 97
        6
330
600
330
603
330
602
330
60C
330
5F5
330
60B
 75
     0
 76
     1
 47
0.0008898326864094
 98
        1
 10
-0.4042131087732204
 20
0.0436845598667199
  0
LINE
  5
610
102
{ACAD_REACTORS
330
615
102
}
330
1F3
100
AcDbEntity
  8
R-ANNO-TEXT
370
    25
100
AcDbLine
 10
-0.2990155816388607
 20
0.0831877954749247
 30
0.0
 11
-0.272196992665642
 21
0.1479335966977864
 31
0.0
  0
LINE
  5
611
102
{ACAD_REACTORS
330
615
102
}
330
1F3
100
AcDbEntity
  8
R-ANNO-TEXT
370
    25
100
AcDbLine
 10
-0.3091326866756028
 20
0.0831877954749247
 30
0.0
 11
-0.3359512756488259
 21
0.1479335966977886
 31
0.0
  0
LINE
  5
612
102
{ACAD_REACTORS
330
614
102
}
330
1F3
100
AcDbEntity
  8
R-ANNO-TEXT
370
    25
100
AcDbLine
 10
-0.3243083442307137
 20
0.0769018322976671
 30
0.0
 11
-0.3511269332039368
 21
0.1416476335205306
 31
0.0
  0
LINE
  5
613
102
{ACAD_REACTORS
330
614
102
}
330
1F3
100
AcDbEntity
  8
R-ANNO-TEXT
370
    25
100
AcDbLine
 10
-0.3314622178081705
 20
0.0697479587202117
 30
0.0
 11
-0.3962080190310335
 21
0.0965665476934334
 31
0.0
  0
HATCH
  5
614
330
1F3
100
AcDbEntity
  8
R-ANNO-TEXT
370
    25
100
AcDbHatch
 10
0.0
 20
0.0
 30
0.0
210
0.0
220
0.0
230
1.0
  2
SOLID
 70
     1
 71
     1
 91
        1
 92
        7
 72
     1
 73
     1
 93
        6
 10
-0.3511269332039368
 20
0.1416476335205306
 42
0.4534141234452598
 10
-0.358928188436257
 20
0.1442911842411674
 42
0.131112375665511
 10
-0.3988515697516686
 20
0.1043678029257558
 42
0.453414123445392
 10
-0.3962080190310335
 20
0.0965665476934334
 42
0.0
 10
-0.3314622178081705
 20
0.0697479587202117
 42
0.6681786379193687
 10
-0.3243083442307141
 20
0.0769018322976679
 42
0.0
 97
        6
330
5E8
330
5EB
330
5EA
330
613
330
5F1
330
612
 75
     0
 76
     1
 47
0.0008898326864094
 98
        1
 10
-0.3631688923486165
 20
0.1102571032731543
  0
HATCH
  5
615
330
1F3
100
AcDbEntity
  8
R-ANNO-TEXT
370
    25
100
AcDbHatch
 10
0.0
 20
0.0
 30
0.0
210
0.0
220
0.0
230
1.0
  2
SOLID
 70
     1
 71
     1
 91
        1
 92
        7
 72
     1
 73
     1
 93
        6
 10
-0.272196992665642
 20
0.1479335966977864
 42
0.4534141234453589
 10
-0.2758440405012097
 20
0.1553191898153011
 42
0.1311123756655057
 10
-0.3323042278132552
 20
0.1553191898153017
 42
0.4534141234453446
 10
-0.3359512756488259
 20
0.1479335966977886
 42
0.0
 10
-0.3091326866756028
 20
0.0831877954749247
 42
0.6681786379195875
 10
-0.2990155816388602
 20
0.0831877954749258
 42
0.0
 97
        6
330
5E6
330
5E9
330
5E7
330
611
330
5F0
330
610
 75
     0
 76
     1
 47
0.0008898326864094
 98
        1
 10
-0.3002483872256223
 20
0.1342102024471394
  0
ARC
  5
616
102
{ACAD_REACTORS
330
61A
102
}
330
1F3
100
AcDbEntity
  8
R-ANNO-TEXT
370
    25
100
AcDbCircle
 10
-0.3040741341572317
 20
0.0495137486467301
 30
0.0
 40
0.1095067558130727
100
AcDbArc
 50
30.06084317667195
 51
59.93915682332806
  0
LINE
  5
617
102
{ACAD_REACTORS
330
61A
102
}
330
1F3
100
AcDbEntity
  8
R-ANNO-TEXT
370
    25
100
AcDbLine
 10
-0.2766860505062951
 20
0.0697479587202117
 30
0.0
 11
-0.2119402492834299
 21
0.0965665476934334
 31
0.0
  0
ARC
  5
618
102
{ACAD_REACTORS
330
61B
102
}
330
1F3
100
AcDbEntity
  8
R-ANNO-TEXT
370
    25
100
AcDbCircle
 10
-0.3040741341572317
 20
0.0495137486467301
 30
0.0
 40
0.1095067558130727
100
AcDbArc
 50
345.0608431766719
 51
14.93915682332807
  0
LINE
  5
619
102
{ACAD_REACTORS
330
61B
102
}
330
1F3
100
AcDbEntity
  8
R-ANNO-TEXT
370
    25
100
AcDbLine
 10
-0.270400087329038
 20
0.0545723011651003
 30
0.0
 11
-0.2056542861061728
 21
0.0813908901383229
 31
0.0
  0
HATCH
  5
61A
330
1F3
100
AcDbEntity
  8
R-ANNO-TEXT
370
    25
100
AcDbHatch
 10
0.0
 20
0.0
 30
0.0
210
0.0
220
0.0
230
1.0
  2
SOLID
 70
     1
 71
     1
 91
        1
 92
        7
 72
     1
 73
     1
 93
        6
 10
-0.2492200798782061
 20
0.144291184241167
 42
0.4534141234454559
 10
-0.2570213351105288
 20
0.1416476335205306
 42
0.0
 10
-0.2838399240837497
 20
0.0769018322976689
 42
0.6681786379193736
 10
-0.2766860505062935
 20
0.0697479587202124
 42
0.0
 10
-0.2119402492834299
 20
0.0965665476934334
 42
0.4534141234454171
 10
-0.2092966985627938
 20
0.1043678029257558
 42
0.1311123756655118
 97
        6
330
5EC
330
5ED
330
5EF
330
617
330
5E4
330
616
 75
     0
 76
     1
 47
0.0008898326864094
 98
        1
 10
-0.2337531889657163
 20
0.116400797891345
  0
HATCH
  5
61B
330
1F3
100
AcDbEntity
  8
R-ANNO-TEXT
370
    25
100
AcDbHatch
 10
0.0
 20
0.0
 30
0.0
210
0.0
220
0.0
230
1.0
  2
SOLID
 70
     1
 71
     1
 91
        1
 92
        7
 72
     1
 73
     1
 93
        6
 10
-0.1982686929886602
 20
0.0777438423027538
 42
0.4534141234452457
 10
-0.2056542861061728
 20
0.0813908901383229
 42
0.0
 10
-0.270400087329038
 20
0.0545723011651003
 42
0.6681786379193646
 10
-0.2704000873290378
 20
0.044455196128359
 42
0.0
 10
-0.2056542861061772
 20
0.0176366071551368
 42
0.4534141234455367
 10
-0.1982686929886607
 20
0.0212836549907058
 42
0.1311123756655116
 97
        6
330
5E5
330
619
330
5EE
330
5FB
330
5F6
330
618
 75
     0
 76
     1
 47
0.0008898326864094
 98
        1
 10
-0.2035801925456948
 20
0.0613972888376346
  0
LWPOLYLINE
  5
61C
330
1F3
100
AcDbEntity
  8
R-ANNO-TEXT
370
    20
100
AcDbPolyline
 90
       15
 70
     1
 43
0.0
 10
-0.1330473037753699
 20
-0.0513145149045755
 10
-0.1019831069907895
 20
-0.0513145149045755
 10
-0.1019831069907895
 20
0.0260403538924283
 10
-0.0638457611557775
 20
0.0260403538924283
 10
-0.0436431558028183
 20
0.0315045617028478
 10
-0.0320396649758703
 20
0.039536248776594
 10
-0.0189485491220431
 20
0.0532198933533525
 10
-0.011212888570743
 20
0.0689858123903333
 10
-0.0106178437657534
 20
0.0883213922984307
 10
-0.0150807188463909
 20
0.1088468369918951
 10
-0.0237089596195805
 20
0.1243153009183731
 10
-0.0376926556953017
 20
0.1377014682129509
 10
-0.0546516018247811
 20
0.144245813219154
 10
-0.0701950227528381
 20
0.1459837173173986
 10
-0.1330473037753699
 20
0.1459837173173986
  0
LWPOLYLINE
  5
61D
330
1F3
100
AcDbEntity
  8
R-ANNO-TEXT
370
    20
100
AcDbPolyline
 90
       11
 70
     1
 43
0.0
 10
-0.1022557068001861
 20
0.1150008941097349
 10
-0.1022557068001861
 20
0.0553729619525081
 10
-0.0692479642151744
 20
0.0553729619525081
 10
-0.0561198874399926
 20
0.0602482015491859
 10
-0.0482430465806438
 20
0.0673735551399792
 10
-0.0433669119589209
 20
0.0756239657278259
 10
-0.0433669119589209
 20
0.0924997985119793
 10
-0.0486181478747583
 20
0.1030003009222637
 10
-0.0587455184123187
 20
0.110875699901646
 10
-0.0677476110963637
 20
0.1150008941097349
 10
-0.1022557068001861
 20
0.1150008941097349
  0
LWPOLYLINE
  5
61E
330
1F3
100
AcDbEntity
  8
R-ANNO-TEXT
370
    20
100
AcDbPolyline
 90
       12
 70
     1
 43
0.0
 10
0.1100672689864746
 20
-0.0513145149045755
 10
0.1100672689864746
 20
-0.022352550634178
 10
0.0388295700325248
 20
-0.022352550634178
 10
0.0388295700325248
 20
0.0319891013558795
 10
0.1067976330027764
 20
0.0319891013558795
 10
0.1067976330027764
 20
0.0620616888668515
 10
0.0388295700325248
 20
0.0620616888668515
 10
0.0388295700325248
 20
0.116930937891019
 10
0.1100672689864746
 20
0.116930937891019
 10
0.1100672689864746
 20
0.1459837173173986
 10
0.008223740730372
 20
0.1459837173173986
 10
0.008223740730372
 20
-0.0513145149045755
  0
LWPOLYLINE
  5
61F
330
1F3
100
AcDbEntity
  8
R-ANNO-TEXT
370
    20
100
AcDbPolyline
 90
       14
 70
     1
 43
0.0
 10
0.1614316011045147
 20
-0.0513145149045755
 10
0.1614316011045147
 20
0.115924565837803
 10
0.2191213263936464
 20
-0.0513145149045755
 10
0.2453439287977932
 20
-0.0513145149045755
 10
0.3046070180398164
 20
0.1175256336762391
 10
0.3046070180398164
 20
-0.0513145149045755
 10
0.3345007769719011
 20
-0.0513145149045755
 10
0.3345007769719011
 20
0.1459837173173986
 10
0.2899223398704398
 20
0.1459837173173986
 10
0.2330631389578486
 20
-0.0191444332710558
 10
0.1760937643464533
 20
0.1459837173173986
 10
0.1304889328705039
 20
0.1459837173173986
 10
0.1304889328705039
 20
-0.0513145149045755
 10
0.1614316011045147
 20
-0.0513145149045755
  0
LWPOLYLINE
  5
620
330
1F3
100
AcDbEntity
  8
R-ANNO-TEXT
370
    20
100
AcDbPolyline
 90
       12
 70
     1
 43
0.0
 10
0.3888268501872349
 20
-0.0513145149045755
 10
0.3888268501872349
 20
0.0456748154102256
 10
0.4571879483070996
 20
-0.0513145149045755
 10
0.4941706297532356
 20
-0.0513145149045755
 10
0.4193918755900573
 20
0.0485512054460879
 10
0.4945815467007132
 20
0.1459837173173986
 10
0.4580097822020591
 20
0.1459837173173986
 10
0.3888268501872349
 20
0.0507626003477224
 10
0.3888268501872349
 20
0.1459837173173986
 10
0.3580079229533062
 20
0.1459837173173986
 10
0.3580079229533062
 20
-0.0513145149045755
 10
0.3888268501872349
 20
-0.0513145149045755
  0
LWPOLYLINE
  5
621
330
1F3
100
AcDbEntity
  8
R-ANNO-TEXT
370
    20
100
AcDbPolyline
 90
       26
 70
     1
 43
0.0
 10
0.5506715929020956
 20
0.1459837173173986
 10
0.5958793547616626
 20
0.1459837173173986
 10
0.6205998340873887
 20
0.1389062988748559
 10
0.6453639116830202
 20
0.1203942190945542
 10
0.660669767590515
 20
0.1028407535925648
 10
0.6719240818259332
 20
0.0798862030216343
 10
0.6773261547412436
 20
0.0600822909505041
 10
0.6773261547412436
 20
0.0308265077233063
 10
0.6683227085586675
 20
0.0024709164267636
 10
0.6498656217598987
 20
-0.0236342504722984
 10
0.6260064880746386
 20
-0.0411877159742877
 10
0.5998965123653467
 20
-0.0537902034584912
 10
0.5897297341975561
 20
-0.0557968281842944
 10
0.5626545578645582
 20
-0.0557968281842944
 10
0.5482292828939251
 20
-0.0529123162267862
 10
0.5191567852228064
 20
-0.0380459239703921
 10
0.4962982513535364
 20
-0.0176323796900677
 10
0.4847580365827965
 20
0.0007841845404357
 10
0.4758809342820925
 20
0.0220852829001208
 10
0.4734397174842709
 20
0.0314045009609201
 10
0.4734397174842709
 20
0.0640217974312165
 10
0.4798425724172918
 20
0.0839714217106238
 10
0.4907393548106532
 20
0.1045228959434254
 10
0.5075798177612557
 20
0.1225982825322704
 10
0.5244202807118537
 20
0.1359691070319426
 10
0.5506715929020956
 20
0.1459837173173986
  0
LWPOLYLINE
  5
622
330
1F3
100
AcDbEntity
  8
R-ANNO-TEXT
370
    20
100
AcDbPolyline
 90
       25
 70
     1
 43
0.0
 10
0.5558541372340099
 20
0.1178587173173988
 10
0.5919325753769267
 20
0.1178587173173988
 10
0.6078954091469902
 20
0.1132885933877255
 10
0.6261302562363868
 20
0.0996573590808172
 10
0.6370432602303089
 20
0.0871418199114866
 10
0.6454940215512528
 20
0.0699054584551853
 10
0.6492011547412436
 20
0.0563151680460203
 10
0.6492011547412436
 20
0.0351844198351508
 10
0.6428376688688986
 20
0.0151431599710397
 10
0.6295300386766744
 20
-0.0036787652323556
 10
0.6114363938856816
 20
-0.0169904878553844
 10
0.5909157727713033
 20
-0.0268951646594307
 10
0.5869807241960679
 20
-0.0276718281842943
 10
0.5654389676714345
 20
-0.0276718281842943
 10
0.5575649085200874
 20
-0.0260973127714217
 10
0.5351878767925223
 20
-0.0146546863084662
 10
0.5180104773298844
 20
0.0006853878431299
 10
0.5098247674499146
 20
0.0137486327455534
 10
0.5025930388588518
 20
0.0311015658098222
 10
0.5015647174842708
 20
0.0350271291333448
 10
0.5015647174842708
 20
0.0596190253184306
 10
0.5058596111121161
 20
0.0730007925288137
 10
0.5138482733195316
 20
0.0880675140236167
 10
0.526720020138286
 20
0.1018831555831858
 10
0.5385052891549036
 20
0.1112403071154731
  0
ENDBLK
  5
22E
330
1F3
100
AcDbEntity
  8
0
100
AcDbBlockEnd
  0
ENDSEC
  0
SECTION
  2
ENTITIES
  0
MTEXT
  5
10C
330
A
100
AcDbEntity
  8
R-ANNO-TEXT
  6
Continuous
100
AcDbMText
 10
1.063936978214846
 20
-1.093583309692525
 30
0.0
 40
0.125
 41
2.110199999999999
 71
     5
 72
     5
  1
FG3000S45
  7
SWTSTEXT
 73
     1
 44
1.0
1001
ACAD
1000
MTEXTBEGIN
1070
    73
1070
     1
1070
    44
1040
1.0
1070
    74
1070
     0
1000
MTEXTEND
  0
POLYLINE
  5
178
330
A
100
AcDbEntity
  8
R-SWTS-DET2
100
AcDb2dPolyline
 66
     1
 10
0.0
 20
0.0
 30
0.0
 70
     1
 75
     5
  0
VERTEX
  5
179
330
178
100
AcDbEntity
  8
R-SWTS-DET2
100
AcDbVertex
100
AcDb2dVertex
 10
0.6933763828074091
 20
-0.0969857087262396
 30
0.0
  0
VERTEX
  5
17A
330
178
100
AcDbEntity
  8
R-SWTS-DET2
100
AcDbVertex
100
AcDb2dVertex
 10
0.2497374105898751
 20
-0.0969857087262396
 30
0.0
  0
VERTEX
  5
17B
330
178
100
AcDbEntity
  8
R-SWTS-DET2
100
AcDbVertex
100
AcDb2dVertex
 10
0.2497374105898751
 20
-0.1049857087262396
 30
0.0
  0
VERTEX
  5
17C
330
178
100
AcDbEntity
  8
R-SWTS-DET2
100
AcDbVertex
100
AcDb2dVertex
 10
0.6933763828074091
 20
-0.1049857087262396
 30
0.0
  0
SEQEND
  5
17D
330
178
100
AcDbEntity
  8
R-SWTS-DET2
  0
DIMENSION
  5
184
330
A
100
AcDbEntity
  8
R-ANNO-DIMS
  6
Continuous
100
AcDbDimension
  2
*D0
 10
0.0459933827536886
 20
-0.0969857087262395
 30
0.0
 11
-0.273173283912978
 21
-0.3469857087262395
 31
0.0
 70
   160
 71
     5
 42
0.046875
  3
SCADMECH
100
AcDbAlignedDimension
 13
0.2497374105898751
 23
-0.0501107087262396
 33
0.0
 14
0.2497374105898751
 24
-0.0969857087262396
 34
0.0
 50
90.0
100
AcDbRotatedDimension
  0
DIMENSION
  5
1A8
330
A
100
AcDbEntity
  8
R-ANNO-DIMS
  6
Continuous
100
AcDbDimension
  2
*D1
 10
0.6933763828074091
 20
0.3248892912737604
 30
0.0
 11
0.4715568966986422
 21
0.3248892912737604
 31
0.0
 70
    32
 71
     5
 42
0.443638972217534
  3
SCADMECH
100
AcDbAlignedDimension
 13
0.2497374105898751
 23
-0.0501107087262396
 33
0.0
 14
0.6933763828074091
 24
-0.0501107087262396
 34
0.0
100
AcDbRotatedDimension
  0
INSERT
  5
22F
330
A
100
AcDbEntity
  8
R-ANNO-TEXT
  6
Continuous
100
AcDbBlockReference
  2
Logo
 10
-0.7636657647448589
 20
-1.076934164917327
 30
0.0
  0
LWPOLYLINE
  5
296
330
A
100
AcDbEntity
  8
R-SWTS-DET1
  6
Continuous
100
AcDbPolyline
 90
        4
 70
   129
 43
0.0
 10
0.2497374105898751
 20
-0.0969857087262396
 10
0.2497374105898751
 20
-0.0501107087262396
 10
0.6933763828074091
 20
-0.0501107087262396
 10
0.6933763828074091
 20
-0.0969857087262396
  0
VIEWPORT
  5
1E9
102
{ACAD_XDICTIONARY
360
679
102
}
330
B
100
AcDbEntity
 67
     1
  8
0
  6
Continuous
100
AcDbViewport
 10
5.375000360443835
 20
4.124999881729366
 30
0.0
 40
15.13055796641811
 41
8.992999745766947
 68
     1
 69
     1
 12
5.375000360443835
 22
4.124999881729366
 13
0.0
 23
0.0
 14
0.5
 24
0.5
 15
0.5
 25
0.5
 16
0.0
 26
0.0
 36
1.0
 17
0.0
 27
0.0
 37
0.0
 42
50.0
 43
0.0
 44
0.0
 45
8.992999745766947
 50
0.0
 51
0.0
 72
   100
 90
    32800
  1

281
     0
 71
     1
 74
     0
110
0.0
120
0.0
130
0.0
111
1.0
121
0.0
131
0.0
112
0.0
122
1.0
132
0.0
 79
     0
146
0.0
  0
VIEWPORT
  5
1EB
102
{ACAD_XDICTIONARY
360
67B
102
}
330
B
100
AcDbEntity
 67
     1
  8
R-ANNO-DIMS
  6
Continuous
100
AcDbViewport
 10
5.375000121086601
 20
4.124999820716737
 30
0.0
 40
8.60000019373856
 41
6.599999713146781
 68
     2
 69
     2
 12
0.309492785262423
 22
-0.2491848617503414
 13
0.0
 23
0.0
 14
1.0
 24
1.0
 15
0.0
 25
0.0
 16
0.0
 26
0.0
 36
1.0
 17
0.0
 27
0.0
 37
0.0
 42
50.0
 43
0.0
 44
0.0
 45
6.599999713146781
 50
0.0
 51
0.0
 72
   100
 90
    32800
  1

281
     0
 71
     1
 74
     0
110
0.0
120
0.0
130
0.0
111
1.0
121
0.0
131
0.0
112
0.0
122
1.0
132
0.0
 79
     0
146
0.0
  0
ENDSEC
  0
SECTION
  2
OBJECTS
  0
DICTIONARY
  5
19
330
0
100
AcDbDictionary
281
     1
  3
ACAD_COLOR
350
25D
  3
ACAD_GROUP
350
1A
  3
ACAD_LAYOUT
350
C6
  3
ACAD_MATERIAL
350
25C
  3
ACAD_MLINESTYLE
350
1B
  3
ACAD_PLOTSETTINGS
350
C7
  3
ACAD_PLOTSTYLENAME
350
C4
  3
ACAD_TABLESTYLE
350
25E
  3
ACAD_VISUALSTYLE
350
29C
  3
AcDbVariableDictionary
350
D0
  3
AcStStandard
350
230
  3
AEC_CLASSIFICATION_SYSTEM_DEFS
350
625
  3
ASE_INDEX_DICTIONARY
350
26C
  3
DWGPROPS
350
674
  0
DICTIONARY
  5
2D3
330
2
100
AcDbDictionary
280
     1
281
     1
  3
ACAD_LAYERSTATES
360
2D4
  0
DICTIONARY
  5
272
330
A
100
AcDbDictionary
280
     1
281
     1
  3
ACAD_SORTENTS
360
273
  0
DICTIONARY
  5
623
330
1F3
100
AcDbDictionary
280
     1
281
     1
  3
ACAD_SORTENTS
360
624
  0
DICTIONARY
  5
679
330
1E9
100
AcDbDictionary
280
     1
281
     1
  3
ACAD_XREC_ROUNDTRIP
360
67A
  0
DICTIONARY
  5
67B
330
1EB
100
AcDbDictionary
280
     1
281
     1
  3
ACAD_XREC_ROUNDTRIP
360
67C
  0
DICTIONARY
  5
25D
102
{ACAD_REACTORS
330
19
102
}
330
19
100
AcDbDictionary
281
     1
  0
DICTIONARY
  5
1A
102
{ACAD_REACTORS
330
19
102
}
330
19
100
AcDbDictionary
281
     1
  0
DICTIONARY
  5
C6
102
{ACAD_REACTORS
330
19
102
}
330
19
100
AcDbDictionary
281
     1
  3
Layout1
350
C9
  3
Model
350
C8
  0
DICTIONARY
  5
25C
102
{ACAD_REACTORS
330
19
102
}
330
19
100
AcDbDictionary
281
     1
  3
ByBlock
350
29A
  3
ByLayer
350
299
  3
Global
350
29B
  0
DICTIONARY
  5
1B
102
{ACAD_REACTORS
330
19
102
}
330
19
100
AcDbDictionary
281
     1
  3
STANDARD
350
1C
  0
DICTIONARY
  5
C7
102
{ACAD_REACTORS
330
19
102
}
330
19
100
AcDbDictionary
281
     1
  0
ACDBDICTIONARYWDFLT
  5
C4
102
{ACAD_REACTORS
330
19
102
}
330
19
100
AcDbDictionary
281
     1
  3
Normal
350
C5
100
AcDbDictionaryWithDefault
340
C5
  0
DICTIONARY
  5
25E
102
{ACAD_REACTORS
330
19
102
}
330
19
100
AcDbDictionary
281
     1
  3
Standard
350
25F
  0
DICTIONARY
  5
29C
102
{ACAD_REACTORS
330
19
102
}
330
19
100
AcDbDictionary
281
     1
  3
2dWireframe
350
2A2
  3
3D Hidden
350
2A4
  3
3dWireframe
350
2A3
  3
Basic
350
2A1
  3
Brighten
350
2A8
  3
ColorChange
350
2AC
  3
Conceptual
350
2A5
  3
Dim
350
2A7
  3
Facepattern
350
2AB
  3
Flat
350
29D
  3
FlatWithEdges
350
29E
  3
Gouraud
350
29F
  3
GouraudWithEdges
350
2A0
  3
Linepattern
350
2AA
  3
Realistic
350
2A6
  3
Thicken
350
2A9
  0
DICTIONARY
  5
D0
102
{ACAD_REACTORS
330
19
102
}
330
19
100
AcDbDictionary
281
     1
  3
CTABLESTYLE
350
26F
  3
DIMASSOC
350
D1
  3
INDEXCTL
350
652
  3
SORTENTS
350
651
  0
DICTIONARY
  5
230
102
{ACAD_REACTORS
330
19
102
}
330
19
100
AcDbDictionary
281
     1
  3
0
350
259
  0
DICTIONARY
  5
625
102
{ACAD_REACTORS
330
19
102
}
330
19
100
AcDbDictionary
281
     1
  0
DICTIONARY
  5
26C
102
{ACAD_REACTORS
330
19
102
}
330
19
100
AcDbDictionary
281
     1
  3
ASEBlockHierarchyIndexRecord
350
26D
1001
DCO15
1040
1629611303.877
  0
XRECORD
  5
674
102
{ACAD_REACTORS
330
19
102
}
330
19
100
AcDbXrecord
280
     1
  1
DWGPROPS COOKIE
  2

  3

  4

  6

  7

  8
GaryH
  9

300
=
301
=
302
=
303
=
304
=
305
=
306
=
307
=
308
=
309
=
 40
0.1246169791666667
 41
2452254.701789086
 42
2454664.453794873
  1

 90
        0
  0
DICTIONARY
  5
2D4
102
{ACAD_REACTORS
330
2D3
102
}
330
2D3
100
AcDbDictionary
281
     1
  0
SORTENTSTABLE
  5
273
102
{ACAD_REACTORS
330
272
102
}
330
272
100
AcDbSortentsTable
330
A
331
22F
  5
296
331
184
  5
1A8
331
178
  5
178
331
10C
  5
10C
331
296
  5
17F
331
1A8
  5
22F
  0
SORTENTSTABLE
  5
624
102
{ACAD_REACTORS
330
623
102
}
330
623
100
AcDbSortentsTable
330
1F3
  0
XRECORD
  5
67A
102
{ACAD_REACTORS
330
679
102
}
330
679
100
AcDbXrecord
280
     1
102
SHADEPLOT
 70
     0
  0
XRECORD
  5
67C
102
{ACAD_REACTORS
330
67B
102
}
330
67B
100
AcDbXrecord
280
     1
102
SHADEPLOT
 70
     0
  0
LAYOUT
  5
C9
102
{ACAD_XDICTIONARY
360
677
102
}
102
{ACAD_REACTORS
330
C6
102
}
330
C6
100
AcDbPlotSettings
  1

  2
HP LaserJet 8150 PS
  4
Letter
  6

 40
3.174999952316284
 41
3.174999952316284
 42
3.175003051757812
 43
3.17498779296875
 44
215.8999938964844
 45
279.3999938964844
 46
0.0
 47
0.0
 48
0.0
 49
0.0
140
0.0
141
0.0
142
1.0
143
1.0
 70
   688
 72
     0
 73
     1
 74
     5
  7
monochrome.ctb
 75
    16
147
1.0
148
0.0
149
0.0
100
AcDbLayout
  1
Layout1
 70
     0
 71
     1
 10
-0.1249995194082185
 20
-0.1249999981226883
 11
10.87500024029589
 21
8.37499976158142
 12
0.0
 22
0.0
 32
0.0
 14
1.07500002421732
 24
0.8249999641433474
 34
0.0
 15
9.675000217955881
 25
7.424999677290128
 35
0.0
146
0.0
 13
0.0
 23
0.0
 33
0.0
 16
1.0
 26
0.0
 36
0.0
 17
0.0
 27
1.0
 37
0.0
 76
     0
330
B
331
1E9
  0
LAYOUT
  5
C8
102
{ACAD_XDICTIONARY
360
675
102
}
102
{ACAD_REACTORS
330
C6
102
}
330
C6
100
AcDbPlotSettings
  1

  2
Adobe PDF
  4
Letter
  6

 40
3.174999952316284
 41
3.174999952316284
 42
3.175003051757812
 43
3.17498779296875
 44
215.8999938964844
 45
279.3999938964844
 46
37.35758241188384
 47
41.67272244310845
 48
-1.513167666570082
 49
-1.695637170002529
140
2.221174090614611
141
0.9585916896164192
142
2.0
143
1.0
 70
 11940
 72
     0
 73
     1
 74
     4
  7
monochrome.ctb
 75
     0
147
2.839634821930964
148
38.4344587308801
149
43.06918411806425
100
AcDbLayout
  1
Model
 70
     1
 71
     0
 10
0.0
 20
0.0
 11
12.0
 21
9.0
 12
0.0
 22
0.0
 32
0.0
 14
0.0
 24
0.0
 34
0.0
 15
0.0
 25
0.0
 35
0.0
146
0.0
 13
0.0
 23
0.0
 33
0.0
 16
1.0
 26
0.0
 36
0.0
 17
0.0
 27
1.0
 37
0.0
 76
     0
330
A
331
297
1001
ACAD_PSEXT
1000
Adobe PDF
1000
Adobe PDF Converter
1000
My Documents\*.pdf
1000
Creates Adobe PDF
1070
     0
  0
MATERIAL
  5
29A
102
{ACAD_XDICTIONARY
360
681
102
}
102
{ACAD_REACTORS
330
25C
102
}
330
25C
100
AcDbMaterial
  1
ByBlock
  0
MATERIAL
  5
299
102
{ACAD_XDICTIONARY
360
67F
102
}
102
{ACAD_REACTORS
330
25C
102
}
330
25C
100
AcDbMaterial
  1
ByLayer
  0
MATERIAL
  5
29B
102
{ACAD_XDICTIONARY
360
683
102
}
102
{ACAD_REACTORS
330
25C
102
}
330
25C
100
AcDbMaterial
  1
Global
  0
MLINESTYLE
  5
1C
102
{ACAD_REACTORS
330
1B
102
}
330
1B
100
AcDbMlineStyle
  2
STANDARD
 70
     0
  3

 62
     0
 51
90.0
 52
90.0
 71
     2
 49
0.5
 62
   256
  6
BYLAYER
 49
-0.5
 62
   256
  6
BYLAYER
  0
ACDBPLACEHOLDER
  5
C5
102
{ACAD_REACTORS
330
C4
102
}
330
C4
  0
TABLESTYLE
  5
25F
102
{ACAD_XDICTIONARY
360
67D
102
}
102
{ACAD_REACTORS
330
25E
102
}
330
25E
100
AcDbTableStyle
  3
Standard
 70
     0
 71
     0
 40
0.06
 41
0.06
280
     0
281
     0
  7
STANDARD
140
0.18
170
     2
 62
     0
 63
     7
283
     0
274
    -2
284
     1
 64
     0
275
    -2
285
     1
 65
     0
276
    -2
286
     1
 66
     0
277
    -2
287
     1
 67
     0
278
    -2
288
     1
 68
     0
279
    -2
289
     1
 69
     0
  7
STANDARD
140
0.25
170
     5
 62
     0
 63
     7
283
     0
274
    -2
284
     1
 64
     0
275
    -2
285
     1
 65
     0
276
    -2
286
     1
 66
     0
277
    -2
287
     1
 67
     0
278
    -2
288
     1
 68
     0
279
    -2
289
     1
 69
     0
  7
STANDARD
140
0.18
170
     5
 62
     0
 63
     7
283
     0
274
    -2
284
     1
 64
     0
275
    -2
285
     1
 65
     0
276
    -2
286
     1
 66
     0
277
    -2
287
     1
 67
     0
278
    -2
288
     1
 68
     0
279
    -2
289
     1
 69
     0
  0
VISUALSTYLE
  5
2A2
102
{ACAD_REACTORS
330
29C
102
}
330
29C
100
AcDbVisualStyle
  2
2dWireframe
 70
     4
 71
     0
 72
     2
 73
     0
 90
        0
 40
-0.6
 41
-30.0
 62
     5
 63
     7
 74
     1
 91
        4
 64
     7
 65
   257
 75
     1
175
     1
 42
1.0
 92
        0
 66
   257
 43
1.0
 76
     1
 77
     6
 78
     2
 67
     7
 79
     5
170
     0
171
     0
290
     0
174
     0
 93
        1
 44
0.0
173
     0
291
     0
 45
0.0
1001
ACAD
1000
AcDbSavedByObjectVersion
1070
     0
  0
VISUALSTYLE
  5
2A4
102
{ACAD_REACTORS
330
29C
102
}
330
29C
100
AcDbVisualStyle
  2
3D Hidden
 70
     6
 71
     1
 72
     2
 73
     2
 90
        0
 40
-0.6
 41
-30.0
 62
     5
 63
     7
 74
     2
 91
        2
 64
     7
 65
   257
 75
     2
175
     1
 42
40.0
 92
        0
 66
   257
 43
1.0
 76
     1
 77
     6
 78
     2
 67
     7
 79
     3
170
     0
171
     0
290
     0
174
     0
 93
        1
 44
0.0
173
     0
291
     0
 45
0.0
1001
ACAD
1000
AcDbSavedByObjectVersion
1070
     0
  0
VISUALSTYLE
  5
2A3
102
{ACAD_REACTORS
330
29C
102
}
330
29C
100
AcDbVisualStyle
  2
3dWireframe
 70
     5
 71
     0
 72
     2
 73
     0
 90
        0
 40
-0.6
 41
-30.0
 62
     5
 63
     7
 74
     1
 91
        4
 64
     7
 65
   257
 75
     1
175
     1
 42
1.0
 92
        0
 66
   257
 43
1.0
 76
     1
 77
     6
 78
     2
 67
     7
 79
     5
170
     0
171
     0
290
     0
174
     0
 93
        1
 44
0.0
173
     0
291
     0
 45
0.0
1001
ACAD
1000
AcDbSavedByObjectVersion
1070
     0
  0
VISUALSTYLE
  5
2A1
102
{ACAD_REACTORS
330
29C
102
}
330
29C
100
AcDbVisualStyle
  2
Basic
 70
     7
 71
     1
 72
     0
 73
     1
 90
        0
 40
-0.6
 41
-30.0
 62
     5
 63
     7
 74
     0
 91
        4
 64
     7
 65
   257
 75
     1
175
     1
 42
1.0
 92
        8
 66
     7
 43
1.0
 76
     1
 77
     6
 78
     2
 67
     7
 79
     5
170
     0
171
     0
290
     0
174
     0
 93
        1
 44
0.0
173
     0
291
     1
 45
0.0
1001
ACAD
1000
AcDbSavedByObjectVersion
1070
     0
  0
VISUALSTYLE
  5
2A8
102
{ACAD_REACTORS
330
29C
102
}
330
29C
100
AcDbVisualStyle
  2
Brighten
 70
    12
 71
     2
 72
     2
 73
     0
 90
        0
 40
-0.6
 41
-30.0
 62
     5
 63
     7
 74
     1
 91
        4
 64
     7
 65
   257
 75
     1
175
     1
 42
1.0
 92
        8
 66
     7
 43
1.0
 76
     1
 77
     6
 78
     2
 67
     7
 79
     5
170
     0
171
     0
290
     0
174
     0
 93
        1
 44
50.0
173
     0
291
     1
 45
0.0
1001
ACAD
1000
AcDbSavedByObjectVersion
1070
     0
  0
VISUALSTYLE
  5
2AC
102
{ACAD_REACTORS
330
29C
102
}
330
29C
100
AcDbVisualStyle
  2
ColorChange
 70
    16
 71
     2
 72
     2
 73
     3
 90
        0
 40
-0.6
 41
-30.0
 62
     5
 63
     8
 74
     1
 91
        4
 64
     7
 65
   257
 75
     1
175
     1
 42
1.0
 92
        8
 66
     8
 43
1.0
 76
     1
 77
     6
 78
     2
 67
     7
 79
     5
170
     0
171
     0
290
     0
174
     0
 93
        1
 44
0.0
173
     0
291
     1
 45
0.0
1001
ACAD
1000
AcDbSavedByObjectVersion
1070
     0
  0
VISUALSTYLE
  5
2A5
102
{ACAD_REACTORS
330
29C
102
}
330
29C
100
AcDbVisualStyle
  2
Conceptual
 70
     9
 71
     3
 72
     2
 73
     0
 90
        0
 40
-0.6
 41
-30.0
 62
     5
 63
     7
 74
     2
 91
        2
 64
     7
 65
   257
 75
     1
175
     1
 42
40.0
 92
        8
 66
     7
 43
1.0
 76
     1
 77
     6
 78
     2
 67
     7
 79
     3
170
     0
171
     0
290
     0
174
     0
 93
        1
 44
0.0
173
     0
291
     0
 45
0.0
1001
ACAD
1000
AcDbSavedByObjectVersion
1070
     0
  0
VISUALSTYLE
  5
2A7
102
{ACAD_REACTORS
330
29C
102
}
330
29C
100
AcDbVisualStyle
  2
Dim
 70
    11
 71
     2
 72
     2
 73
     0
 90
        0
 40
-0.6
 41
-30.0
 62
     5
 63
     7
 74
     1
 91
        4
 64
     7
 65
   257
 75
     1
175
     1
 42
1.0
 92
        8
 66
     7
 43
1.0
 76
     1
 77
     6
 78
     2
 67
     7
 79
     5
170
     0
171
     0
290
     0
174
     0
 93
        1
 44
-50.0
173
     0
291
     1
 45
0.0
1001
ACAD
1000
AcDbSavedByObjectVersion
1070
     0
  0
VISUALSTYLE
  5
2AB
102
{ACAD_REACTORS
330
29C
102
}
330
29C
100
AcDbVisualStyle
  2
Facepattern
 70
    15
 71
     2
 72
     2
 73
     0
 90
        0
 40
-0.6
 41
-30.0
 62
     5
 63
     7
 74
     1
 91
        4
 64
     7
 65
   257
 75
     1
175
     1
 42
1.0
 92
        8
 66
     7
 43
1.0
 76
     1
 77
     6
 78
     2
 67
     7
 79
     5
170
     0
171
     0
290
     0
174
     0
 93
        1
 44
0.0
173
     0
291
     1
 45
0.0
1001
ACAD
1000
AcDbSavedByObjectVersion
1070
     0
  0
VISUALSTYLE
  5
29D
102
{ACAD_REACTORS
330
29C
102
}
330
29C
100
AcDbVisualStyle
  2
Flat
 70
     0
 71
     2
 72
     1
 73
     1
 90
        2
 40
-0.6
 41
30.0
 62
     5
 63
     7
 74
     0
 91
        4
 64
     7
 65
   257
 75
     1
175
     1
 42
1.0
 92
        8
 66
     7
 43
1.0
 76
     1
 77
     6
 78
     2
 67
     7
 79
     5
170
     0
171
     0
290
     0
174
     0
 93
       13
 44
0.0
173
     0
291
     1
 45
0.0
1001
ACAD
1000
AcDbSavedByObjectVersion
1070
     0
  0
VISUALSTYLE
  5
29E
102
{ACAD_REACTORS
330
29C
102
}
330
29C
100
AcDbVisualStyle
  2
FlatWithEdges
 70
     1
 71
     2
 72
     1
 73
     1
 90
        2
 40
-0.6
 41
30.0
 62
     5
 63
     7
 74
     1
 91
        4
 64
     7
 65
   257
 75
     1
175
     1
 42
1.0
 92
        0
 66
   257
 43
1.0
 76
     1
 77
     6
 78
     2
 67
     7
 79
     5
170
     0
171
     0
290
     0
174
     0
 93
       13
 44
0.0
173
     0
291
     1
 45
0.0
1001
ACAD
1000
AcDbSavedByObjectVersion
1070
     0
  0
VISUALSTYLE
  5
29F
102
{ACAD_REACTORS
330
29C
102
}
330
29C
100
AcDbVisualStyle
  2
Gouraud
 70
     2
 71
     2
 72
     2
 73
     1
 90
        2
 40
-0.6
 41
30.0
 62
     5
 63
     7
 74
     0
 91
        4
 64
     7
 65
   257
 75
     1
175
     1
 42
1.0
 92
        0
 66
     7
 43
1.0
 76
     1
 77
     6
 78
     2
 67
     7
 79
     5
170
     0
171
     0
290
     0
174
     0
 93
       13
 44
0.0
173
     0
291
     1
 45
0.0
1001
ACAD
1000
AcDbSavedByObjectVersion
1070
     0
  0
VISUALSTYLE
  5
2A0
102
{ACAD_REACTORS
330
29C
102
}
330
29C
100
AcDbVisualStyle
  2
GouraudWithEdges
 70
     3
 71
     2
 72
     2
 73
     1
 90
        2
 40
-0.6
 41
30.0
 62
     5
 63
     7
 74
     1
 91
        4
 64
     7
 65
   257
 75
     1
175
     1
 42
1.0
 92
        0
 66
   257
 43
1.0
 76
     1
 77
     6
 78
     2
 67
     7
 79
     5
170
     0
171
     0
290
     0
174
     0
 93
       13
 44
0.0
173
     0
291
     1
 45
0.0
1001
ACAD
1000
AcDbSavedByObjectVersion
1070
     0
  0
VISUALSTYLE
  5
2AA
102
{ACAD_REACTORS
330
29C
102
}
330
29C
100
AcDbVisualStyle
  2
Linepattern
 70
    14
 71
     2
 72
     2
 73
     0
 90
        0
 40
-0.6
 41
-30.0
 62
     5
 63
     7
 74
     1
 91
        4
 64
     7
 65
   257
 75
     7
175
     7
 42
1.0
 92
        8
 66
     7
 43
1.0
 76
     1
 77
     6
 78
     2
 67
     7
 79
     5
170
     0
171
     0
290
     0
174
     0
 93
        1
 44
0.0
173
     0
291
     1
 45
0.0
1001
ACAD
1000
AcDbSavedByObjectVersion
1070
     0
  0
VISUALSTYLE
  5
2A6
102
{ACAD_REACTORS
330
29C
102
}
330
29C
100
AcDbVisualStyle
  2
Realistic
 70
     8
 71
     2
 72
     2
 73
     0
 90
        0
 40
-0.6
 41
-30.0
 62
     5
 63
     7
 74
     1
 91
        0
 64
     7
 65
   257
 75
     1
175
     1
 42
1.0
 92
        8
 66
     8
 43
1.0
 76
     1
 77
     6
 78
     2
 67
     7
 79
     5
170
     0
171
     0
290
     0
174
     0
 93
       13
 44
0.0
173
     0
291
     0
 45
0.0
1001
ACAD
1000
AcDbSavedByObjectVersion
1070
     0
  0
VISUALSTYLE
  5
2A9
102
{ACAD_REACTORS
330
29C
102
}
330
29C
100
AcDbVisualStyle
  2
Thicken
 70
    13
 71
     2
 72
     2
 73
     0
 90
        0
 40
-0.6
 41
-30.0
 62
     5
 63
     7
 74
     1
 91
        4
 64
     7
 65
   257
 75
     1
175
     1
 42
1.0
 92
       12
 66
     7
 43
1.0
 76
     1
 77
     6
 78
     2
 67
     7
 79
     5
170
     0
171
     0
290
     0
174
     0
 93
        1
 44
0.0
173
     0
291
     1
 45
0.0
1001
ACAD
1000
AcDbSavedByObjectVersion
1070
     0
  0
DICTIONARYVAR
  5
26F
102
{ACAD_REACTORS
330
D0
102
}
330
D0
100
DictionaryVariables
280
     0
  1
STANDARD
  0
DICTIONARYVAR
  5
D1
102
{ACAD_REACTORS
330
D0
102
}
330
D0
100
DictionaryVariables
280
     0
  1
1
  0
DICTIONARYVAR
  5
652
102
{ACAD_REACTORS
330
D0
102
}
330
D0
100
DictionaryVariables
280
     0
  1
0
  0
DICTIONARYVAR
  5
651
102
{ACAD_REACTORS
330
D0
102
}
330
D0
100
DictionaryVariables
280
     0
  1
127
  0
XRECORD
  5
259
102
{ACAD_REACTORS
330
230
102
}
330
230
100
AcDbXrecord
280
     1
  1
M:\Cd dwg\Finished for CD Project\Sweets CAD Standard.dws
  0
XRECORD
  5
26D
102
{ACAD_REACTORS
330
26C
102
}
330
26C
100
AcDbXrecord
280
     1
330
22F
  0
DICTIONARY
  5
677
330
C9
100
AcDbDictionary
280
     1
281
     1
  3
ACAD_XREC_ROUNDTRIP
360
678
  0
DICTIONARY
  5
675
330
C8
100
AcDbDictionary
280
     1
281
     1
  3
ACAD_XREC_ROUNDTRIP
360
676
  0
DICTIONARY
  5
681
330
29A
100
AcDbDictionary
280
     1
281
     1
  3
ACAD_XREC_ROUNDTRIP
360
682
  0
DICTIONARY
  5
67F
330
299
100
AcDbDictionary
280
     1
281
     1
  3
ACAD_XREC_ROUNDTRIP
360
680
  0
DICTIONARY
  5
683
330
29B
100
AcDbDictionary
280
     1
281
     1
  3
ACAD_XREC_ROUNDTRIP
360
684
  0
DICTIONARY
  5
67D
330
25F
100
AcDbDictionary
280
     1
281
     1
  3
ACAD_XREC_ROUNDTRIP
360
67E
  0
XRECORD
  5
678
102
{ACAD_REACTORS
330
677
102
}
330
677
100
AcDbXrecord
280
     1
102
SHADEPLOT
 70
     0
102
SHADEPLOTRESLEVEL
 70
     2
102
SHADEPLOTCUSTOMDPI
 70
   300
  0
XRECORD
  5
676
102
{ACAD_REACTORS
330
675
102
}
330
675
100
AcDbXrecord
280
     1
102
SHADEPLOT
 70
     0
102
SHADEPLOTRESLEVEL
 70
     2
102
SHADEPLOTCUSTOMDPI
 70
   300
  0
XRECORD
  5
682
102
{ACAD_REACTORS
330
681
102
}
330
681
100
AcDbXrecord
280
     1
102
MATERIAL
148
0.0
149
0.0
149
0.0
 93
        0
 94
       63
282
     0
 72
     1
 77
     1
171
     1
175
     1
179
     1
273
     0
  0
XRECORD
  5
680
102
{ACAD_REACTORS
330
67F
102
}
330
67F
100
AcDbXrecord
280
     1
102
MATERIAL
148
0.0
149
0.0
149
0.0
 93
        0
 94
       63
282
     0
 72
     1
 77
     1
171
     1
175
     1
179
     1
273
     0
  0
XRECORD
  5
684
102
{ACAD_REACTORS
330
683
102
}
330
683
100
AcDbXrecord
280
     1
102
MATERIAL
148
0.0
149
0.0
149
0.0
 93
        0
 94
       63
282
     0
 72
     1
 77
     1
171
     1
175
     1
179
     1
273
     0
  0
XRECORD
  5
67E
102
{ACAD_REACTORS
330
67D
102
}
330
67D
100
AcDbXrecord
280
     1
102
ACAD_ROUNDTRIP_PRE2007_TABLESTYLE
 90
        4
 91
        0
  1

 92
        4
 93
        0
  2

 94
        4
 95
        0
  3

  0
ENDSEC
  0
EOF
