  0
SECTION
  2
HEADER
  9
$ACADVER
  1
AC1015
  9
$ACADMAINTVER
 70
    20
  9
$DWGCODEPAGE
  3
ANSI_1252
  9
$INSBASE
 10
0.0
 20
0.0
 30
0.0
  9
$EXTMIN
 10
-0.8877196877005015
 20
-1.608678582485061
 30
-0.0015258207003583
  9
$EXTMAX
 10
3.500365432235327
 20
0.6234963677105104
 30
0.0000000349246037
  9
$LIMMIN
 10
0.0
 20
0.0
  9
$LIMMAX
 10
0.0
 20
0.0
  9
$ORTHOMODE
 70
     0
  9
$REGENMODE
 70
     1
  9
$FILLMODE
 70
     1
  9
$QTEXTMODE
 70
     0
  9
$MIRRTEXT
 70
     1
  9
$LTSCALE
 40
0.2
  9
$ATTMODE
 70
     1
  9
$TEXTSIZE
 40
0.1
  9
$TRACEWID
 40
1.0
  9
$TEXTSTYLE
  7
SWTSTEXT
  9
$CLAYER
  8
R-ANNO-DIMS
  9
$CELTYPE
  6
CONTINUOUS
  9
$CECOLOR
 62
   256
  9
$CELTSCALE
 40
1.0
  9
$DISPSILH
 70
     0
  9
$DIMSCALE
 40
1.0
  9
$DIMASZ
 40
0.125
  9
$DIMEXO
 40
0.0625
  9
$DIMDLI
 40
0.38
  9
$DIMRND
 40
0.0
  9
$DIMDLE
 40
0.0
  9
$DIMEXE
 40
0.125
  9
$DIMTP
 40
0.0
  9
$DIMTM
 40
0.0
  9
$DIMTXT
 40
0.125
  9
$DIMCEN
 40
0.04
  9
$DIMTSZ
 40
0.0
  9
$DIMTOL
 70
     0
  9
$DIMLIM
 70
     0
  9
$DIMTIH
 70
     1
  9
$DIMTOH
 70
     1
  9
$DIMSE1
 70
     0
  9
$DIMSE2
 70
     0
  9
$DIMTAD
 70
     0
  9
$DIMZIN
 70
     0
  9
$DIMBLK
  1

  9
$DIMASO
 70
     1
  9
$DIMSHO
 70
     1
  9
$DIMPOST
  1

  9
$DIMAPOST
  1

  9
$DIMALT
 70
     0
  9
$DIMALTD
 70
     2
  9
$DIMALTF
 40
25.4
  9
$DIMLFAC
 40
1.0
  9
$DIMTOFL
 70
     0
  9
$DIMTVP
 40
0.0
  9
$DIMTIX
 70
     1
  9
$DIMSOXD
 70
     0
  9
$DIMSAH
 70
     0
  9
$DIMBLK1
  1

  9
$DIMBLK2
  1

  9
$DIMSTYLE
  2
SCADMECH
  9
$DIMCLRD
 70
     0
  9
$DIMCLRE
 70
     0
  9
$DIMCLRT
 70
     0
  9
$DIMTFAC
 40
1.0
  9
$DIMGAP
 40
0.09
  9
$DIMJUST
 70
     0
  9
$DIMSD1
 70
     0
  9
$DIMSD2
 70
     0
  9
$DIMTOLJ
 70
     1
  9
$DIMTZIN
 70
     0
  9
$DIMALTZ
 70
     0
  9
$DIMALTTZ
 70
     0
  9
$DIMUPT
 70
     0
  9
$DIMDEC
 70
     4
  9
$DIMTDEC
 70
     4
  9
$DIMALTU
 70
     2
  9
$DIMALTTD
 70
     2
  9
$DIMTXSTY
  7
SWTSTEXT
  9
$DIMAUNIT
 70
     0
  9
$DIMADEC
 70
     0
  9
$DIMALTRND
 40
0.0
  9
$DIMAZIN
 70
     0
  9
$DIMDSEP
 70
    46
  9
$DIMATFIT
 70
     1
  9
$DIMFRAC
 70
     0
  9
$DIMLDRBLK
  1

  9
$DIMLUNIT
 70
     5
  9
$DIMLWD
 70
    -2
  9
$DIMLWE
 70
    -2
  9
$DIMTMOVE
 70
     0
  9
$LUNITS
 70
     2
  9
$LUPREC
 70
     4
  9
$SKETCHINC
 40
0.1
  9
$FILLETRAD
 40
0.0
  9
$AUNITS
 70
     0
  9
$AUPREC
 70
     0
  9
$MENU
  1
acad
  9
$ELEVATION
 40
0.0
  9
$PELEVATION
 40
0.0
  9
$THICKNESS
 40
0.0
  9
$LIMCHECK
 70
     0
  9
$CHAMFERA
 40
0.0
  9
$CHAMFERB
 40
0.0
  9
$CHAMFERC
 40
0.0
  9
$CHAMFERD
 40
0.0
  9
$SKPOLY
 70
     0
  9
$TDCREATE
 40
2452213.361540382
  9
$TDUCREATE
 40
2452213.653207049
  9
$TDUPDATE
 40
2454579.439199352
  9
$TDUUPDATE
 40
2454579.730866019
  9
$TDINDWG
 40
0.1034129630
  9
$TDUSRTIMER
 40
0.1034128472
  9
$USRTIMER
 70
     1
  9
$ANGBASE
 50
0.0
  9
$ANGDIR
 70
     0
  9
$PDMODE
 70
     1
  9
$PDSIZE
 40
-2.0
  9
$PLINEWID
 40
0.0
  9
$SPLFRAME
 70
     0
  9
$SPLINETYPE
 70
     6
  9
$SPLINESEGS
 70
     8
  9
$HANDSEED
  5
D68
  9
$SURFTAB1
 70
     6
  9
$SURFTAB2
 70
     6
  9
$SURFTYPE
 70
     6
  9
$SURFU
 70
     6
  9
$SURFV
 70
     6
  9
$UCSBASE
  2

  9
$UCSNAME
  2

  9
$UCSORG
 10
0.0
 20
0.0
 30
0.0
  9
$UCSXDIR
 10
1.0
 20
0.0
 30
0.0
  9
$UCSYDIR
 10
0.0
 20
1.0
 30
0.0
  9
$UCSORTHOREF
  2

  9
$UCSORTHOVIEW
 70
     0
  9
$UCSORGTOP
 10
0.0
 20
0.0
 30
0.0
  9
$UCSORGBOTTOM
 10
0.0
 20
0.0
 30
0.0
  9
$UCSORGLEFT
 10
0.0
 20
0.0
 30
0.0
  9
$UCSORGRIGHT
 10
0.0
 20
0.0
 30
0.0
  9
$UCSORGFRONT
 10
0.0
 20
0.0
 30
0.0
  9
$UCSORGBACK
 10
0.0
 20
0.0
 30
0.0
  9
$PUCSBASE
  2

  9
$PUCSNAME
  2

  9
$PUCSORG
 10
0.0
 20
0.0
 30
0.0
  9
$PUCSXDIR
 10
1.0
 20
0.0
 30
0.0
  9
$PUCSYDIR
 10
0.0
 20
1.0
 30
0.0
  9
$PUCSORTHOREF
  2

  9
$PUCSORTHOVIEW
 70
     0
  9
$PUCSORGTOP
 10
0.0
 20
0.0
 30
0.0
  9
$PUCSORGBOTTOM
 10
0.0
 20
0.0
 30
0.0
  9
$PUCSORGLEFT
 10
0.0
 20
0.0
 30
0.0
  9
$PUCSORGRIGHT
 10
0.0
 20
0.0
 30
0.0
  9
$PUCSORGFRONT
 10
0.0
 20
0.0
 30
0.0
  9
$PUCSORGBACK
 10
0.0
 20
0.0
 30
0.0
  9
$USERI1
 70
     0
  9
$USERI2
 70
     0
  9
$USERI3
 70
     0
  9
$USERI4
 70
     0
  9
$USERI5
 70
     0
  9
$USERR1
 40
0.0
  9
$USERR2
 40
0.0
  9
$USERR3
 40
0.0
  9
$USERR4
 40
0.0
  9
$USERR5
 40
0.0
  9
$WORLDVIEW
 70
     1
  9
$SHADEDGE
 70
     3
  9
$SHADEDIF
 70
    70
  9
$TILEMODE
 70
     1
  9
$MAXACTVP
 70
    16
  9
$PINSBASE
 10
0.0
 20
0.0
 30
0.0
  9
$PLIMCHECK
 70
     0
  9
$PEXTMIN
 10
1.07500002421732
 20
0.8249999641433474
 30
0.0
  9
$PEXTMAX
 10
9.675000217955881
 20
7.424999677290128
 30
0.0
  9
$PLIMMIN
 10
-0.1249995194082185
 20
-0.1249999981226883
  9
$PLIMMAX
 10
10.87500024029589
 20
8.37499976158142
  9
$UNITMODE
 70
     0
  9
$VISRETAIN
 70
     0
  9
$PLINEGEN
 70
     1
  9
$PSLTSCALE
 70
     0
  9
$TREEDEPTH
 70
  3020
  9
$CMLSTYLE
  2
STANDARD
  9
$CMLJUST
 70
     0
  9
$CMLSCALE
 40
1.0
  9
$PROXYGRAPHICS
 70
     0
  9
$MEASUREMENT
 70
     0
  9
$CELWEIGHT
370
    -1
  9
$ENDCAPS
280
     0
  9
$JOINSTYLE
280
     0
  9
$LWDISPLAY
290
     0
  9
$INSUNITS
 70
     0
  9
$HYPERLINKBASE
  1

  9
$STYLESHEET
  1
monochrome.ctb
  9
$XEDIT
290
     1
  9
$CEPSNTYPE
380
     0
  9
$PSTYLEMODE
290
     1
  9
$FINGERPRINTGUID
  2
{D8FA5890-C65F-426E-8F3D-AD5C3B08D6C8}
  9
$VERSIONGUID
  2
{F79BA82C-6875-4132-9938-A970E4A9705B}
  9
$EXTNAMES
290
     1
  9
$PSVPSCALE
 40
0.0
  9
$OLESTARTUP
290
     0
  0
ENDSEC
  0
SECTION
  2
CLASSES
  0
CLASS
  1
IMAGE
  2
AcDbRasterImage
  3
ISM
 90
    34943
280
     0
281
     1
  0
CLASS
  1
DICTIONARYVAR
  2
AcDbDictionaryVar
  3
ObjectDBX Classes
 90
        0
280
     0
281
     0
  0
CLASS
  1
RASTERVARIABLES
  2
AcDbRasterVariables
  3
ISM
 90
    32768
280
     0
281
     0
  0
CLASS
  1
IMAGEDEF
  2
AcDbRasterImageDef
  3
ISM
 90
    32768
280
     0
281
     0
  0
CLASS
  1
IMAGEDEF_REACTOR
  2
AcDbRasterImageDefReactor
  3
ISM
 90
    32769
280
     0
281
     0
  0
CLASS
  1
IDBUFFER
  2
AcDbIdBuffer
  3
ObjectDBX Classes
 90
    32768
280
     0
281
     0
  0
CLASS
  1
SPATIAL_FILTER
  2
AcDbSpatialFilter
  3
ObjectDBX Classes
 90
    32768
280
     0
281
     0
  0
CLASS
  1
SORTENTSTABLE
  2
AcDbSortentsTable
  3
ObjectDBX Classes
 90
        0
280
     0
281
     0
  0
CLASS
  1
LAYER_INDEX
  2
AcDbLayerIndex
  3
ObjectDBX Classes
 90
    32768
280
     0
281
     0
  0
CLASS
  1
SPATIAL_INDEX
  2
AcDbSpatialIndex
  3
ObjectDBX Classes
 90
    32768
280
     0
281
     0
  0
CLASS
  1
OBJECT_PTR
  2
CAseDLPNTableRecord
  3
ASE-LPNTableRecord
 90
    32769
280
     0
281
     0
  0
CLASS
  1
LAYOUT
  2
AcDbLayout
  3
ObjectDBX Classes
 90
        0
280
     0
281
     0
  0
CLASS
  1
PLOTSETTINGS
  2
AcDbPlotSettings
  3
ObjectDBX Classes
 90
    32768
280
     0
281
     0
  0
CLASS
  1
ACDBDICTIONARYWDFLT
  2
AcDbDictionaryWithDefault
  3
ObjectDBX Classes
 90
        0
280
     0
281
     0
  0
CLASS
  1
ACDBPLACEHOLDER
  2
AcDbPlaceHolder
  3
ObjectDBX Classes
 90
        0
280
     0
281
     0
  0
CLASS
  1
TABLESTYLE
  2
AcDbTableStyle
  3
ObjectDBX Classes
 90
     4095
280
     0
281
     0
  0
CLASS
  1
MATERIAL
  2
AcDbMaterial
  3
ObjectDBX Classes
 90
     1024
280
     0
281
     0
  0
CLASS
  1
VISUALSTYLE
  2
AcDbVisualStyle
  3
ObjectDBX Classes
 90
     4095
280
     0
281
     0
  0
ENDSEC
  0
SECTION
  2
TABLES
  0
TABLE
  2
VPORT
  5
7
102
{ACAD_XDICTIONARY
360
866
102
}
330
0
100
AcDbSymbolTable
 70
     1
  0
VPORT
  5
805
330
7
100
AcDbSymbolTableRecord
100
AcDbViewportTableRecord
  2
*Active
 70
     0
 10
0.0
 20
0.0
 11
1.0
 21
1.0
 12
0.7045752251882163
 22
-0.5474301564126765
 13
0.0
 23
0.0
 14
1.0
 24
1.0
 15
0.0
 25
0.0
 16
0.0
 26
0.0
 36
1.0
 17
0.0
 27
0.0
 37
0.0
 40
3.729896830285411
 41
1.587064676616915
 42
50.0
 43
0.0
 44
0.0
 50
0.0
 51
0.0
 71
     0
 72
   100
 73
     1
 74
     1
 75
     0
 76
     0
 77
     0
 78
     0
281
     0
 65
     1
110
0.0
120
0.0
130
0.0
111
1.0
121
0.0
131
0.0
112
0.0
122
1.0
132
0.0
 79
     0
146
0.0
  0
ENDTAB
  0
TABLE
  2
LTYPE
  5
4
330
0
100
AcDbSymbolTable
 70
     2
  0
LTYPE
  5
11
330
4
100
AcDbSymbolTableRecord
100
AcDbLinetypeTableRecord
  2
BYBLOCK
 70
     0
  3

 72
    65
 73
     0
 40
0.0
  0
LTYPE
  5
12
330
4
100
AcDbSymbolTableRecord
100
AcDbLinetypeTableRecord
  2
BYLAYER
 70
     0
  3

 72
    65
 73
     0
 40
0.0
  0
LTYPE
  5
13
330
4
100
AcDbSymbolTableRecord
100
AcDbLinetypeTableRecord
  2
CONTINUOUS
 70
     0
  3
Solid line
 72
    65
 73
     0
 40
0.0
  0
LTYPE
  5
7CD
330
4
100
AcDbSymbolTableRecord
100
AcDbLinetypeTableRecord
  2
PHANTOM
 70
     0
  3
Phantom ______  __  __  ______  __  __  ______
 72
    65
 73
     6
 40
2.5
 49
1.25
 74
     0
 49
-0.25
 74
     0
 49
0.25
 74
     0
 49
-0.25
 74
     0
 49
0.25
 74
     0
 49
-0.25
 74
     0
  0
ENDTAB
  0
TABLE
  2
LAYER
  5
2
102
{ACAD_XDICTIONARY
360
825
102
}
330
0
100
AcDbSymbolTable
 70
    12
  0
LAYER
  5
14
330
2
100
AcDbSymbolTableRecord
100
AcDbLayerTableRecord
  2
0
 70
     0
 62
     7
  6
CONTINUOUS
370
    -3
390
C5
  0
LAYER
  5
2E
330
2
100
AcDbSymbolTableRecord
100
AcDbLayerTableRecord
  2
R-SWTS-DET1
 70
     0
 62
     1
  6
CONTINUOUS
370
    -3
390
C5
  0
LAYER
  5
2F
330
2
100
AcDbSymbolTableRecord
100
AcDbLayerTableRecord
  2
R-ANNO-DIMS
 70
     0
 62
     3
  6
CONTINUOUS
370
    -3
390
C5
  0
LAYER
  5
32
330
2
100
AcDbSymbolTableRecord
100
AcDbLayerTableRecord
  2
R-ANNO-TEXT
 70
     0
 62
     6
  6
CONTINUOUS
370
    -3
390
C5
  0
LAYER
  5
37
330
2
100
AcDbSymbolTableRecord
100
AcDbLayerTableRecord
  2
R-SWTS-DET2
 70
     0
 62
     4
  6
CONTINUOUS
370
    -3
390
C5
  0
LAYER
  5
D8
330
2
100
AcDbSymbolTableRecord
100
AcDbLayerTableRecord
  2
Defpoints
 70
     0
 62
     7
  6
CONTINUOUS
290
     0
370
    -3
390
C5
  0
LAYER
  5
6A3
330
2
100
AcDbSymbolTableRecord
100
AcDbLayerTableRecord
  2
R-SWTS-PAT3
 70
     0
 62
     4
  6
CONTINUOUS
370
    -3
390
C5
  0
LAYER
  5
6A4
330
2
100
AcDbSymbolTableRecord
100
AcDbLayerTableRecord
  2
R-SWTS-PAT2
 70
     0
 62
     1
  6
CONTINUOUS
370
    -3
390
C5
  0
LAYER
  5
6A5
330
2
100
AcDbSymbolTableRecord
100
AcDbLayerTableRecord
  2
R-SWTS-PAT1
 70
     0
 62
     5
  6
PHANTOM
370
    -3
390
C5
  0
LAYER
  5
6A6
330
2
100
AcDbSymbolTableRecord
100
AcDbLayerTableRecord
  2
R-SWTS-DET3
 70
     0
 62
     5
  6
CONTINUOUS
370
    -3
390
C5
  0
LAYER
  5
6A7
330
2
100
AcDbSymbolTableRecord
100
AcDbLayerTableRecord
  2
R-SWTS-OTLN
 70
     0
 62
     2
  6
CONTINUOUS
370
    -3
390
C5
  0
LAYER
  5
822
330
2
100
AcDbSymbolTableRecord
100
AcDbLayerTableRecord
  2
Part
 70
     0
 62
     7
  6
CONTINUOUS
370
    -3
390
C5
  0
ENDTAB
  0
TABLE
  2
STYLE
  5
3
330
0
100
AcDbSymbolTable
 70
     3
  0
STYLE
  5
17
330
3
100
AcDbSymbolTableRecord
100
AcDbTextStyleTableRecord
  2
STANDARD
 70
     0
 40
0.0
 41
1.0
 50
0.0
 71
     0
 42
0.0
  3
txt
  4

  0
STYLE
  5
678
330
3
100
AcDbSymbolTableRecord
100
AcDbTextStyleTableRecord
  2
SWTSTEXT
 70
     0
 40
0.125
 41
1.0
 50
0.0
 71
     0
 42
0.1
  3
simplex.shx
  4

  0
ENDTAB
  0
TABLE
  2
VIEW
  5
5
330
0
100
AcDbSymbolTable
 70
     0
  0
ENDTAB
  0
TABLE
  2
UCS
  5
6
330
0
100
AcDbSymbolTable
 70
     0
  0
ENDTAB
  0
TABLE
  2
APPID
  5
8
330
0
100
AcDbSymbolTable
 70
     3
  0
APPID
  5
16
330
8
100
AcDbSymbolTableRecord
100
AcDbRegAppTableRecord
  2
ACAD
 70
     0
  0
APPID
  5
529
330
8
100
AcDbSymbolTableRecord
100
AcDbRegAppTableRecord
  2
DCO15
 70
     0
  0
APPID
  5
824
330
8
100
AcDbSymbolTableRecord
100
AcDbRegAppTableRecord
  2
ACAD_PSEXT
 70
     0
  0
ENDTAB
  0
TABLE
  2
DIMSTYLE
  5
9
330
0
100
AcDbSymbolTable
 70
     3
100
AcDbDimStyleTable
 71
     1
340
18
  0
DIMSTYLE
105
18
102
{ACAD_REACTORS
330
648
330
624
330
5F8
330
10A
102
}
330
9
100
AcDbSymbolTableRecord
100
AcDbDimStyleTableRecord
  2
SCADMECH
 70
     0
 41
0.125
 44
0.125
140
0.125
141
0.04
174
     1
277
     5
289
     1
340
678
  0
DIMSTYLE
105
823
330
9
100
AcDbSymbolTableRecord
100
AcDbDimStyleTableRecord
  2
Standard
 70
     0
 40
0.1
 41
0.125
 44
0.125
140
0.125
141
0.0
271
     3
272
     3
340
17
  0
ENDTAB
  0
TABLE
  2
BLOCK_RECORD
  5
1
330
0
100
AcDbSymbolTable
 70
    10
  0
BLOCK_RECORD
  5
A
102
{ACAD_XDICTIONARY
360
8FF
102
}
330
1
100
AcDbSymbolTableRecord
100
AcDbBlockTableRecord
  2
*MODEL_SPACE
340
C8
  0
BLOCK_RECORD
  5
B
330
1
100
AcDbSymbolTableRecord
100
AcDbBlockTableRecord
  2
*PAPER_SPACE
340
C9
  0
BLOCK_RECORD
  5
537
330
1
100
AcDbSymbolTableRecord
100
AcDbBlockTableRecord
  2
4x05FlatheadSMS - Phillips
340
0
102
{BLKREFS
331
5B9
102
}
1001
ACAD
1000
DesignCenter Data
1002
{
1070
     1
1070
     1
1002
}
  0
BLOCK_RECORD
  5
5C7
330
1
100
AcDbSymbolTableRecord
100
AcDbBlockTableRecord
  2
P Seal
340
0
  0
BLOCK_RECORD
  5
5F9
330
1
100
AcDbSymbolTableRecord
100
AcDbBlockTableRecord
  2
*D2
340
0
  0
BLOCK_RECORD
  5
625
330
1
100
AcDbSymbolTableRecord
100
AcDbBlockTableRecord
  2
*D3
340
0
  0
BLOCK_RECORD
  5
649
330
1
100
AcDbSymbolTableRecord
100
AcDbBlockTableRecord
  2
*D4
340
0
  0
BLOCK_RECORD
  5
6EF
330
1
100
AcDbSymbolTableRecord
100
AcDbBlockTableRecord
  2
Logo
340
0
  0
BLOCK_RECORD
  5
897
102
{ACAD_XDICTIONARY
360
898
102
}
330
1
100
AcDbSymbolTableRecord
100
AcDbBlockTableRecord
  2
P2
340
0
102
{BLKREFS
331
8D5
102
}
  0
BLOCK_RECORD
  5
9BC
102
{ACAD_XDICTIONARY
360
9BD
102
}
330
1
100
AcDbSymbolTableRecord
100
AcDbBlockTableRecord
  2
PEMKO_ASSA LOGO
340
0
102
{BLKREFS
331
D10
102
}
1001
ACAD
1000
DesignCenter Data
1002
{
1070
     1
1070
     1
1002
}
  0
BLOCK_RECORD
  5
D0F
330
1
100
AcDbSymbolTableRecord
100
AcDbBlockTableRecord
  2
ASSA LOGO
340
0
102
{BLKREFS
331
D13
102
}
  0
ENDTAB
  0
ENDSEC
  0
SECTION
  2
BLOCKS
  0
BLOCK
  5
D
330
A
100
AcDbEntity
  8
0
100
AcDbBlockBegin
  2
*MODEL_SPACE
 70
     0
 10
0.0
 20
0.0
 30
0.0
  3
*MODEL_SPACE
  1

  0
ENDBLK
  5
E
330
A
100
AcDbEntity
  8
0
100
AcDbBlockEnd
  0
BLOCK
  5
F
330
B
100
AcDbEntity
 67
     1
  8
0
100
AcDbBlockBegin
  2
*PAPER_SPACE
 70
     0
 10
0.0
 20
0.0
 30
0.0
  3
*PAPER_SPACE
  1

  0
ENDBLK
  5
10
330
B
100
AcDbEntity
 67
     1
  8
0
100
AcDbBlockEnd
  0
BLOCK
  5
5A6
330
537
100
AcDbEntity
  8
0
100
AcDbBlockBegin
  2
4x05FlatheadSMS - Phillips
 70
     0
 10
0.0
 20
0.0
 30
0.0
  3
4x05FlatheadSMS - Phillips
  1

  0
LINE
  5
538
330
537
100
AcDbEntity
  8
0
100
AcDbLine
 10
-0.2925362667355502
 20
0.0559999999999992
 30
0.0
 11
-0.3000418202350135
 21
0.0430000000000019
 31
0.0
  0
LINE
  5
539
330
537
100
AcDbEntity
  8
0
100
AcDbLine
 10
-0.2792084869016813
 20
-0.0429999999999993
 30
0.0
 11
-0.3048640465694161
 21
-0.0430000000000002
 31
0.0
  0
LINE
  5
53A
330
537
100
AcDbEntity
  8
0
100
AcDbLine
 10
-0.3000418202350135
 20
0.0430000000000019
 30
0.0
 11
-0.2792084869016795
 21
-0.0430000000000019
 31
0.0
  0
LINE
  5
53B
330
537
100
AcDbEntity
  8
0
100
AcDbLine
 10
-0.416536266735549
 20
0.0507055966928345
 30
0.0
 11
-0.4105757273919446
 21
0.0403816397092021
 31
0.0
  0
LINE
  5
53C
330
537
100
AcDbEntity
  8
0
100
AcDbLine
 10
-0.4387606778739004
 20
-0.0287070509647629
 30
0.0
 11
-0.4054884057590061
 21
-0.0424888773257202
 31
0.0
  0
LINE
  5
53D
330
537
100
AcDbEntity
  8
0
100
AcDbLine
 10
-0.4275580708918155
 20
0.0333473227106778
 30
0.0
 11
-0.4054884057590061
 21
-0.0424888773257202
 31
0.0
  0
LINE
  5
53E
330
537
100
AcDbEntity
  8
0
100
AcDbLine
 10
-0.3966877554459591
 20
-0.0559999999999992
 30
0.0
 11
-0.416536266735549
 21
0.0507055966928345
 31
0.0
  0
LINE
  5
53F
330
537
100
AcDbEntity
  8
0
100
AcDbLine
 10
-0.4175362667355503
 20
0.0507055966928345
 30
0.0
 11
-0.3976877554459621
 21
-0.0559999999999992
 31
0.0
  0
LINE
  5
540
330
537
100
AcDbEntity
  8
0
100
AcDbLine
 10
-0.4522423940586107
 20
0.0231227412769899
 30
0.0
 11
-0.4275580708918172
 21
0.0333473227106769
 31
0.0
  0
LINE
  5
541
330
537
100
AcDbEntity
  8
0
100
AcDbLine
 10
-0.4582029334022169
 20
0.0334466982606223
 30
0.0
 11
-0.4592029334022146
 21
0.0334466982606223
 31
0.0
  0
LINE
  5
542
330
537
100
AcDbEntity
  8
0
100
AcDbLine
 10
-0.4592029334022163
 20
0.0334466982606223
 30
0.0
 11
-0.4692247375584815
 21
0.0160884242784647
 31
0.0
  0
LINE
  5
543
330
537
100
AcDbEntity
  8
0
100
AcDbLine
 10
-0.4582029334022151
 20
0.0334466982606223
 30
0.0
 11
-0.4522423940586107
 21
0.0231227412769899
 31
0.0
  0
LINE
  5
544
330
537
100
AcDbEntity
  8
0
100
AcDbLine
 10
-0.4175362667355503
 20
0.0507055966928345
 30
0.0
 11
-0.4275580708918155
 21
0.0333473227106769
 31
0.0
  0
LINE
  5
545
330
537
100
AcDbEntity
  8
0
100
AcDbLine
 10
-0.4165362667355508
 20
0.0507055966928345
 30
0.0
 11
-0.4175362667355485
 21
0.0507055966928345
 31
0.0
  0
LINE
  5
546
330
537
100
AcDbEntity
  8
0
100
AcDbLine
 10
-0.4447212172175048
 20
-0.039031007948398
 30
0.0
 11
-0.4387606778738986
 21
-0.028707050964762
 31
0.0
  0
LINE
  5
547
330
537
100
AcDbEntity
  8
0
100
AcDbLine
 10
-0.4457212172175061
 20
-0.039031007948398
 30
0.0
 11
-0.4557430213737695
 21
-0.0216727339662368
 31
0.0
  0
LINE
  5
548
330
537
100
AcDbEntity
  8
0
100
AcDbLine
 10
-0.4447212172175031
 20
-0.039031007948398
 30
0.0
 11
-0.4457212172175061
 21
-0.039031007948398
 31
0.0
  0
ARC
  5
549
330
537
100
AcDbEntity
  8
0
100
AcDbCircle
 10
-0.4950000000000001
 20
0.0
 30
0.0
 40
0.005
100
AcDbArc
 50
112.499999999998
 51
247.500000000002
  0
LINE
  5
54A
330
537
100
AcDbEntity
  8
0
100
AcDbLine
 10
-0.4969134171618253
 20
-0.0046193976625561
 30
0.0
 11
-0.4557430213737677
 21
-0.0216727339662395
 31
0.0
  0
LINE
  5
54B
330
537
100
AcDbEntity
  8
0
100
AcDbLine
 10
-0.4969134171618253
 20
0.0046193976625561
 30
0.0
 11
-0.4692247375584815
 21
0.0160884242784647
 31
0.0
  0
LINE
  5
54C
330
537
100
AcDbEntity
  8
0
100
AcDbLine
 10
-0.4387606778738986
 20
-0.028707050964762
 30
0.0
 11
-0.4522423940586107
 21
0.0231227412769899
 31
0.0
  0
LINE
  5
54D
330
537
100
AcDbEntity
  8
0
100
AcDbLine
 10
-0.4692247375584815
 20
0.0160884242784647
 30
0.0
 11
-0.4557430213737677
 21
-0.0216727339662386
 31
0.0
  0
LINE
  5
54E
330
537
100
AcDbEntity
  8
0
100
AcDbLine
 10
-0.4592029334022163
 20
0.0334466982606223
 30
0.0
 11
-0.4457212172175025
 21
-0.039031007948398
 31
0.0
  0
LINE
  5
54F
330
537
100
AcDbEntity
  8
0
100
AcDbLine
 10
-0.4447212172175031
 20
-0.039031007948398
 30
0.0
 11
-0.4582029334022151
 21
0.0334466982606223
 31
0.0
  0
LINE
  5
550
330
537
100
AcDbEntity
  8
0
100
AcDbLine
 10
-0.3332029334022168
 20
0.0559999999999992
 30
0.0
 11
-0.3256973799027518
 21
0.0430000000000019
 31
0.0
  0
LINE
  5
551
330
537
100
AcDbEntity
  8
0
100
AcDbLine
 10
-0.3342029334022181
 20
0.0559999999999992
 30
0.0
 11
-0.3417084869016813
 21
0.0430000000000019
 31
0.0
  0
LINE
  5
552
330
537
100
AcDbEntity
  8
0
100
AcDbLine
 10
-0.3417084869016813
 20
0.0430000000000028
 30
0.0
 11
-0.3673640465694161
 21
0.0430000000000019
 31
0.0
  0
LINE
  5
553
330
537
100
AcDbEntity
  8
0
100
AcDbLine
 10
-0.3000418202350135
 20
0.0430000000000019
 30
0.0
 11
-0.3256973799027518
 21
0.0430000000000028
 31
0.0
  0
LINE
  5
554
330
537
100
AcDbEntity
  8
0
100
AcDbLine
 10
-0.3342029334022181
 20
0.0559999999999992
 30
0.0
 11
-0.3332029334022168
 21
0.0559999999999992
 31
0.0
  0
LINE
  5
555
330
537
100
AcDbEntity
  8
0
100
AcDbLine
 10
-0.4105757273919429
 20
0.040381639709203
 30
0.0
 11
-0.4042544464667186
 21
0.043000000000001
 31
0.0
  0
LINE
  5
556
330
537
100
AcDbEntity
  8
0
100
AcDbLine
 10
-0.3833751535683456
 20
0.0430000000000019
 30
0.0
 11
-0.4042544464667186
 21
0.043000000000001
 31
0.0
  0
LINE
  5
557
330
537
100
AcDbEntity
  8
0
100
AcDbLine
 10
-0.3748696000688847
 20
0.0559999999999992
 30
0.0
 11
-0.3758696000688824
 21
0.0559999999999992
 31
0.0
  0
LINE
  5
558
330
537
100
AcDbEntity
  8
0
100
AcDbLine
 10
-0.3758696000688841
 20
0.0559999999999992
 30
0.0
 11
-0.3833751535683474
 21
0.0430000000000019
 31
0.0
  0
LINE
  5
559
330
537
100
AcDbEntity
  8
0
100
AcDbLine
 10
-0.3748696000688829
 20
0.0559999999999992
 30
0.0
 11
-0.3673640465694179
 21
0.0430000000000019
 31
0.0
  0
LINE
  5
55A
330
537
100
AcDbEntity
  8
0
100
AcDbLine
 10
-0.354036266735549
 20
-0.0559999999999992
 30
0.0
 11
-0.3550362667355484
 21
-0.0559999999999992
 31
0.0
  0
LINE
  5
55B
330
537
100
AcDbEntity
  8
0
100
AcDbLine
 10
-0.3123696000688829
 20
-0.0559999999999992
 30
0.0
 11
-0.3133696000688824
 21
-0.0559999999999992
 31
0.0
  0
LINE
  5
55C
330
537
100
AcDbEntity
  8
0
100
AcDbLine
 10
-0.3208751535683474
 20
-0.0429999999999993
 30
0.0
 11
-0.346530713236084
 21
-0.0429999999999993
 31
0.0
  0
LINE
  5
55D
330
537
100
AcDbEntity
  8
0
100
AcDbLine
 10
-0.3550362667355502
 20
-0.0559999999999992
 30
0.0
 11
-0.3625418202350135
 21
-0.0430000000000019
 31
0.0
  0
LINE
  5
55E
330
537
100
AcDbEntity
  8
0
100
AcDbLine
 10
-0.354036266735549
 20
-0.0559999999999992
 30
0.0
 11
-0.346530713236084
 21
-0.0430000000000019
 31
0.0
  0
LINE
  5
55F
330
537
100
AcDbEntity
  8
0
100
AcDbLine
 10
-0.3123696000688829
 20
-0.0559999999999992
 30
0.0
 11
-0.3048640465694179
 21
-0.0430000000000019
 31
0.0
  0
LINE
  5
560
330
537
100
AcDbEntity
  8
0
100
AcDbLine
 10
-0.3133696000688841
 20
-0.0559999999999992
 30
0.0
 11
-0.3208751535683474
 21
-0.0430000000000019
 31
0.0
  0
LINE
  5
561
330
537
100
AcDbEntity
  8
0
100
AcDbLine
 10
-0.3966877554459573
 20
-0.0559999999999992
 30
0.0
 11
-0.3976877554459603
 21
-0.0559999999999992
 31
0.0
  0
LINE
  5
562
330
537
100
AcDbEntity
  8
0
100
AcDbLine
 10
-0.3976877554459603
 20
-0.0559999999999992
 30
0.0
 11
-0.4054884057590096
 21
-0.0424888773257175
 31
0.0
  0
LINE
  5
563
330
537
100
AcDbEntity
  8
0
100
AcDbLine
 10
-0.3966877554459591
 20
-0.0559999999999992
 30
0.0
 11
-0.3891822019464941
 21
-0.0430000000000019
 31
0.0
  0
LINE
  5
564
330
537
100
AcDbEntity
  8
0
100
AcDbLine
 10
-0.3625418202350135
 20
-0.0430000000000002
 30
0.0
 11
-0.3891822019464923
 21
-0.0429999999999993
 31
0.0
  0
LINE
  5
565
330
537
100
AcDbEntity
  8
0
100
AcDbLine
 10
-0.3891822019464923
 20
-0.0429999999999993
 30
0.0
 11
-0.4105757273919446
 21
0.0403816397092021
 31
0.0
  0
LINE
  5
566
330
537
100
AcDbEntity
  8
0
100
AcDbLine
 10
-0.3758696000688841
 20
0.0559999999999992
 30
0.0
 11
-0.3550362667355502
 21
-0.0559999999999992
 31
0.0
  0
LINE
  5
567
330
537
100
AcDbEntity
  8
0
100
AcDbLine
 10
-0.354036266735549
 20
-0.0559999999999992
 30
0.0
 11
-0.3748696000688829
 21
0.0559999999999992
 31
0.0
  0
LINE
  5
568
330
537
100
AcDbEntity
  8
0
100
AcDbLine
 10
-0.3833751535683474
 20
0.0430000000000019
 30
0.0
 11
-0.3625418202350135
 21
-0.0430000000000019
 31
0.0
  0
LINE
  5
569
330
537
100
AcDbEntity
  8
0
100
AcDbLine
 10
-0.346530713236084
 20
-0.0430000000000019
 30
0.0
 11
-0.3673640465694179
 21
0.043000000000001
 31
0.0
  0
LINE
  5
56A
330
537
100
AcDbEntity
  8
0
100
AcDbLine
 10
-0.3048640465694179
 20
-0.0430000000000019
 30
0.0
 11
-0.3256973799027518
 21
0.043000000000001
 31
0.0
  0
LINE
  5
56B
330
537
100
AcDbEntity
  8
0
100
AcDbLine
 10
-0.3417084869016813
 20
0.0430000000000019
 30
0.0
 11
-0.3208751535683474
 21
-0.0430000000000019
 31
0.0
  0
LINE
  5
56C
330
537
100
AcDbEntity
  8
0
100
AcDbLine
 10
-0.3123696000688829
 20
-0.0559999999999992
 30
0.0
 11
-0.3332029334022168
 21
0.0559999999999992
 31
0.0
  0
LINE
  5
56D
330
537
100
AcDbEntity
  8
0
100
AcDbLine
 10
-0.3342029334022181
 20
0.0559999999999992
 30
0.0
 11
-0.3133696000688841
 21
-0.0559999999999992
 31
0.0
  0
LINE
  5
56E
330
537
100
AcDbEntity
  8
0
100
AcDbLine
 10
0.0
 20
0.1124999999999998
 30
0.0
 11
-0.0670000000000002
 21
0.0560000000000001
 31
0.0
  0
LINE
  5
56F
330
537
100
AcDbEntity
  8
0
100
AcDbLine
 10
0.0
 20
-0.1124999999999998
 30
0.0
 11
-0.0670000000000002
 21
-0.0560000000000001
 31
0.0
  0
LINE
  5
570
330
537
100
AcDbEntity
  8
0
100
AcDbLine
 10
-0.1750418202350152
 20
0.043000000000001
 30
0.0
 11
-0.2006973799027518
 21
0.0430000000000019
 31
0.0
  0
LINE
  5
571
330
537
100
AcDbEntity
  8
0
100
AcDbLine
 10
-0.1542084869016831
 20
-0.0429999999999984
 30
0.0
 11
-0.1798640465694161
 21
-0.0429999999999984
 31
0.0
  0
LINE
  5
572
330
537
100
AcDbEntity
  8
0
100
AcDbLine
 10
-0.2498696000688829
 20
0.056000000000001
 30
0.0
 11
-0.2508696000688806
 21
0.056000000000001
 31
0.0
  0
LINE
  5
573
330
537
100
AcDbEntity
  8
0
100
AcDbLine
 10
-0.2167084869016813
 20
0.0430000000000019
 30
0.0
 11
-0.2423640465694161
 21
0.0430000000000028
 31
0.0
  0
LINE
  5
574
330
537
100
AcDbEntity
  8
0
100
AcDbLine
 10
-0.2082029334022151
 20
0.0560000000000001
 30
0.0
 11
-0.2092029334022181
 21
0.0560000000000001
 31
0.0
  0
LINE
  5
575
330
537
100
AcDbEntity
  8
0
100
AcDbLine
 10
-0.2092029334022181
 20
0.0559999999999992
 30
0.0
 11
-0.2167084869016813
 21
0.0430000000000019
 31
0.0
  0
LINE
  5
576
330
537
100
AcDbEntity
  8
0
100
AcDbLine
 10
-0.2082029334022168
 20
0.0559999999999992
 30
0.0
 11
-0.2006973799027518
 21
0.0430000000000019
 31
0.0
  0
LINE
  5
577
330
537
100
AcDbEntity
  8
0
100
AcDbLine
 10
-0.2498696000688829
 20
0.0559999999999992
 30
0.0
 11
-0.2423640465694179
 21
0.0430000000000019
 31
0.0
  0
LINE
  5
578
330
537
100
AcDbEntity
  8
0
100
AcDbLine
 10
-0.1873696000688829
 20
-0.0559999999999992
 30
0.0
 11
-0.1798640465694179
 21
-0.0430000000000019
 31
0.0
  0
LINE
  5
579
330
537
100
AcDbEntity
  8
0
100
AcDbLine
 10
-0.1873696000688847
 20
-0.0559999999999992
 30
0.0
 11
-0.1883696000688824
 21
-0.0559999999999983
 31
0.0
  0
LINE
  5
57A
330
537
100
AcDbEntity
  8
0
100
AcDbLine
 10
-0.1958751535683474
 20
-0.0429999999999993
 30
0.0
 11
-0.2215307132360822
 21
-0.0429999999999993
 31
0.0
  0
LINE
  5
57B
330
537
100
AcDbEntity
  8
0
100
AcDbLine
 10
-0.229036266735549
 20
-0.0559999999999983
 30
0.0
 11
-0.2300362667355502
 21
-0.0559999999999992
 31
0.0
  0
LINE
  5
57C
330
537
100
AcDbEntity
  8
0
100
AcDbLine
 10
-0.1883696000688841
 20
-0.0559999999999992
 30
0.0
 11
-0.1958751535683474
 21
-0.0430000000000019
 31
0.0
  0
LINE
  5
57D
330
537
100
AcDbEntity
  8
0
100
AcDbLine
 10
-0.2300362667355502
 20
-0.0559999999999992
 30
0.0
 11
-0.2375418202350135
 21
-0.0430000000000019
 31
0.0
  0
LINE
  5
57E
330
537
100
AcDbEntity
  8
0
100
AcDbLine
 10
-0.229036266735549
 20
-0.0559999999999992
 30
0.0
 11
-0.221530713236084
 21
-0.0430000000000019
 31
0.0
  0
LINE
  5
57F
330
537
100
AcDbEntity
  8
0
100
AcDbLine
 10
-0.1798640465694179
 20
-0.0430000000000019
 30
0.0
 11
-0.2006973799027518
 21
0.043000000000001
 31
0.0
  0
LINE
  5
580
330
537
100
AcDbEntity
  8
0
100
AcDbLine
 10
-0.2092029334022181
 20
0.0559999999999992
 30
0.0
 11
-0.1883696000688841
 21
-0.0559999999999992
 31
0.0
  0
LINE
  5
581
330
537
100
AcDbEntity
  8
0
100
AcDbLine
 10
-0.1873696000688829
 20
-0.0559999999999992
 30
0.0
 11
-0.2082029334022168
 21
0.0559999999999992
 31
0.0
  0
LINE
  5
582
330
537
100
AcDbEntity
  8
0
100
AcDbLine
 10
-0.2167084869016813
 20
0.0430000000000019
 30
0.0
 11
-0.1958751535683474
 21
-0.0430000000000019
 31
0.0
  0
LINE
  5
583
330
537
100
AcDbEntity
  8
0
100
AcDbLine
 10
-0.2508696000688841
 20
0.0559999999999992
 30
0.0
 11
-0.2300362667355502
 21
-0.0559999999999992
 31
0.0
  0
LINE
  5
584
330
537
100
AcDbEntity
  8
0
100
AcDbLine
 10
-0.229036266735549
 20
-0.0559999999999992
 30
0.0
 11
-0.2498696000688829
 21
0.0559999999999992
 31
0.0
  0
LINE
  5
585
330
537
100
AcDbEntity
  8
0
100
AcDbLine
 10
-0.221530713236084
 20
-0.0430000000000019
 30
0.0
 11
-0.2423640465694179
 21
0.043000000000001
 31
0.0
  0
LINE
  5
586
330
537
100
AcDbEntity
  8
0
100
AcDbLine
 10
-0.291536266735549
 20
0.0560000000000001
 30
0.0
 11
-0.2925362667355502
 21
0.0560000000000001
 31
0.0
  0
LINE
  5
587
330
537
100
AcDbEntity
  8
0
100
AcDbLine
 10
-0.2583751535683474
 20
0.0430000000000019
 30
0.0
 11
-0.284030713236084
 21
0.0430000000000019
 31
0.0
  0
LINE
  5
588
330
537
100
AcDbEntity
  8
0
100
AcDbLine
 10
-0.291536266735549
 20
0.0559999999999992
 30
0.0
 11
-0.284030713236084
 21
0.0430000000000019
 31
0.0
  0
LINE
  5
589
330
537
100
AcDbEntity
  8
0
100
AcDbLine
 10
-0.2707029334022133
 20
-0.0559999999999992
 30
0.0
 11
-0.2717029334022181
 21
-0.0559999999999992
 31
0.0
  0
LINE
  5
58A
330
537
100
AcDbEntity
  8
0
100
AcDbLine
 10
-0.2717029334022163
 20
-0.0559999999999992
 30
0.0
 11
-0.2792084869016795
 21
-0.0430000000000019
 31
0.0
  0
LINE
  5
58B
330
537
100
AcDbEntity
  8
0
100
AcDbLine
 10
-0.2707029334022151
 20
-0.0559999999999992
 30
0.0
 11
-0.26319737990275
 21
-0.0430000000000019
 31
0.0
  0
LINE
  5
58C
330
537
100
AcDbEntity
  8
0
100
AcDbLine
 10
-0.2925362667355502
 20
0.0559999999999992
 30
0.0
 11
-0.2717029334022163
 21
-0.0559999999999992
 31
0.0
  0
LINE
  5
58D
330
537
100
AcDbEntity
  8
0
100
AcDbLine
 10
-0.2707029334022151
 20
-0.0559999999999992
 30
0.0
 11
-0.291536266735549
 21
0.0559999999999992
 31
0.0
  0
LINE
  5
58E
330
537
100
AcDbEntity
  8
0
100
AcDbLine
 10
-0.26319737990275
 20
-0.0430000000000019
 30
0.0
 11
-0.284030713236084
 21
0.043000000000001
 31
0.0
  0
LINE
  5
58F
330
537
100
AcDbEntity
  8
0
100
AcDbLine
 10
-0.2583751535683474
 20
0.0430000000000019
 30
0.0
 11
-0.2375418202350135
 21
-0.0430000000000019
 31
0.0
  0
LINE
  5
590
330
537
100
AcDbEntity
  8
0
100
AcDbLine
 10
-0.2375418202350152
 20
-0.0429999999999993
 30
0.0
 11
-0.2631973799027465
 21
-0.0429999999999993
 31
0.0
  0
LINE
  5
591
330
537
100
AcDbEntity
  8
0
100
AcDbLine
 10
-0.2508696000688841
 20
0.0559999999999992
 30
0.0
 11
-0.2583751535683474
 21
0.0430000000000019
 31
0.0
  0
LINE
  5
592
330
537
100
AcDbEntity
  8
0
100
AcDbLine
 10
-0.067000000000002
 20
-0.0560000000000001
 30
0.0
 11
-0.1050362667355529
 21
-0.0559999999999992
 31
0.0
  0
LINE
  5
593
330
537
100
AcDbEntity
  8
0
100
AcDbLine
 10
-0.0670000000000011
 20
0.0559999999999992
 30
0.0
 11
-0.1258696000688859
 21
0.0560000000000018
 31
0.0
  0
LINE
  5
594
330
537
100
AcDbEntity
  8
0
100
AcDbLine
 10
-0.0669999999999975
 20
-0.056000000000001
 30
0.0
 11
-0.0670000000000011
 21
0.0559999999999983
 31
0.0
  0
LINE
  5
595
330
537
100
AcDbEntity
  8
0
100
AcDbLine
 10
-0.1258696000688859
 20
0.0559999999999992
 30
0.0
 11
-0.1333751535683492
 21
0.0430000000000019
 31
0.0
  0
LINE
  5
596
330
537
100
AcDbEntity
  8
0
100
AcDbLine
 10
-0.166536266735549
 20
0.0560000000000001
 30
0.0
 11
-0.1675362667355538
 21
0.0560000000000001
 31
0.0
  0
LINE
  5
597
330
537
100
AcDbEntity
  8
0
100
AcDbLine
 10
-0.167536266735552
 20
0.0559999999999992
 30
0.0
 11
-0.1750418202350152
 21
0.0430000000000019
 31
0.0
  0
LINE
  5
598
330
537
100
AcDbEntity
  8
0
100
AcDbLine
 10
-0.1665362667355508
 20
0.0559999999999992
 30
0.0
 11
-0.1590307132360857
 21
0.0430000000000019
 31
0.0
  0
LINE
  5
599
330
537
100
AcDbEntity
  8
0
100
AcDbLine
 10
-0.1333751535683492
 20
0.0430000000000019
 30
0.0
 11
-0.1590307132360857
 21
0.0430000000000019
 31
0.0
  0
LINE
  5
59A
330
537
100
AcDbEntity
  8
0
100
AcDbLine
 10
-0.112541820235017
 20
-0.0429999999999993
 30
0.0
 11
-0.1381973799027483
 21
-0.0429999999999993
 31
0.0
  0
LINE
  5
59B
330
537
100
AcDbEntity
  8
0
100
AcDbLine
 10
-0.105036266735552
 20
-0.0559999999999992
 30
0.0
 11
-0.1125418202350152
 21
-0.0430000000000019
 31
0.0
  0
LINE
  5
59C
330
537
100
AcDbEntity
  8
0
100
AcDbLine
 10
-0.1457029334022151
 20
-0.0559999999999992
 30
0.0
 11
-0.1467029334022198
 21
-0.0559999999999983
 31
0.0
  0
LINE
  5
59D
330
537
100
AcDbEntity
  8
0
100
AcDbLine
 10
-0.1467029334022181
 20
-0.0559999999999992
 30
0.0
 11
-0.1542084869016813
 21
-0.0430000000000019
 31
0.0
  0
LINE
  5
59E
330
537
100
AcDbEntity
  8
0
100
AcDbLine
 10
-0.1457029334022168
 20
-0.0559999999999992
 30
0.0
 11
-0.1381973799027518
 21
-0.0430000000000019
 31
0.0
  0
LINE
  5
59F
330
537
100
AcDbEntity
  8
0
100
AcDbLine
 10
-0.1258696000688859
 20
0.0559999999999992
 30
0.0
 11
-0.105036266735552
 21
-0.0559999999999992
 31
0.0
  0
LINE
  5
5A0
330
537
100
AcDbEntity
  8
0
100
AcDbLine
 10
-0.1333751535683492
 20
0.0430000000000019
 30
0.0
 11
-0.1125418202350152
 21
-0.0430000000000019
 31
0.0
  0
LINE
  5
5A1
330
537
100
AcDbEntity
  8
0
100
AcDbLine
 10
-0.167536266735552
 20
0.0559999999999992
 30
0.0
 11
-0.1467029334022181
 21
-0.0559999999999992
 31
0.0
  0
LINE
  5
5A2
330
537
100
AcDbEntity
  8
0
100
AcDbLine
 10
-0.1457029334022168
 20
-0.0559999999999992
 30
0.0
 11
-0.1665362667355508
 21
0.0559999999999992
 31
0.0
  0
LINE
  5
5A3
330
537
100
AcDbEntity
  8
0
100
AcDbLine
 10
-0.1750418202350152
 20
0.0430000000000019
 30
0.0
 11
-0.1542084869016813
 21
-0.0430000000000019
 31
0.0
  0
LINE
  5
5A4
330
537
100
AcDbEntity
  8
0
100
AcDbLine
 10
-0.1381973799027518
 20
-0.0430000000000019
 30
0.0
 11
-0.1590307132360857
 21
0.043000000000001
 31
0.0
  0
LINE
  5
5A5
330
537
100
AcDbEntity
  8
0
100
AcDbLine
 10
0.0
 20
0.1124999999999998
 30
0.0
 11
0.0
 21
-0.1124999999999998
 31
0.0
  0
ENDBLK
  5
5A7
330
537
100
AcDbEntity
  8
0
100
AcDbBlockEnd
  0
BLOCK
  5
5DD
330
5C7
100
AcDbEntity
  8
0
100
AcDbBlockBegin
  2
P Seal
 70
     0
 10
0.0
 20
0.0
 30
0.0
  3
P Seal
  1

  0
LINE
  5
5C8
330
5C7
100
AcDbEntity
  8
R-SWTS-DET1
  6
Continuous
100
AcDbLine
 10
-0.0162879999999999
 20
-0.0815520000000002
 30
0.0
 11
-0.1958479999999998
 21
-0.0953620000000001
 31
0.0
  0
LINE
  5
5C9
330
5C7
100
AcDbEntity
  8
R-SWTS-DET1
  6
Continuous
100
AcDbLine
 10
-0.0162879999999999
 20
-0.0965530000000001
 30
0.0
 11
-0.1860680000000001
 21
-0.1232050000000001
 31
0.0
  0
LINE
  5
5CA
330
5C7
100
AcDbEntity
  8
R-SWTS-DET1
  6
Continuous
100
AcDbLine
 10
-0.0187189999999999
 20
-0.1273240000000001
 30
0.0
 11
-0.1620789999999999
 21
-0.1727880000000001
 31
0.0
  0
LINE
  5
5CB
330
5C7
100
AcDbEntity
  8
R-SWTS-DET1
  6
Continuous
100
AcDbLine
 10
-0.0162879999999999
 20
-0.1115530000000001
 30
0.0
 11
-0.1746639999999999
 21
-0.1490970000000001
 31
0.0
  0
LINE
  5
5CC
330
5C7
100
AcDbEntity
  8
R-SWTS-DET1
  6
Continuous
100
AcDbLine
 10
0.0212129999999999
 20
-0.0659570000000001
 30
0.0
 11
-0.203603
 21
-0.0659570000000001
 31
0.0
  0
LINE
  5
5CD
330
5C7
100
AcDbEntity
  8
R-SWTS-DET1
  6
Continuous
100
AcDbLine
 10
-0.0162879999999999
 20
-0.0503620000000001
 30
0.0
 11
-0.1958479999999998
 21
-0.0365540000000001
 31
0.0
  0
LINE
  5
5CE
330
5C7
100
AcDbEntity
  8
R-SWTS-DET1
  6
Continuous
100
AcDbLine
 10
-0.0162879999999999
 20
-0.0353630000000002
 30
0.0
 11
-0.1860680000000001
 21
-0.0087100000000001
 31
0.0
  0
LINE
  5
5CF
330
5C7
100
AcDbEntity
  8
R-SWTS-DET1
  6
Continuous
100
AcDbLine
 10
-0.0162879999999999
 20
-0.0203630000000001
 30
0.0
 11
-0.1746639999999999
 21
0.0171819999999999
 31
0.0
  0
LINE
  5
5D0
330
5C7
100
AcDbEntity
  8
R-SWTS-DET1
  6
Continuous
100
AcDbLine
 10
-0.0162879999999999
 20
-0.0053620000000001
 30
0.0
 11
-0.1620789999999999
 21
0.0408739999999999
 31
0.0
  0
LINE
  5
5D1
330
5C7
100
AcDbEntity
  8
R-SWTS-DET1
  6
Continuous
100
AcDbLine
 10
0.021212
 20
-0.1273240000000001
 30
0.0
 11
-0.0187189999999999
 21
-0.1273240000000001
 31
0.0
  0
LINE
  5
5D2
330
5C7
100
AcDbEntity
  8
R-SWTS-DET1
  6
Continuous
100
AcDbLine
 10
-0.0162879999999999
 20
-0.1115530000000001
 30
0.0
 11
0.0212129999999999
 21
-0.1115530000000001
 31
0.0
  0
LINE
  5
5D3
330
5C7
100
AcDbEntity
  8
R-SWTS-DET1
  6
Continuous
100
AcDbLine
 10
-0.0162879999999999
 20
-0.0965530000000001
 30
0.0
 11
0.0212129999999999
 21
-0.0965530000000001
 31
0.0
  0
LINE
  5
5D4
330
5C7
100
AcDbEntity
  8
R-SWTS-DET1
  6
Continuous
100
AcDbLine
 10
-0.0162879999999999
 20
-0.0815520000000002
 30
0.0
 11
0.0212129999999999
 21
-0.0815520000000002
 31
0.0
  0
LINE
  5
5D5
330
5C7
100
AcDbEntity
  8
R-SWTS-DET1
  6
Continuous
100
AcDbLine
 10
-0.0162879999999999
 20
-0.0503620000000001
 30
0.0
 11
0.0212129999999999
 21
-0.0503620000000001
 31
0.0
  0
LINE
  5
5D6
330
5C7
100
AcDbEntity
  8
R-SWTS-DET1
  6
Continuous
100
AcDbLine
 10
-0.0162879999999999
 20
-0.0353630000000002
 30
0.0
 11
0.0212129999999999
 21
-0.0353630000000002
 31
0.0
  0
LINE
  5
5D7
330
5C7
100
AcDbEntity
  8
R-SWTS-DET1
  6
Continuous
100
AcDbLine
 10
-0.0162879999999999
 20
-0.0203630000000001
 30
0.0
 11
0.0212129999999999
 21
-0.0203630000000001
 31
0.0
  0
LINE
  5
5D8
330
5C7
100
AcDbEntity
  8
R-SWTS-DET1
  6
Continuous
100
AcDbLine
 10
-0.0162879999999999
 20
-0.0053620000000001
 30
0.0
 11
0.0212129999999999
 21
-0.0053620000000001
 31
0.0
  0
LINE
  5
5D9
330
5C7
100
AcDbEntity
  8
R-SWTS-DET1
  6
Continuous
100
AcDbLine
 10
0.0212129999999999
 20
0.0528329999999999
 30
0.0
 11
0.06447
 21
0.0528329999999999
 31
0.0
  0
LINE
  5
5DA
330
5C7
100
AcDbEntity
  8
R-SWTS-DET1
  6
Continuous
100
AcDbLine
 10
0.06447
 20
0.0528329999999999
 30
0.0
 11
0.06447
 21
-0.1933810000000001
 31
0.0
  0
LINE
  5
5DB
330
5C7
100
AcDbEntity
  8
R-SWTS-DET1
  6
Continuous
100
AcDbLine
 10
0.0212129999999999
 20
-0.1933810000000001
 30
0.0
 11
0.0212129999999999
 21
0.0528329999999999
 31
0.0
  0
LINE
  5
5DC
330
5C7
100
AcDbEntity
  8
R-SWTS-DET1
  6
Continuous
100
AcDbLine
 10
0.0212129999999999
 20
-0.1933810000000001
 30
0.0
 11
0.06447
 21
-0.1933810000000001
 31
0.0
  0
ENDBLK
  5
5DE
330
5C7
100
AcDbEntity
  8
0
100
AcDbBlockEnd
  0
BLOCK
  5
604
330
5F9
100
AcDbEntity
  8
0
100
AcDbBlockBegin
  2
*D2
 70
     1
 10
0.0
 20
0.0
 30
0.0
  3
*D2
  1

  0
LINE
  5
7CE
330
5F9
100
AcDbEntity
  8
R-ANNO-DIMS
  6
Continuous
 62
     0
370
    -2
100
AcDbLine
 10
0.0468980000000018
 20
0.0774999999999997
 30
0.0
 11
0.0468980000000018
 21
0.6024999999999991
 31
0.0
  0
LINE
  5
7CF
330
5F9
100
AcDbEntity
  8
R-ANNO-DIMS
  6
Continuous
 62
     0
370
    -2
100
AcDbLine
 10
0.4468980000000022
 20
0.0774999999999997
 30
0.0
 11
0.4468980000000022
 21
0.6024999999999991
 31
0.0
  0
LINE
  5
7D0
330
5F9
100
AcDbEntity
  8
R-ANNO-DIMS
  6
Continuous
 62
     0
370
    -2
100
AcDbLine
 10
-0.0781019999999982
 20
0.4774999999999991
 30
0.0
 11
-0.2031019999999982
 21
0.4774999999999991
 31
0.0
  0
LINE
  5
7D1
330
5F9
100
AcDbEntity
  8
R-ANNO-DIMS
  6
Continuous
 62
     0
370
    -2
100
AcDbLine
 10
0.5718980000000023
 20
0.4774999999999991
 30
0.0
 11
0.6968980000000023
 21
0.4774999999999991
 31
0.0
  0
SOLID
  5
7D2
330
5F9
100
AcDbEntity
  8
R-ANNO-DIMS
  6
Continuous
 62
     0
100
AcDbTrace
 10
-0.0781019999999982
 20
0.4983333333333324
 30
0.0
 11
-0.0781019999999982
 21
0.4566666666666658
 31
0.0
 12
0.0468980000000018
 22
0.4774999999999991
 32
0.0
 13
0.0468980000000018
 23
0.4774999999999991
 33
0.0
  0
SOLID
  5
7D3
330
5F9
100
AcDbEntity
  8
R-ANNO-DIMS
  6
Continuous
 62
     0
100
AcDbTrace
 10
0.5718980000000023
 20
0.4983333333333324
 30
0.0
 11
0.5718980000000023
 21
0.4566666666666658
 31
0.0
 12
0.4468980000000022
 22
0.4774999999999991
 32
0.0
 13
0.4468980000000022
 23
0.4774999999999991
 33
0.0
  0
MTEXT
  5
7D4
330
5F9
100
AcDbEntity
  8
R-ANNO-DIMS
  6
Continuous
 62
     0
100
AcDbMText
 10
0.246898000000002
 20
0.4774999999999991
 30
0.0
 40
0.125
 41
0.0
 71
     5
 72
     1
  1
\A1;{\H1.000000x;\S13/32;}
  7
SWTSTEXT
 73
     1
 44
1.0
1001
ACAD
1000
MTEXTBEGIN
1070
    73
1070
     1
1070
    44
1040
1.0
1070
    74
1070
     0
1000
MTEXTEND
  0
POINT
  5
7D5
330
5F9
100
AcDbEntity
  8
Defpoints
  6
Continuous
 62
     0
100
AcDbPoint
 10
0.0468980000000018
 20
0.0149999999999997
 30
0.0
  0
POINT
  5
7D6
330
5F9
100
AcDbEntity
  8
Defpoints
  6
Continuous
 62
     0
100
AcDbPoint
 10
0.4468980000000022
 20
0.0149999999999997
 30
0.0
  0
POINT
  5
7D7
330
5F9
100
AcDbEntity
  8
Defpoints
  6
Continuous
 62
     0
100
AcDbPoint
 10
0.4468980000000022
 20
0.4774999999999991
 30
0.0
  0
ENDBLK
  5
605
330
5F9
100
AcDbEntity
  8
0
100
AcDbBlockEnd
  0
BLOCK
  5
631
330
625
100
AcDbEntity
  8
0
100
AcDbBlockBegin
  2
*D3
 70
     1
 10
0.0
 20
0.0
 30
0.0
  3
*D3
  1

  0
LINE
  5
8D6
330
625
100
AcDbEntity
  8
R-ANNO-DIMS
  6
Continuous
 62
     0
370
    -2
100
AcDbLine
 10
0.312824399037867
 20
0.2145966805316208
 30
0.0
 11
0.8458195534366781
 21
0.2145966805316207
 31
0.0
  0
LINE
  5
8D7
330
625
100
AcDbEntity
  8
R-ANNO-DIMS
  6
Continuous
 62
     0
370
    -2
100
AcDbLine
 10
0.5093980000000022
 20
0.0149999999999997
 30
0.0
 11
0.8458195534366781
 21
0.0149999999999996
 31
0.0
  0
LINE
  5
8D8
330
625
100
AcDbEntity
  8
R-ANNO-DIMS
  6
Continuous
 62
     0
370
    -2
100
AcDbLine
 10
0.7208195534366782
 20
-0.1100000000000004
 30
0.0
 11
0.7208195534366782
 21
-0.2350000000000004
 31
0.0
  0
LINE
  5
8D9
330
625
100
AcDbEntity
  8
R-ANNO-DIMS
  6
Continuous
 62
     0
370
    -2
100
AcDbLine
 10
0.7208195534366783
 20
0.3395966805316207
 30
0.0
 11
0.7208195534366783
 21
0.4774999999999989
 31
0.0
  0
LINE
  5
8DA
330
625
100
AcDbEntity
  8
R-ANNO-DIMS
  6
Continuous
 62
     0
370
    -2
100
AcDbLine
 10
0.7208195534366783
 20
0.4774999999999989
 30
0.0
 11
0.8458195534366781
 21
0.4774999999999989
 31
0.0
  0
SOLID
  5
8DB
330
625
100
AcDbEntity
  8
R-ANNO-DIMS
  6
Continuous
 62
     0
100
AcDbTrace
 10
0.6999862201033448
 20
-0.1100000000000004
 30
0.0
 11
0.7416528867700115
 21
-0.1100000000000004
 31
0.0
 12
0.7208195534366782
 22
0.0149999999999996
 32
0.0
 13
0.7208195534366782
 23
0.0149999999999996
 33
0.0
  0
SOLID
  5
8DC
330
625
100
AcDbEntity
  8
R-ANNO-DIMS
  6
Continuous
 62
     0
100
AcDbTrace
 10
0.6999862201033449
 20
0.3395966805316207
 30
0.0
 11
0.7416528867700116
 21
0.3395966805316207
 31
0.0
 12
0.7208195534366782
 22
0.2145966805316207
 32
0.0
 13
0.7208195534366782
 23
0.2145966805316207
 33
0.0
  0
MTEXT
  5
8DD
330
625
100
AcDbEntity
  8
R-ANNO-DIMS
  6
Continuous
 62
     0
100
AcDbMText
 10
1.022129077246201
 20
0.477499999999999
 30
0.0
 40
0.125
 41
0.0
 71
     5
 72
     1
  1
\A1;{\H1.000000x;\S3/16;}
  7
SWTSTEXT
 73
     1
 44
1.0
1001
ACAD
1000
MTEXTBEGIN
1070
    73
1070
     1
1070
    44
1040
1.0
1070
    74
1070
     0
1000
MTEXTEND
  0
POINT
  5
8DE
330
625
100
AcDbEntity
  8
Defpoints
  6
Continuous
 62
     0
100
AcDbPoint
 10
0.250324399037867
 20
0.2145966805316208
 30
0.0
  0
POINT
  5
8DF
330
625
100
AcDbEntity
  8
Defpoints
  6
Continuous
 62
     0
100
AcDbPoint
 10
0.4468980000000022
 20
0.0149999999999997
 30
0.0
  0
POINT
  5
8E0
330
625
100
AcDbEntity
  8
Defpoints
  6
Continuous
 62
     0
100
AcDbPoint
 10
0.7208195534366782
 20
0.0149999999999996
 30
0.0
  0
ENDBLK
  5
632
330
625
100
AcDbEntity
  8
0
100
AcDbBlockEnd
  0
BLOCK
  5
655
330
649
100
AcDbEntity
  8
0
100
AcDbBlockBegin
  2
*D4
 70
     1
 10
0.0
 20
0.0
 30
0.0
  3
*D4
  1

  0
LINE
  5
7E3
330
649
100
AcDbEntity
  8
R-ANNO-DIMS
  6
Continuous
 62
     0
370
    -2
100
AcDbLine
 10
-0.0156019999999982
 20
0.0149999999999997
 30
0.0
 11
-0.328100694286687
 21
0.0149999999999998
 31
0.0
  0
LINE
  5
7E4
330
649
100
AcDbEntity
  8
R-ANNO-DIMS
  6
Continuous
 62
     0
370
    -2
100
AcDbLine
 10
-0.0156019999999958
 20
-0.1319999999999997
 30
0.0
 11
-0.3281006942866871
 21
-0.1319999999999996
 31
0.0
  0
LINE
  5
7E5
330
649
100
AcDbEntity
  8
R-ANNO-DIMS
  6
Continuous
 62
     0
370
    -2
100
AcDbLine
 10
-0.203100694286687
 20
0.1399999999999998
 30
0.0
 11
-0.203100694286687
 21
0.2649999999999997
 31
0.0
  0
LINE
  5
7E6
330
649
100
AcDbEntity
  8
R-ANNO-DIMS
  6
Continuous
 62
     0
370
    -2
100
AcDbLine
 10
-0.203100694286687
 20
-0.2569999999999996
 30
0.0
 11
-0.2031006942866871
 21
-0.3819999999999996
 31
0.0
  0
LINE
  5
7E7
330
649
100
AcDbEntity
  8
R-ANNO-DIMS
  6
Continuous
 62
     0
370
    -2
100
AcDbLine
 10
-0.2031006942866871
 20
-0.3819999999999996
 30
0.0
 11
-0.3281006942866871
 21
-0.3819999999999996
 31
0.0
  0
SOLID
  5
7E8
330
649
100
AcDbEntity
  8
R-ANNO-DIMS
  6
Continuous
 62
     0
100
AcDbTrace
 10
-0.2239340276200203
 20
0.1399999999999998
 30
0.0
 11
-0.1822673609533536
 21
0.1399999999999997
 31
0.0
 12
-0.203100694286687
 22
0.0149999999999998
 32
0.0
 13
-0.203100694286687
 23
0.0149999999999998
 33
0.0
  0
SOLID
  5
7E9
330
649
100
AcDbEntity
  8
R-ANNO-DIMS
  6
Continuous
 62
     0
100
AcDbTrace
 10
-0.2239340276200204
 20
-0.2569999999999996
 30
0.0
 11
-0.1822673609533537
 21
-0.2569999999999996
 31
0.0
 12
-0.203100694286687
 22
-0.1319999999999996
 32
0.0
 13
-0.203100694286687
 23
-0.1319999999999996
 33
0.0
  0
MTEXT
  5
7EA
330
649
100
AcDbEntity
  8
R-ANNO-DIMS
  6
Continuous
 62
     0
100
AcDbMText
 10
-0.5192911704771632
 20
-0.3819999999999996
 30
0.0
 40
0.125
 41
0.0
 71
     5
 72
     1
  1
\A1;{\H1.000000x;\S5/32;}
  7
SWTSTEXT
 73
     1
 44
1.0
1001
ACAD
1000
MTEXTBEGIN
1070
    73
1070
     1
1070
    44
1040
1.0
1070
    74
1070
     0
1000
MTEXTEND
  0
POINT
  5
7EB
330
649
100
AcDbEntity
  8
Defpoints
  6
Continuous
 62
     0
100
AcDbPoint
 10
0.0468980000000018
 20
0.0149999999999997
 30
0.0
  0
POINT
  5
7EC
330
649
100
AcDbEntity
  8
Defpoints
  6
Continuous
 62
     0
100
AcDbPoint
 10
0.0468980000000043
 20
-0.1319999999999997
 30
0.0
  0
POINT
  5
7ED
330
649
100
AcDbEntity
  8
Defpoints
  6
Continuous
 62
     0
100
AcDbPoint
 10
-0.203100694286687
 20
-0.1319999999999996
 30
0.0
  0
ENDBLK
  5
656
330
649
100
AcDbEntity
  8
0
100
AcDbBlockEnd
  0
BLOCK
  5
729
330
6EF
100
AcDbEntity
  8
0
100
AcDbBlockBegin
  2
Logo
 70
     0
 10
0.0
 20
0.0
 30
0.0
  3
Logo
  1

  0
ARC
  5
6F0
102
{ACAD_REACTORS
330
726
102
}
330
6EF
100
AcDbEntity
  8
R-SWTS-DET1
  6
Continuous
 62
     6
100
AcDbCircle
 10
0.0941740410091869
 20
0.0124999999999993
 30
0.0
 40
0.005
100
AcDbArc
 50
270.0
 51
7.560843176671826
  0
ARC
  5
6F1
102
{ACAD_REACTORS
330
727
102
}
330
6EF
100
AcDbEntity
  8
R-SWTS-DET2
  6
Continuous
 62
     6
100
AcDbCircle
 10
0.0941740410091869
 20
-0.0125000000000002
 30
0.0
 40
0.005
100
AcDbArc
 50
352.4391568233282
 51
90.0
  0
ARC
  5
6F2
102
{ACAD_REACTORS
330
721
102
}
330
6EF
100
AcDbEntity
  8
R-ANNO-TEXT
  6
Continuous
 62
     6
100
AcDbCircle
 10
0.0577522682445042
 20
0.0754299377741674
 30
0.0
 40
0.005
100
AcDbArc
 50
314.9999999999991
 51
52.56084317667283
  0
ARC
  5
6F3
102
{ACAD_REACTORS
330
721
102
}
330
6EF
100
AcDbEntity
  8
R-ANNO-TEXT
  6
Continuous
 62
     6
100
AcDbCircle
 10
0.0124999999999997
 20
0.0941740410091869
 30
0.0
 40
0.005
100
AcDbArc
 50
82.43915682332817
 51
180.0
  0
ARC
  5
6F4
102
{ACAD_REACTORS
330
720
102
}
330
6EF
100
AcDbEntity
  8
R-ANNO-DIMS
  6
Continuous
 62
     6
100
AcDbCircle
 10
-0.0124999999999997
 20
0.0941740410091869
 30
0.0
 40
0.005
100
AcDbArc
 50
0.0
 51
97.56084317667179
  0
ARC
  5
6F5
102
{ACAD_REACTORS
330
721
102
}
330
6EF
100
AcDbEntity
  8
R-ANNO-TEXT
  6
Continuous
 62
     6
100
AcDbCircle
 10
0.0
 20
0.0
 30
0.0
 40
0.1
100
AcDbArc
 50
52.56084317667203
 51
82.43915682332799
  0
ARC
  5
6F6
102
{ACAD_REACTORS
330
720
102
}
330
6EF
100
AcDbEntity
  8
R-ANNO-DIMS
  6
Continuous
 62
     6
100
AcDbCircle
 10
-0.0577522682445042
 20
0.0754299377741674
 30
0.0
 40
0.005
100
AcDbArc
 50
127.4391568233271
 51
224.9999999999982
  0
ARC
  5
6F7
102
{ACAD_REACTORS
330
720
102
}
330
6EF
100
AcDbEntity
  8
R-ANNO-DIMS
  6
Continuous
 62
     6
100
AcDbCircle
 10
0.0
 20
0.0
 30
0.0
 40
0.1
100
AcDbArc
 50
97.56084317667193
 51
127.439156823328
  0
ARC
  5
6F8
102
{ACAD_REACTORS
330
726
102
}
330
6EF
100
AcDbEntity
  8
R-SWTS-DET1
  6
Continuous
 62
     6
100
AcDbCircle
 10
0.0754299377741679
 20
0.0577522682445042
 30
0.0
 40
0.005
100
AcDbArc
 50
37.43915682332774
 51
135.0000000000018
  0
LINE
  5
6F9
102
{ACAD_REACTORS
330
726
102
}
330
6EF
100
AcDbEntity
  8
R-SWTS-DET1
  6
Continuous
 62
     6
100
AcDbLine
 10
0.0266421356237312
 20
0.0160355339059333
 30
0.0
 11
0.071894403868235
 21
0.0612878021504368
 31
0.0
  0
ARC
  5
6FA
102
{ACAD_REACTORS
330
727
102
}
330
6EF
100
AcDbEntity
  8
R-SWTS-DET2
  6
Continuous
 62
     6
100
AcDbCircle
 10
0.0301776695296634
 20
-0.0125000000000002
 30
0.0
 40
0.005
100
AcDbArc
 50
90.0
 51
225.0000000000018
  0
ARC
  5
6FB
102
{ACAD_REACTORS
330
726
102
}
330
6EF
100
AcDbEntity
  8
R-SWTS-DET1
  6
Continuous
 62
     6
100
AcDbCircle
 10
0.0301776695296641
 20
0.0125000000000002
 30
0.0
 40
0.005
100
AcDbArc
 50
135.0
 51
270.0
  0
ARC
  5
6FC
102
{ACAD_REACTORS
330
721
102
}
330
6EF
100
AcDbEntity
  8
R-ANNO-TEXT
  6
Continuous
 62
     6
100
AcDbCircle
 10
0.0124999999999997
 20
0.0301776695296634
 30
0.0
 40
0.005
100
AcDbArc
 50
180.0
 51
315.0000000000018
  0
ARC
  5
6FD
102
{ACAD_REACTORS
330
720
102
}
330
6EF
100
AcDbEntity
  8
R-ANNO-DIMS
  6
Continuous
 62
     6
100
AcDbCircle
 10
-0.0124999999999997
 20
0.030177669529663
 30
0.0
 40
0.005
100
AcDbArc
 50
225.0000000000018
 51
0.0
  0
ARC
  5
6FE
102
{ACAD_REACTORS
330
70B
102
}
330
6EF
100
AcDbEntity
  8
R-SWTS-DET3
  6
Continuous
 62
     6
100
AcDbCircle
 10
0.0125
 20
-0.0301776695296638
 30
0.0
 40
0.005
100
AcDbArc
 50
45.00000000000089
 51
180.0
  0
ARC
  5
6FF
102
{ACAD_REACTORS
330
71A
102
}
330
6EF
100
AcDbEntity
  8
R-SWTS-PAT1
  6
Continuous
 62
     6
100
AcDbCircle
 10
-0.0301776695296634
 20
-0.0125000000000002
 30
0.0
 40
0.005
100
AcDbArc
 50
314.9999999999991
 51
90.0
  0
ARC
  5
700
102
{ACAD_REACTORS
330
719
102
}
330
6EF
100
AcDbEntity
  8
R-SWTS-OTLN
  6
Continuous
 62
     6
100
AcDbCircle
 10
-0.0124999999999997
 20
-0.0301776695296638
 30
0.0
 40
0.005
100
AcDbArc
 50
0.0
 51
134.9999999999973
  0
ARC
  5
701
102
{ACAD_REACTORS
330
71B
102
}
330
6EF
100
AcDbEntity
  8
R-SWTS-PAT2
  6
Continuous
 62
     6
100
AcDbCircle
 10
-0.0301776695296634
 20
0.0124999999999993
 30
0.0
 40
0.005
100
AcDbArc
 50
270.0
 51
44.9999999999991
  0
ARC
  5
702
102
{ACAD_REACTORS
330
727
102
}
330
6EF
100
AcDbEntity
  8
R-SWTS-DET2
  6
Continuous
 62
     6
100
AcDbCircle
 10
0.0754299377741679
 20
-0.0577522682445046
 30
0.0
 40
0.005
100
AcDbArc
 50
225.0000000000018
 51
322.5608431766723
  0
ARC
  5
703
102
{ACAD_REACTORS
330
70B
102
}
330
6EF
100
AcDbEntity
  8
R-SWTS-DET3
  6
Continuous
 62
     6
100
AcDbCircle
 10
0.0577522682445042
 20
-0.0754299377741683
 30
0.0
 40
0.005
100
AcDbArc
 50
307.4391568233271
 51
44.9999999999982
  0
ARC
  5
704
102
{ACAD_REACTORS
330
70B
102
}
330
6EF
100
AcDbEntity
  8
R-SWTS-DET3
  6
Continuous
 62
     6
100
AcDbCircle
 10
0.0124999999999997
 20
-0.0941740410091869
 30
0.0
 40
0.005
100
AcDbArc
 50
180.0
 51
277.5608431766718
  0
ARC
  5
705
102
{ACAD_REACTORS
330
719
102
}
330
6EF
100
AcDbEntity
  8
R-SWTS-OTLN
  6
Continuous
 62
     6
100
AcDbCircle
 10
-0.0124999999999997
 20
-0.0941740410091869
 30
0.0
 40
0.005
100
AcDbArc
 50
262.4391568233282
 51
0.0
  0
ARC
  5
706
102
{ACAD_REACTORS
330
70B
102
}
330
6EF
100
AcDbEntity
  8
R-SWTS-DET3
  6
Continuous
 62
     6
100
AcDbCircle
 10
0.0
 20
0.0
 30
0.0
 40
0.1
100
AcDbArc
 50
277.5608431766719
 51
307.439156823328
  0
LINE
  5
707
102
{ACAD_REACTORS
330
727
102
}
330
6EF
100
AcDbEntity
  8
R-SWTS-DET2
  6
Continuous
 62
     6
100
AcDbLine
 10
0.0266421356237303
 20
-0.0160355339059324
 30
0.0
 11
0.071894403868235
 21
-0.0612878021504373
 31
0.0
  0
LINE
  5
708
102
{ACAD_REACTORS
330
70B
102
}
330
6EF
100
AcDbEntity
  8
R-SWTS-DET3
  6
Continuous
 62
     6
100
AcDbLine
 10
0.0160355339059328
 20
-0.0266421356237308
 30
0.0
 11
0.0612878021504373
 21
-0.0718944038682352
 31
0.0
  0
LINE
  5
709
102
{ACAD_REACTORS
330
70B
102
}
330
6EF
100
AcDbEntity
  8
R-SWTS-DET3
  6
Continuous
 62
     6
100
AcDbLine
 10
0.0074999999999998
 20
-0.0301776695296638
 30
0.0
 11
0.0074999999999998
 21
-0.0941740410091869
 31
0.0
  0
LINE
  5
70A
102
{ACAD_REACTORS
330
719
102
}
330
6EF
100
AcDbEntity
  8
R-SWTS-OTLN
  6
Continuous
 62
     6
100
AcDbLine
 10
-0.0074999999999998
 20
-0.0301776695296638
 30
0.0
 11
-0.0074999999999998
 21
-0.0941740410091869
 31
0.0
  0
HATCH
  5
70B
330
6EF
100
AcDbEntity
  8
R-SWTS-DET3
  6
Continuous
 62
     6
100
AcDbHatch
 10
0.0
 20
0.0
 30
0.0
210
0.0
220
0.0
230
1.0
  2
SOLID
 70
     1
 71
     1
 91
        1
 92
        7
 72
     1
 73
     1
 93
        6
 10
0.0160355339059329
 20
-0.0266421356237308
 42
0.6681786379193446
 10
0.0074999999999998
 20
-0.0301776695296634
 42
0.0
 10
0.0074999999999998
 20
-0.0941740410091869
 42
0.4534141234453589
 10
0.0131578947368419
 20
-0.0991305694833544
 42
0.1311123756655087
 10
0.0607918613100043
 20
-0.0793999344991243
 42
0.4534141234454098
 10
0.0612878021504371
 20
-0.071894403868235
 42
0.0
 97
        6
330
6FE
330
709
330
704
330
706
330
703
330
708
 75
     0
 76
     1
 47
0.0008898326864094
 98
        1
 10
0.0452949310457915
 20
-0.066915027358724
  0
ARC
  5
70C
102
{ACAD_REACTORS
330
71B
102
}
330
6EF
100
AcDbEntity
  8
R-SWTS-PAT2
  6
Continuous
 62
     6
100
AcDbCircle
 10
-0.0754299377741679
 20
0.0577522682445038
 30
0.0
 40
0.005
100
AcDbArc
 50
45.00000000000089
 51
142.5608431766718
  0
ARC
  5
70D
102
{ACAD_REACTORS
330
71A
102
}
330
6EF
100
AcDbEntity
  8
R-SWTS-PAT1
  6
Continuous
 62
     6
100
AcDbCircle
 10
-0.0941740410091869
 20
-0.0125000000000002
 30
0.0
 40
0.005
100
AcDbArc
 50
90.0
 51
187.5608431766716
  0
ARC
  5
70E
102
{ACAD_REACTORS
330
71B
102
}
330
6EF
100
AcDbEntity
  8
R-SWTS-PAT2
  6
Continuous
 62
     6
100
AcDbCircle
 10
-0.0941740410091869
 20
0.0124999999999993
 30
0.0
 40
0.005
100
AcDbArc
 50
172.4391568233283
 51
270.0
  0
ARC
  5
70F
102
{ACAD_REACTORS
330
71B
102
}
330
6EF
100
AcDbEntity
  8
R-SWTS-PAT2
  6
Continuous
 62
     6
100
AcDbCircle
 10
0.0
 20
0.0
 30
0.0
 40
0.1
100
AcDbArc
 50
142.560843176672
 51
172.439156823328
  0
ARC
  5
710
102
{ACAD_REACTORS
330
719
102
}
330
6EF
100
AcDbEntity
  8
R-SWTS-OTLN
  6
Continuous
 62
     6
100
AcDbCircle
 10
-0.0577522682445042
 20
-0.0754299377741683
 30
0.0
 40
0.005
100
AcDbArc
 50
135.0000000000018
 51
232.5608431766728
  0
ARC
  5
711
102
{ACAD_REACTORS
330
71A
102
}
330
6EF
100
AcDbEntity
  8
R-SWTS-PAT1
  6
Continuous
 62
     6
100
AcDbCircle
 10
-0.0754299377741679
 20
-0.0577522682445046
 30
0.0
 40
0.005
100
AcDbArc
 50
217.4391568233282
 51
314.9999999999991
  0
ARC
  5
712
102
{ACAD_REACTORS
330
71A
102
}
330
6EF
100
AcDbEntity
  8
R-SWTS-PAT1
  6
Continuous
 62
     6
100
AcDbCircle
 10
0.0
 20
0.0
 30
0.0
 40
0.1
100
AcDbArc
 50
187.5608431766719
 51
217.4391568233279
  0
ARC
  5
713
102
{ACAD_REACTORS
330
719
102
}
330
6EF
100
AcDbEntity
  8
R-SWTS-OTLN
  6
Continuous
 62
     6
100
AcDbCircle
 10
0.0
 20
0.0
 30
0.0
 40
0.1
100
AcDbArc
 50
232.560843176672
 51
262.4391568233281
  0
LINE
  5
714
102
{ACAD_REACTORS
330
719
102
}
330
6EF
100
AcDbEntity
  8
R-SWTS-OTLN
  6
Continuous
 62
     6
100
AcDbLine
 10
-0.0160355339059324
 20
-0.0266421356237308
 30
0.0
 11
-0.0612878021504373
 21
-0.0718944038682352
 31
0.0
  0
LINE
  5
715
102
{ACAD_REACTORS
330
71A
102
}
330
6EF
100
AcDbEntity
  8
R-SWTS-PAT1
  6
Continuous
 62
     6
100
AcDbLine
 10
-0.0266421356237308
 20
-0.0160355339059333
 30
0.0
 11
-0.0718944038682352
 21
-0.0612878021504368
 31
0.0
  0
LINE
  5
716
102
{ACAD_REACTORS
330
71A
102
}
330
6EF
100
AcDbEntity
  8
R-SWTS-PAT1
  6
Continuous
 62
     6
100
AcDbLine
 10
-0.0301776695296634
 20
-0.0075000000000003
 30
0.0
 11
-0.0941740410091869
 21
-0.0075000000000003
 31
0.0
  0
LINE
  5
717
102
{ACAD_REACTORS
330
71B
102
}
330
6EF
100
AcDbEntity
  8
R-SWTS-PAT2
  6
Continuous
 62
     6
100
AcDbLine
 10
-0.0266421356237308
 20
0.0160355339059324
 30
0.0
 11
-0.0718944038682352
 21
0.0612878021504368
 31
0.0
  0
LINE
  5
718
102
{ACAD_REACTORS
330
71B
102
}
330
6EF
100
AcDbEntity
  8
R-SWTS-PAT2
  6
Continuous
 62
     6
100
AcDbLine
 10
-0.0301776695296634
 20
0.0074999999999994
 30
0.0
 11
-0.0941740410091869
 21
0.0074999999999994
 31
0.0
  0
HATCH
  5
719
330
6EF
100
AcDbEntity
  8
R-SWTS-OTLN
  6
Continuous
 62
     6
100
AcDbHatch
 10
0.0
 20
0.0
 30
0.0
210
0.0
220
0.0
230
1.0
  2
SOLID
 70
     1
 71
     1
 91
        1
 92
        7
 72
     1
 73
     1
 93
        6
 10
-0.0612878021504372
 20
-0.0718944038682352
 42
0.4534141234453476
 10
-0.0607918613100047
 20
-0.0793999344991239
 42
0.1311123756655101
 10
-0.0131578947368419
 20
-0.0991305694833546
 42
0.4534141234453685
 10
-0.0074999999999998
 20
-0.0941740410091869
 42
0.0
 10
-0.0074999999999998
 20
-0.0301776695296638
 42
0.6681786379193112
 10
-0.0160355339059326
 20
-0.026642135623731
 42
0.0
 97
        6
330
700
330
714
330
710
330
713
330
705
330
70A
 75
     0
 76
     1
 47
0.0008898326864094
 98
        1
 10
-0.0232853322002938
 20
-0.0491183732070368
  0
HATCH
  5
71A
330
6EF
100
AcDbEntity
  8
R-SWTS-PAT1
  6
Continuous
 62
     6
100
AcDbHatch
 10
0.0
 20
0.0
 30
0.0
210
0.0
220
0.0
230
1.0
  2
SOLID
 70
     1
 71
     1
 91
        1
 92
        7
 72
     1
 73
     1
 93
        6
 10
-0.0941740410091869
 20
-0.0075000000000003
 42
0.453414123445365
 10
-0.0991305694833545
 20
-0.0131578947368423
 42
0.1311123756655095
 10
-0.0793999344991238
 20
-0.0607918613100047
 42
0.4534141234453342
 10
-0.0718944038682353
 20
-0.0612878021504368
 42
0.0
 10
-0.0266421356237305
 20
-0.0160355339059331
 42
0.6681786379193052
 10
-0.0301776695296632
 20
-0.0075000000000003
 42
0.0
 97
        6
330
716
330
70D
330
712
330
711
330
715
330
6FF
 75
     0
 76
     1
 47
0.0008898326864094
 98
        1
 10
-0.0606927519483949
 20
-0.0161945603424947
  0
HATCH
  5
71B
330
6EF
100
AcDbEntity
  8
R-SWTS-PAT2
  6
Continuous
 62
     6
100
AcDbHatch
 10
0.0
 20
0.0
 30
0.0
210
0.0
220
0.0
230
1.0
  2
SOLID
 70
     1
 71
     1
 91
        1
 92
        7
 72
     1
 73
     1
 93
        6
 10
-0.0991305694833546
 20
0.0131578947368414
 42
0.4534141234453686
 10
-0.094174041009187
 20
0.0074999999999994
 42
0.0
 10
-0.0301776695296634
 20
0.0074999999999994
 42
0.6681786379193361
 10
-0.0266421356237305
 20
0.0160355339059322
 42
0.0
 10
-0.071894403868235
 20
0.0612878021504366
 42
0.4534141234454016
 10
-0.0793999344991243
 20
0.0607918613100043
 42
0.13111237566551
 97
        6
330
70C
330
70F
330
70E
330
718
330
701
330
717
 75
     0
 76
     1
 47
0.0008898326864094
 98
        1
 10
-0.0865216783395087
 20
0.0300767364260093
  0
LINE
  5
71C
102
{ACAD_REACTORS
330
721
102
}
330
6EF
100
AcDbEntity
  8
R-ANNO-TEXT
  6
Continuous
 62
     6
100
AcDbLine
 10
0.0160355339059328
 20
0.0266421356237308
 30
0.0
 11
0.0612878021504373
 21
0.0718944038682348
 31
0.0
  0
LINE
  5
71D
102
{ACAD_REACTORS
330
721
102
}
330
6EF
100
AcDbEntity
  8
R-ANNO-TEXT
  6
Continuous
 62
     6
100
AcDbLine
 10
0.0074999999999998
 20
0.0301776695296634
 30
0.0
 11
0.0074999999999998
 21
0.0941740410091869
 31
0.0
  0
LINE
  5
71E
102
{ACAD_REACTORS
330
720
102
}
330
6EF
100
AcDbEntity
  8
R-ANNO-DIMS
  6
Continuous
 62
     6
100
AcDbLine
 10
-0.0074999999999998
 20
0.030177669529663
 30
0.0
 11
-0.0074999999999998
 21
0.0941740410091869
 31
0.0
  0
LINE
  5
71F
102
{ACAD_REACTORS
330
720
102
}
330
6EF
100
AcDbEntity
  8
R-ANNO-DIMS
  6
Continuous
 62
     6
100
AcDbLine
 10
-0.0160355339059324
 20
0.0266421356237303
 30
0.0
 11
-0.0612878021504373
 21
0.0718944038682348
 31
0.0
  0
HATCH
  5
720
330
6EF
100
AcDbEntity
  8
R-ANNO-DIMS
  6
Continuous
 62
     6
100
AcDbHatch
 10
0.0
 20
0.0
 30
0.0
210
0.0
220
0.0
230
1.0
  2
SOLID
 70
     1
 71
     1
 91
        1
 92
        7
 72
     1
 73
     1
 93
        6
 10
-0.0074999999999998
 20
0.0941740410091869
 42
0.4534141234453656
 10
-0.0131578947368419
 20
0.0991305694833545
 42
0.1311123756655101
 10
-0.0607918613100047
 20
0.0793999344991241
 42
0.4534141234453891
 10
-0.0612878021504375
 20
0.071894403868235
 42
0.0
 10
-0.0160355339059324
 20
0.0266421356237303
 42
0.6681786379192679
 10
-0.0074999999999998
 20
0.0301776695296632
 42
0.0
 97
        6
330
6F4
330
6F7
330
6F6
330
71F
330
6FD
330
71E
 75
     0
 76
     1
 47
0.0008898326864094
 98
        1
 10
-0.0286292493071659
 20
0.0718988763663955
  0
HATCH
  5
721
330
6EF
100
AcDbEntity
  8
R-ANNO-TEXT
  6
Continuous
 62
     6
100
AcDbHatch
 10
0.0
 20
0.0
 30
0.0
210
0.0
220
0.0
230
1.0
  2
SOLID
 70
     1
 71
     1
 91
        1
 92
        7
 72
     1
 73
     1
 93
        6
 10
0.061287802150437
 20
0.0718944038682345
 42
0.4534141234454016
 10
0.0607918613100048
 20
0.0793999344991239
 42
0.1311123756655107
 10
0.0131578947368418
 20
0.0991305694833545
 42
0.453414123445365
 10
0.0074999999999998
 20
0.0941740410091868
 42
0.0
 10
0.0074999999999998
 20
0.0301776695296634
 42
0.6681786379193165
 10
0.0160355339059327
 20
0.0266421356237305
 42
0.0
 97
        6
330
6F2
330
6F5
330
6F3
330
71D
330
6FC
330
71C
 75
     0
 76
     1
 47
0.0008898326864094
 98
        1
 10
0.0328257911297578
 20
0.0701192082673048
  0
ARC
  5
722
102
{ACAD_REACTORS
330
726
102
}
330
6EF
100
AcDbEntity
  8
R-SWTS-DET1
  6
Continuous
 62
     6
100
AcDbCircle
 10
0.0
 20
0.0
 30
0.0
 40
0.1
100
AcDbArc
 50
7.560843176671929
 51
37.43915682332803
  0
LINE
  5
723
102
{ACAD_REACTORS
330
726
102
}
330
6EF
100
AcDbEntity
  8
R-SWTS-DET1
  6
Continuous
 62
     6
100
AcDbLine
 10
0.0301776695296641
 20
0.0074999999999994
 30
0.0
 11
0.0941740410091869
 21
0.0074999999999994
 31
0.0
  0
ARC
  5
724
102
{ACAD_REACTORS
330
727
102
}
330
6EF
100
AcDbEntity
  8
R-SWTS-DET2
  6
Continuous
 62
     6
100
AcDbCircle
 10
0.0
 20
0.0
 30
0.0
 40
0.1
100
AcDbArc
 50
322.5608431766719
 51
352.439156823328
  0
LINE
  5
725
102
{ACAD_REACTORS
330
727
102
}
330
6EF
100
AcDbEntity
  8
R-SWTS-DET2
  6
Continuous
 62
     6
100
AcDbLine
 10
0.0301776695296634
 20
-0.0075000000000003
 30
0.0
 11
0.0941740410091869
 21
-0.0075000000000003
 31
0.0
  0
HATCH
  5
726
330
6EF
100
AcDbEntity
  8
R-SWTS-DET1
  6
Continuous
 62
     6
100
AcDbHatch
 10
0.0
 20
0.0
 30
0.0
210
0.0
220
0.0
230
1.0
  2
SOLID
 70
     1
 71
     1
 91
        1
 92
        7
 72
     1
 73
     1
 93
        6
 10
0.0793999344991241
 20
0.0607918613100045
 42
0.4534141234453706
 10
0.0718944038682352
 20
0.0612878021504371
 42
0.0
 10
0.0266421356237311
 20
0.0160355339059331
 42
0.6681786379194726
 10
0.0301776695296636
 20
0.0074999999999994
 42
0.0
 10
0.094174041009187
 20
0.0074999999999994
 42
0.4534141234453691
 10
0.0991305694833546
 20
0.0131578947368414
 42
0.1311123756655111
 97
        6
330
6F8
330
6F9
330
6FB
330
723
330
6F0
330
722
 75
     0
 76
     1
 47
0.0008898326864094
 98
        1
 10
0.0827023382096958
 20
0.0318564045251
  0
HATCH
  5
727
330
6EF
100
AcDbEntity
  8
R-SWTS-DET2
  6
Continuous
 62
     6
100
AcDbHatch
 10
0.0
 20
0.0
 30
0.0
210
0.0
220
0.0
230
1.0
  2
SOLID
 70
     1
 71
     1
 91
        1
 92
        7
 72
     1
 73
     1
 93
        6
 10
0.0991305694833546
 20
-0.0131578947368423
 42
0.4534141234453724
 10
0.0941740410091869
 20
-0.0075000000000003
 42
0.0
 10
0.0301776695296634
 20
-0.0075000000000003
 42
0.6681786379192715
 10
0.0266421356237308
 20
-0.0160355339059328
 42
0.0
 10
0.0718944038682351
 20
-0.0612878021504375
 42
0.4534141234453565
 10
0.0793999344991239
 20
-0.0607918613100047
 42
0.1311123756655093
 97
        6
330
6F1
330
725
330
6FA
330
707
330
702
330
724
 75
     0
 76
     1
 47
0.0008898326864094
 98
        1
 10
0.0889369144598111
 20
-0.0250928874183378
  0
MTEXT
  5
728
330
6EF
100
AcDbEntity
  8
R-SWTS-PAT3
  6
Continuous
 62
     6
100
AcDbMText
 10
0.1939806497453276
 20
0.0
 30
0.0
 40
0.15
 41
0.9182999999999999
 71
     4
 72
     5
  1
{\fArial|b1|i0|c0|p34;PEMKO}
  7
SWTSTEXT
 73
     1
 44
1.0
1001
ACAD
1000
MTEXTBEGIN
1070
    73
1070
     1
1070
    44
1040
1.0
1070
    74
1070
     0
1000
MTEXTEND
  0
ENDBLK
  5
72A
330
6EF
100
AcDbEntity
  8
0
100
AcDbBlockEnd
  0
BLOCK
  5
89A
330
897
100
AcDbEntity
  8
0
100
AcDbBlockBegin
  2
P2
 70
     0
 10
0.0
 20
0.0
 30
0.0
  3
P2
  1

  0
LWPOLYLINE
  5
89B
330
897
100
AcDbEntity
  8
R-SWTS-DET1
  6
Continuous
100
AcDbPolyline
 90
        8
 70
   129
 43
0.0
 10
-0.0140000000000002
 20
0.0124999999999993
 42
-0.4142135623730951
 10
-0.0070000000000006
 20
0.0194999999999994
 10
0.0070000000000001
 20
0.0194999999999994
 42
-0.4142135623730951
 10
0.0140000000000002
 20
0.0124999999999994
 10
0.0140000000000002
 20
-0.2535000000000008
 42
-0.4142135623730951
 10
0.0070000000000001
 20
-0.2605000000000008
 10
-0.0070000000000006
 20
-0.2605000000000006
 42
-0.4142135623730951
 10
-0.0140000000000002
 20
-0.2535000000000007
  0
LINE
  5
89C
330
897
100
AcDbEntity
  8
R-SWTS-DET1
  6
Continuous
100
AcDbLine
 10
-0.2309999999999999
 20
0.0419999999999993
 30
0.0
 11
-0.0140000000000002
 21
-0.0605000000000007
 31
0.0
  0
LINE
  5
89D
330
897
100
AcDbEntity
  8
R-SWTS-DET1
  6
Continuous
100
AcDbLine
 10
-0.0140000000000002
 20
-0.1805000000000008
 30
0.0
 11
-0.2309999999999999
 21
-0.2830000000000007
 31
0.0
  0
LINE
  5
89E
330
897
100
AcDbEntity
  8
R-SWTS-DET1
  6
Continuous
100
AcDbLine
 10
-0.2338709240862729
 20
0.0357775479026256
 30
0.0
 11
-0.0140000000000002
 21
-0.0632750695639295
 31
0.0
  0
LINE
  5
89F
330
897
100
AcDbEntity
  8
R-SWTS-DET1
  6
Continuous
100
AcDbLine
 10
-0.2366293122519796
 20
0.0295043979808921
 30
0.0
 11
-0.0140000000000002
 21
-0.0660054613996237
 31
0.0
  0
LINE
  5
8A0
330
897
100
AcDbEntity
  8
R-SWTS-DET1
  6
Continuous
100
AcDbLine
 10
-0.2392742696515029
 20
0.0231825853003424
 30
0.0
 11
-0.0140000000000002
 21
-0.0686939761228103
 31
0.0
  0
LINE
  5
8A1
330
897
100
AcDbEntity
  8
R-SWTS-DET1
  6
Continuous
100
AcDbLine
 10
-0.2418049382371743
 20
0.0168141607131504
 30
0.0
 11
-0.0140000000000002
 21
-0.0713432755231756
 31
0.0
  0
LINE
  5
8A2
330
897
100
AcDbEntity
  8
R-SWTS-DET1
  6
Continuous
100
AcDbLine
 10
-0.24422049703763
 20
0.010401190192807
 30
0.0
 11
-0.0140000000000002
 21
-0.0739558940983848
 31
0.0
  0
LINE
  5
8A3
330
897
100
AcDbEntity
  8
R-SWTS-DET1
  6
Continuous
100
AcDbLine
 10
-0.2465201624241455
 20
0.0039457541638994
 30
0.0
 11
-0.0140000000000002
 21
-0.076534249653321
 31
0.0
  0
LINE
  5
8A4
330
897
100
AcDbEntity
  8
R-SWTS-DET1
  6
Continuous
100
AcDbLine
 10
-0.2487031883648463
 20
-0.0025500531727971
 30
0.0
 11
-0.0140000000000002
 21
-0.0790806530631403
 31
0.0
  0
LINE
  5
8A5
330
897
100
AcDbEntity
  8
R-SWTS-DET1
  6
Continuous
100
AcDbLine
 10
-0.2507688666667311
 20
-0.0090841245196971
 30
0.0
 11
-0.0140000000000002
 21
-0.0815973172879551
 31
0.0
  0
LINE
  5
8A6
330
897
100
AcDbEntity
  8
R-SWTS-DET1
  6
Continuous
100
AcDbLine
 10
-0.2527165272054139
 20
-0.0156543401660292
 30
0.0
 11
-0.0140000000000002
 21
-0.0840863657175433
 31
0.0
  0
LINE
  5
8A7
330
897
100
AcDbEntity
  8
R-SWTS-DET1
  6
Continuous
100
AcDbLine
 10
-0.2545455381425214
 20
-0.0222585686754919
 30
0.0
 11
-0.0140000000000002
 21
-0.0865498399162715
 31
0.0
  0
LINE
  5
8A8
330
897
100
AcDbEntity
  8
R-SWTS-DET1
  6
Continuous
100
AcDbLine
 10
-0.2562553061306616
 20
-0.0288946675777073
 30
0.0
 11
-0.0140000000000002
 21
-0.0889897068312443
 31
0.0
  0
LINE
  5
8A9
330
897
100
AcDbEntity
  8
R-SWTS-DET1
  6
Continuous
100
AcDbLine
 10
-0.2578452765059156
 20
-0.0355604840632602
 30
0.0
 11
-0.0140000000000002
 21
-0.0914078655204371
 31
0.0
  0
LINE
  5
8AA
330
897
100
AcDbEntity
  8
R-SWTS-DET1
  6
Continuous
100
AcDbLine
 10
-0.2593149334677749
 20
-0.0422538556820869
 30
0.0
 11
-0.0140000000000002
 21
-0.0938061534520709
 31
0.0
  0
LINE
  5
8AB
330
897
100
AcDbEntity
  8
R-SWTS-DET1
  6
Continuous
100
AcDbLine
 10
-0.2606638002464687
 20
-0.0489726110449937
 30
0.0
 11
-0.0140000000000002
 21
-0.0961863524217204
 31
0.0
  0
LINE
  5
8AC
330
897
100
AcDbEntity
  8
R-SWTS-DET1
  6
Continuous
100
AcDbLine
 10
-0.2618914392576364
 20
-0.0557145705280751
 30
0.0
 11
-0.0140000000000002
 21
-0.0985501941294355
 31
0.0
  0
LINE
  5
8AD
330
897
100
AcDbEntity
  8
R-SWTS-DET1
  6
Continuous
100
AcDbLine
 10
-0.2629974522442806
 20
-0.0624775469798034
 30
0.0
 11
-0.0140000000000002
 21
-0.1008993654555389
 31
0.0
  0
LINE
  5
8AE
330
897
100
AcDbEntity
  8
R-SWTS-DET1
  6
Continuous
100
AcDbLine
 10
-0.2639814804059659
 20
-0.0692593464305582
 30
0.0
 11
-0.0140000000000002
 21
-0.1032355134705527
 31
0.0
  0
LINE
  5
8AF
330
897
100
AcDbEntity
  8
R-SWTS-DET1
  6
Continuous
100
AcDbLine
 10
-0.2648432045152185
 20
-0.0760577688043733
 30
0.0
 11
-0.0140000000000002
 21
-0.105560250211978
 31
0.0
  0
LINE
  5
8B0
330
897
100
AcDbEntity
  8
R-SWTS-DET1
  6
Continuous
100
AcDbLine
 10
-0.2655823450210848
 20
-0.0828706086326565
 30
0.0
 11
-0.0140000000000002
 21
-0.1078751572582554
 31
0.0
  0
LINE
  5
8B1
330
897
100
AcDbEntity
  8
R-SWTS-DET1
  6
Continuous
100
AcDbLine
 10
-0.2661986621398205
 20
-0.0896956557696669
 30
0.0
 11
-0.0140000000000002
 21
-0.1101817901281965
 31
0.0
  0
LINE
  5
8B2
330
897
100
AcDbEntity
  8
R-SWTS-DET1
  6
Continuous
100
AcDbLine
 10
-0.2666919559326795
 20
-0.0965306961095025
 30
0.0
 11
-0.0140000000000002
 21
-0.1124816825324524
 31
0.0
  0
LINE
  5
8B3
330
897
100
AcDbEntity
  8
R-SWTS-DET1
  6
Continuous
100
AcDbLine
 10
-0.2670620663707743
 20
-0.1033735123043789
 30
0.0
 11
-0.0140000000000002
 21
-0.114776350502114
 31
0.0
  0
LINE
  5
8B4
330
897
100
AcDbEntity
  8
R-SWTS-DET1
  6
Continuous
100
AcDbLine
 10
-0.2673088733869919
 20
-0.1102218844839558
 30
0.0
 11
-0.0140000000000002
 21
-0.1170672964183622
 31
0.0
  0
LINE
  5
8B5
330
897
100
AcDbEntity
  8
R-SWTS-DET1
  6
Continuous
100
AcDbLine
 10
-0.2674322969149454
 20
-0.1170735909754803
 30
0.0
 11
-0.0140000000000002
 21
-0.1193560129661121
 31
0.0
  0
LINE
  5
8B6
330
897
100
AcDbEntity
  8
R-SWTS-DET1
  6
Continuous
100
AcDbLine
 10
-0.2674322969149454
 20
-0.1239264090245207
 30
0.0
 11
-0.0140000000000002
 21
-0.1216439870338891
 31
0.0
  0
LINE
  5
8B7
330
897
100
AcDbEntity
  8
R-SWTS-DET1
  6
Continuous
100
AcDbLine
 10
-0.2673088733869919
 20
-0.1307781155160455
 30
0.0
 11
-0.0140000000000002
 21
-0.123932703581639
 31
0.0
  0
LINE
  5
8B8
330
897
100
AcDbEntity
  8
R-SWTS-DET1
  6
Continuous
100
AcDbLine
 10
-0.2670620663707743
 20
-0.1376264876956224
 30
0.0
 11
-0.0140000000000002
 21
-0.1262236494978872
 31
0.0
  0
LINE
  5
8B9
330
897
100
AcDbEntity
  8
R-SWTS-DET1
  6
Continuous
100
AcDbLine
 10
-0.2666919559326795
 20
-0.1444693038904992
 30
0.0
 11
-0.0140000000000002
 21
-0.1285183174675493
 31
0.0
  0
LINE
  5
8BA
330
897
100
AcDbEntity
  8
R-SWTS-DET1
  6
Continuous
100
AcDbLine
 10
-0.2661986621398205
 20
-0.1513043442303348
 30
0.0
 11
-0.0140000000000002
 21
-0.1308182098718051
 31
0.0
  0
LINE
  5
8BB
330
897
100
AcDbEntity
  8
R-SWTS-DET1
  6
Continuous
100
AcDbLine
 10
-0.2655823450210848
 20
-0.1581293913673445
 30
0.0
 11
-0.0140000000000002
 21
-0.1331248427417456
 31
0.0
  0
LINE
  5
8BC
330
897
100
AcDbEntity
  8
R-SWTS-DET1
  6
Continuous
100
AcDbLine
 10
-0.2648432045152185
 20
-0.1649422311956279
 30
0.0
 11
-0.0140000000000002
 21
-0.135439749788023
 31
0.0
  0
LINE
  5
8BD
330
897
100
AcDbEntity
  8
R-SWTS-DET1
  6
Continuous
100
AcDbLine
 10
-0.2639814804059659
 20
-0.1717406535694426
 30
0.0
 11
-0.0140000000000002
 21
-0.1377644865294485
 31
0.0
  0
LINE
  5
8BE
330
897
100
AcDbEntity
  8
R-SWTS-DET1
  6
Continuous
100
AcDbLine
 10
-0.2629974522442806
 20
-0.1785224530201979
 30
0.0
 11
-0.0140000000000002
 21
-0.1401006345444625
 31
0.0
  0
LINE
  5
8BF
330
897
100
AcDbEntity
  8
R-SWTS-DET1
  6
Continuous
100
AcDbLine
 10
-0.2618914392576364
 20
-0.1852854294719262
 30
0.0
 11
-0.0140000000000002
 21
-0.1424498058705658
 31
0.0
  0
LINE
  5
8C0
330
897
100
AcDbEntity
  8
R-SWTS-DET1
  6
Continuous
100
AcDbLine
 10
-0.2606638002464687
 20
-0.1920273889550077
 30
0.0
 11
-0.0140000000000002
 21
-0.1448136475782812
 31
0.0
  0
LINE
  5
8C1
330
897
100
AcDbEntity
  8
R-SWTS-DET1
  6
Continuous
100
AcDbLine
 10
-0.2593149334677749
 20
-0.1987461443179144
 30
0.0
 11
-0.0140000000000002
 21
-0.1471938465479303
 31
0.0
  0
LINE
  5
8C2
330
897
100
AcDbEntity
  8
R-SWTS-DET1
  6
Continuous
100
AcDbLine
 10
-0.2578452765059156
 20
-0.205439515936741
 30
0.0
 11
-0.0140000000000002
 21
-0.1495921344795647
 31
0.0
  0
LINE
  5
8C3
330
897
100
AcDbEntity
  8
R-SWTS-DET1
  6
Continuous
100
AcDbLine
 10
-0.2562553061306612
 20
-0.2121053324222939
 30
0.0
 11
-0.0140000000000002
 21
-0.1520102931687567
 31
0.0
  0
LINE
  5
8C4
330
897
100
AcDbEntity
  8
R-SWTS-DET1
  6
Continuous
100
AcDbLine
 10
-0.254545538142521
 20
-0.2187414313245095
 30
0.0
 11
-0.0140000000000002
 21
-0.1544501600837297
 31
0.0
  0
LINE
  5
8C5
330
897
100
AcDbEntity
  8
R-SWTS-DET1
  6
Continuous
100
AcDbLine
 10
-0.2527165272054144
 20
-0.2253456598339723
 30
0.0
 11
-0.0140000000000002
 21
-0.1569136342824581
 31
0.0
  0
LINE
  5
8C6
330
897
100
AcDbEntity
  8
R-SWTS-DET1
  6
Continuous
100
AcDbLine
 10
-0.2507688666667311
 20
-0.2319158754803041
 30
0.0
 11
-0.0140000000000002
 21
-0.1594026827120464
 31
0.0
  0
LINE
  5
8C7
330
897
100
AcDbEntity
  8
R-SWTS-DET1
  6
Continuous
100
AcDbLine
 10
-0.2487031883648467
 20
-0.2384499468272041
 30
0.0
 11
-0.0140000000000002
 21
-0.1619193469368612
 31
0.0
  0
LINE
  5
8C8
330
897
100
AcDbEntity
  8
R-SWTS-DET1
  6
Continuous
100
AcDbLine
 10
-0.246520162424146
 20
-0.2449457541639008
 30
0.0
 11
-0.0140000000000002
 21
-0.1644657503466804
 31
0.0
  0
LINE
  5
8C9
330
897
100
AcDbEntity
  8
R-SWTS-DET1
  6
Continuous
100
AcDbLine
 10
-0.2442204970376305
 20
-0.2514011901928081
 30
0.0
 11
-0.0140000000000002
 21
-0.1670441059016163
 31
0.0
  0
LINE
  5
8CA
330
897
100
AcDbEntity
  8
R-SWTS-DET1
  6
Continuous
100
AcDbLine
 10
-0.2418049382371743
 20
-0.2578141607131514
 30
0.0
 11
-0.0140000000000002
 21
-0.1696567244768259
 31
0.0
  0
LINE
  5
8CB
330
897
100
AcDbEntity
  8
R-SWTS-DET1
  6
Continuous
100
AcDbLine
 10
-0.2392742696515029
 20
-0.2641825853003437
 30
0.0
 11
-0.0140000000000002
 21
-0.1723060238771911
 31
0.0
  0
LINE
  5
8CC
330
897
100
AcDbEntity
  8
R-SWTS-DET1
  6
Continuous
100
AcDbLine
 10
-0.2366293122519796
 20
-0.2705043979808934
 30
0.0
 11
-0.0140000000000002
 21
-0.1749945386003775
 31
0.0
  0
LINE
  5
8CD
330
897
100
AcDbEntity
  8
R-SWTS-DET1
  6
Continuous
100
AcDbLine
 10
-0.2338709240862729
 20
-0.2767775479026269
 30
0.0
 11
-0.0140000000000002
 21
-0.1777249304360722
 31
0.0
  0
LINE
  5
8CE
330
897
100
AcDbEntity
  8
R-SWTS-DET1
  6
Continuous
100
AcDbLine
 10
-0.2309999999999999
 20
-0.2830000000000008
 30
0.0
 11
-0.0140000000000002
 21
-0.1805000000000008
 31
0.0
  0
ENDBLK
  5
8CF
330
897
100
AcDbEntity
  8
0
100
AcDbBlockEnd
  0
BLOCK
  5
9BF
330
9BC
100
AcDbEntity
  8
0
100
AcDbBlockBegin
  2
PEMKO_ASSA LOGO
 70
     0
 10
0.0
 20
0.0
 30
0.0
  3
PEMKO_ASSA LOGO
  1

  0
LWPOLYLINE
  5
9C0
330
9BC
100
AcDbEntity
  8
0
370
    20
100
AcDbPolyline
 90
        8
 70
     1
 43
0.0
 10
0.0605095591560829
 20
0.0514069832830803
 10
0.0408947892975551
 20
0.0
 10
0.0
 20
0.0
 10
0.0900330200573763
 20
0.2177610153446779
 10
0.1234445268707134
 20
0.2177610153446779
 10
0.2088195075430193
 20
0.0000000000000001
 10
0.1709609876106413
 20
0.0000000000000001
 10
0.1519044054957419
 20
0.0514069832830799
  0
LWPOLYLINE
  5
9C1
330
9BC
100
AcDbEntity
  8
0
370
    20
100
AcDbPolyline
 90
        3
 70
     1
 43
0.0
 10
0.1436260402668754
 20
0.0737386784614529
 10
0.1068665853712432
 20
0.1729008824664079
 10
0.0690304065876948
 20
0.0737386784614531
  0
POLYLINE
  5
9C2
330
9BC
100
AcDbEntity
  8
0
370
    20
100
AcDb2dPolyline
 66
     1
 10
0.0
 20
0.0
 30
0.0
 70
     4
 75
     6
  0
VERTEX
  5
9C3
330
9C2
100
AcDbEntity
  8
0
370
    20
100
AcDbVertex
100
AcDb2dVertex
 10
0.3296900495936512
 20
0.1601275179296736
 30
0.0
 70
    16
  0
VERTEX
  5
9C4
330
9C2
100
AcDbEntity
  8
0
370
    20
100
AcDbVertex
100
AcDb2dVertex
 10
0.3296900495936512
 20
0.1601275179296736
 30
0.0
 70
     8
  0
VERTEX
  5
9C5
330
9C2
100
AcDbEntity
  8
0
370
    20
100
AcDbVertex
100
AcDb2dVertex
 10
0.3426741166943952
 20
0.1605799064859885
 30
0.0
 70
     8
  0
VERTEX
  5
9C6
330
9C2
100
AcDbEntity
  8
0
370
    20
100
AcDbVertex
100
AcDb2dVertex
 10
0.3521745399691234
 20
0.1618446131313689
 30
0.0
 70
     8
  0
VERTEX
  5
9C7
330
9C2
100
AcDbEntity
  8
0
370
    20
100
AcDbVertex
100
AcDb2dVertex
 10
0.3586778231982972
 20
0.1637829493304684
 30
0.0
 70
     8
  0
VERTEX
  5
9C8
330
9C2
100
AcDbEntity
  8
0
370
    20
100
AcDbVertex
100
AcDb2dVertex
 10
0.3626704701623762
 20
0.1662562265479403
 30
0.0
 70
     8
  0
VERTEX
  5
9C9
330
9C2
100
AcDbEntity
  8
0
370
    20
100
AcDbVertex
100
AcDb2dVertex
 10
0.3646389846418234
 20
0.169125756248438
 30
0.0
 70
     8
  0
VERTEX
  5
9CA
330
9C2
100
AcDbEntity
  8
0
370
    20
100
AcDbVertex
100
AcDb2dVertex
 10
0.3650698704171003
 20
0.1722528498966152
 30
0.0
 70
     8
  0
VERTEX
  5
9CB
330
9C2
100
AcDbEntity
  8
0
370
    20
100
AcDbVertex
100
AcDb2dVertex
 10
0.3644496312686662
 20
0.1754988189571249
 30
0.0
 70
     8
  0
VERTEX
  5
9CC
330
9C2
100
AcDbEntity
  8
0
370
    20
100
AcDbVertex
100
AcDb2dVertex
 10
0.3632647709769863
 20
0.178724974894621
 30
0.0
 70
     8
  0
VERTEX
  5
9CD
330
9C2
100
AcDbEntity
  8
0
370
    20
100
AcDbVertex
100
AcDb2dVertex
 10
0.3619182203872935
 20
0.1818169403625594
 30
0.0
 70
     8
  0
VERTEX
  5
9CE
330
9C2
100
AcDbEntity
  8
0
370
    20
100
AcDbVertex
100
AcDb2dVertex
 10
0.3604786186039188
 20
0.1847575827696053
 30
0.0
 70
     8
  0
VERTEX
  5
9CF
330
9C2
100
AcDbEntity
  8
0
370
    20
100
AcDbVertex
100
AcDb2dVertex
 10
0.3589310317959669
 20
0.1875540807132269
 30
0.0
 70
     8
  0
VERTEX
  5
9D0
330
9C2
100
AcDbEntity
  8
0
370
    20
100
AcDbVertex
100
AcDb2dVertex
 10
0.3572605261325474
 20
0.1902136127908922
 30
0.0
 70
     8
  0
VERTEX
  5
9D1
330
9C2
100
AcDbEntity
  8
0
370
    20
100
AcDbVertex
100
AcDb2dVertex
 10
0.3554521677827633
 20
0.1927433576000692
 30
0.0
 70
     8
  0
VERTEX
  5
9D2
330
9C2
100
AcDbEntity
  8
0
370
    20
100
AcDbVertex
100
AcDb2dVertex
 10
0.3534910229157209
 20
0.1951504937382258
 30
0.0
 70
     8
  0
VERTEX
  5
9D3
330
9C2
100
AcDbEntity
  8
0
370
    20
100
AcDbVertex
100
AcDb2dVertex
 10
0.3513621577005264
 20
0.1974421998028301
 30
0.0
 70
     8
  0
VERTEX
  5
9D4
330
9C2
100
AcDbEntity
  8
0
370
    20
100
AcDbVertex
100
AcDb2dVertex
 10
0.3490506383062861
 20
0.1996256543913499
 30
0.0
 70
     8
  0
VERTEX
  5
9D5
330
9C2
100
AcDbEntity
  8
0
370
    20
100
AcDbVertex
100
AcDb2dVertex
 10
0.3465489021480881
 20
0.2017072225222547
 30
0.0
 70
     8
  0
VERTEX
  5
9D6
330
9C2
100
AcDbEntity
  8
0
370
    20
100
AcDbVertex
100
AcDb2dVertex
 10
0.3438788716249643
 20
0.2036900148980183
 30
0.0
 70
     8
  0
VERTEX
  5
9D7
330
9C2
100
AcDbEntity
  8
0
370
    20
100
AcDbVertex
100
AcDb2dVertex
 10
0.3410698403819286
 20
0.2055763286421159
 30
0.0
 70
     8
  0
VERTEX
  5
9D8
330
9C2
100
AcDbEntity
  8
0
370
    20
100
AcDbVertex
100
AcDb2dVertex
 10
0.3381511020639945
 20
0.2073684608780227
 30
0.0
 70
     8
  0
VERTEX
  5
9D9
330
9C2
100
AcDbEntity
  8
0
370
    20
100
AcDbVertex
100
AcDb2dVertex
 10
0.3351519503161811
 20
0.209068708729214
 30
0.0
 70
     8
  0
VERTEX
  5
9DA
330
9C2
100
AcDbEntity
  8
0
370
    20
100
AcDbVertex
100
AcDb2dVertex
 10
0.3321016787835003
 20
0.2106793693191651
 30
0.0
 70
     8
  0
VERTEX
  5
9DB
330
9C2
100
AcDbEntity
  8
0
370
    20
100
AcDbVertex
100
AcDb2dVertex
 10
0.3290295811109658
 20
0.2122027397713511
 30
0.0
 70
     8
  0
VERTEX
  5
9DC
330
9C2
100
AcDbEntity
  8
0
370
    20
100
AcDbVertex
100
AcDb2dVertex
 10
0.3259649509435949
 20
0.2136411172092472
 30
0.0
 70
     8
  0
VERTEX
  5
9DD
330
9C2
100
AcDbEntity
  8
0
370
    20
100
AcDbVertex
100
AcDb2dVertex
 10
0.3229313380441336
 20
0.2149953630483826
 30
0.0
 70
     8
  0
VERTEX
  5
9DE
330
9C2
100
AcDbEntity
  8
0
370
    20
100
AcDbVertex
100
AcDb2dVertex
 10
0.3199293166462649
 20
0.2162605958725035
 30
0.0
 70
     8
  0
VERTEX
  5
9DF
330
9C2
100
AcDbEntity
  8
0
370
    20
100
AcDbVertex
100
AcDb2dVertex
 10
0.3169537171014003
 20
0.2174304985574096
 30
0.0
 70
     8
  0
VERTEX
  5
9E0
330
9C2
100
AcDbEntity
  8
0
370
    20
100
AcDbVertex
100
AcDb2dVertex
 10
0.3139993697609533
 20
0.2184987539789012
 30
0.0
 70
     8
  0
VERTEX
  5
9E1
330
9C2
100
AcDbEntity
  8
0
370
    20
100
AcDbVertex
100
AcDb2dVertex
 10
0.3110611049763392
 20
0.219459045012778
 30
0.0
 70
     8
  0
VERTEX
  5
9E2
330
9C2
100
AcDbEntity
  8
0
370
    20
100
AcDbVertex
100
AcDb2dVertex
 10
0.3081337530989714
 20
0.2203050545348402
 30
0.0
 70
     8
  0
VERTEX
  5
9E3
330
9C2
100
AcDbEntity
  8
0
370
    20
100
AcDbVertex
100
AcDb2dVertex
 10
0.3052121444802633
 20
0.2210304654208877
 30
0.0
 70
     8
  0
VERTEX
  5
9E4
330
9C2
100
AcDbEntity
  8
0
370
    20
100
AcDbVertex
100
AcDb2dVertex
 10
0.3022911094716285
 20
0.2216289605467204
 30
0.0
 70
     8
  0
VERTEX
  5
9E5
330
9C2
100
AcDbEntity
  8
0
370
    20
100
AcDbVertex
100
AcDb2dVertex
 10
0.2993628937628685
 20
0.2220966156193179
 30
0.0
 70
     8
  0
VERTEX
  5
9E6
330
9C2
100
AcDbEntity
  8
0
370
    20
100
AcDbVertex
100
AcDb2dVertex
 10
0.2964094043973304
 20
0.2224390776703774
 30
0.0
 70
     8
  0
VERTEX
  5
9E7
330
9C2
100
AcDbEntity
  8
0
370
    20
100
AcDbVertex
100
AcDb2dVertex
 10
0.2934099637567513
 20
0.2226643865627756
 30
0.0
 70
     8
  0
VERTEX
  5
9E8
330
9C2
100
AcDbEntity
  8
0
370
    20
100
AcDbVertex
100
AcDb2dVertex
 10
0.2903438942228664
 20
0.2227805821593891
 30
0.0
 70
     8
  0
VERTEX
  5
9E9
330
9C2
100
AcDbEntity
  8
0
370
    20
100
AcDbVertex
100
AcDb2dVertex
 10
0.2871905181774092
 20
0.2227957043230947
 30
0.0
 70
     8
  0
VERTEX
  5
9EA
330
9C2
100
AcDbEntity
  8
0
370
    20
100
AcDbVertex
100
AcDb2dVertex
 10
0.2839291580021186
 20
0.2227177929167687
 30
0.0
 70
     8
  0
VERTEX
  5
9EB
330
9C2
100
AcDbEntity
  8
0
370
    20
100
AcDbVertex
100
AcDb2dVertex
 10
0.2805391360787297
 20
0.2225548878032884
 30
0.0
 70
     8
  0
VERTEX
  5
9EC
330
9C2
100
AcDbEntity
  8
0
370
    20
100
AcDbVertex
100
AcDb2dVertex
 10
0.2769997747889761
 20
0.22231502884553
 30
0.0
 70
     8
  0
VERTEX
  5
9ED
330
9C2
100
AcDbEntity
  8
0
370
    20
100
AcDbVertex
100
AcDb2dVertex
 10
0.2733019798672505
 20
0.2220028102673484
 30
0.0
 70
     8
  0
VERTEX
  5
9EE
330
9C2
100
AcDbEntity
  8
0
370
    20
100
AcDbVertex
100
AcDb2dVertex
 10
0.2694829904585685
 20
0.2216090437365115
 30
0.0
 70
     8
  0
VERTEX
  5
9EF
330
9C2
100
AcDbEntity
  8
0
370
    20
100
AcDbVertex
100
AcDb2dVertex
 10
0.2655916290605997
 20
0.221121095281765
 30
0.0
 70
     8
  0
VERTEX
  5
9F0
330
9C2
100
AcDbEntity
  8
0
370
    20
100
AcDbVertex
100
AcDb2dVertex
 10
0.2616767181710156
 20
0.220526330931855
 30
0.0
 70
     8
  0
VERTEX
  5
9F1
330
9C2
100
AcDbEntity
  8
0
370
    20
100
AcDbVertex
100
AcDb2dVertex
 10
0.2577870802874909
 20
0.2198121167155274
 30
0.0
 70
     8
  0
VERTEX
  5
9F2
330
9C2
100
AcDbEntity
  8
0
370
    20
100
AcDbVertex
100
AcDb2dVertex
 10
0.2539715379076917
 20
0.2189658186615278
 30
0.0
 70
     8
  0
VERTEX
  5
9F3
330
9C2
100
AcDbEntity
  8
0
370
    20
100
AcDbVertex
100
AcDb2dVertex
 10
0.2502789135292929
 20
0.2179748027986022
 30
0.0
 70
     8
  0
VERTEX
  5
9F4
330
9C2
100
AcDbEntity
  8
0
370
    20
100
AcDbVertex
100
AcDb2dVertex
 10
0.2467580296499641
 20
0.2168264351554968
 30
0.0
 70
     8
  0
VERTEX
  5
9F5
330
9C2
100
AcDbEntity
  8
0
370
    20
100
AcDbVertex
100
AcDb2dVertex
 10
0.2434457424792953
 20
0.2155102831189894
 30
0.0
 70
     8
  0
VERTEX
  5
9F6
330
9C2
100
AcDbEntity
  8
0
370
    20
100
AcDbVertex
100
AcDb2dVertex
 10
0.2403310430745478
 20
0.214024719507987
 30
0.0
 70
     8
  0
VERTEX
  5
9F7
330
9C2
100
AcDbEntity
  8
0
370
    20
100
AcDbVertex
100
AcDb2dVertex
 10
0.2373909562048997
 20
0.2123703184994286
 30
0.0
 70
     8
  0
VERTEX
  5
9F8
330
9C2
100
AcDbEntity
  8
0
370
    20
100
AcDbVertex
100
AcDb2dVertex
 10
0.2346025066395327
 20
0.2105476542702536
 30
0.0
 70
     8
  0
VERTEX
  5
9F9
330
9C2
100
AcDbEntity
  8
0
370
    20
100
AcDbVertex
100
AcDb2dVertex
 10
0.2319427191476269
 20
0.2085573009974007
 30
0.0
 70
     8
  0
VERTEX
  5
9FA
330
9C2
100
AcDbEntity
  8
0
370
    20
100
AcDbVertex
100
AcDb2dVertex
 10
0.2293886184983567
 20
0.2063998328578092
 30
0.0
 70
     8
  0
VERTEX
  5
9FB
330
9C2
100
AcDbEntity
  8
0
370
    20
100
AcDbVertex
100
AcDb2dVertex
 10
0.2269172294609074
 20
0.2040758240284184
 30
0.0
 70
     8
  0
VERTEX
  5
9FC
330
9C2
100
AcDbEntity
  8
0
370
    20
100
AcDbVertex
100
AcDb2dVertex
 10
0.2245055768044555
 20
0.201585848686167
 30
0.0
 70
     8
  0
VERTEX
  5
9FD
330
9C2
100
AcDbEntity
  8
0
370
    20
100
AcDbVertex
100
AcDb2dVertex
 10
0.2221395882248647
 20
0.1989321081428966
 30
0.0
 70
     8
  0
VERTEX
  5
9FE
330
9C2
100
AcDbEntity
  8
0
370
    20
100
AcDbVertex
100
AcDb2dVertex
 10
0.2198408031247325
 20
0.1961233122500567
 30
0.0
 70
     8
  0
VERTEX
  5
9FF
330
9C2
100
AcDbEntity
  8
0
370
    20
100
AcDbVertex
100
AcDb2dVertex
 10
0.2176396638333458
 20
0.1931697979939992
 30
0.0
 70
     8
  0
VERTEX
  5
A00
330
9C2
100
AcDbEntity
  8
0
370
    20
100
AcDbVertex
100
AcDb2dVertex
 10
0.215566612679984
 20
0.190081902361076
 30
0.0
 70
     8
  0
VERTEX
  5
A01
330
9C2
100
AcDbEntity
  8
0
370
    20
100
AcDbVertex
100
AcDb2dVertex
 10
0.2136520919939304
 20
0.1868699623376391
 30
0.0
 70
     8
  0
VERTEX
  5
A02
330
9C2
100
AcDbEntity
  8
0
370
    20
100
AcDbVertex
100
AcDb2dVertex
 10
0.2119265441044664
 20
0.1835443149100399
 30
0.0
 70
     8
  0
VERTEX
  5
A03
330
9C2
100
AcDbEntity
  8
0
370
    20
100
AcDbVertex
100
AcDb2dVertex
 10
0.2104204113408787
 20
0.1801152970646306
 30
0.0
 70
     8
  0
VERTEX
  5
A04
330
9C2
100
AcDbEntity
  8
0
370
    20
100
AcDbVertex
100
AcDb2dVertex
 10
0.209164136032447
 20
0.1765932457877628
 30
0.0
 70
     8
  0
VERTEX
  5
A05
330
9C2
100
AcDbEntity
  8
0
370
    20
100
AcDbVertex
100
AcDb2dVertex
 10
0.2081800233983966
 20
0.1729914651893847
 30
0.0
 70
     8
  0
VERTEX
  5
A06
330
9C2
100
AcDbEntity
  8
0
370
    20
100
AcDbVertex
100
AcDb2dVertex
 10
0.2074578302177183
 20
0.1693351278738278
 30
0.0
 70
     8
  0
VERTEX
  5
A07
330
9C2
100
AcDbEntity
  8
0
370
    20
100
AcDbVertex
100
AcDb2dVertex
 10
0.2069791761593418
 20
0.1656523735690198
 30
0.0
 70
     8
  0
VERTEX
  5
A08
330
9C2
100
AcDbEntity
  8
0
370
    20
100
AcDbVertex
100
AcDb2dVertex
 10
0.2067256808922
 20
0.1619713420028885
 30
0.0
 70
     8
  0
VERTEX
  5
A09
330
9C2
100
AcDbEntity
  8
0
370
    20
100
AcDbVertex
100
AcDb2dVertex
 10
0.2066789640852225
 20
0.1583201729033618
 30
0.0
 70
     8
  0
VERTEX
  5
A0A
330
9C2
100
AcDbEntity
  8
0
370
    20
100
AcDbVertex
100
AcDb2dVertex
 10
0.2068206454073422
 20
0.1547270059983672
 30
0.0
 70
     8
  0
VERTEX
  5
A0B
330
9C2
100
AcDbEntity
  8
0
370
    20
100
AcDbVertex
100
AcDb2dVertex
 10
0.2071323445274924
 20
0.1512199810158326
 30
0.0
 70
     8
  0
VERTEX
  5
A0C
330
9C2
100
AcDbEntity
  8
0
370
    20
100
AcDbVertex
100
AcDb2dVertex
 10
0.2075956811146007
 20
0.1478272376836857
 30
0.0
 70
     8
  0
VERTEX
  5
A0D
330
9C2
100
AcDbEntity
  8
0
370
    20
100
AcDbVertex
100
AcDb2dVertex
 10
0.2082000290529038
 20
0.1445705029325932
 30
0.0
 70
     8
  0
VERTEX
  5
A0E
330
9C2
100
AcDbEntity
  8
0
370
    20
100
AcDbVertex
100
AcDb2dVertex
 10
0.2089657790878459
 20
0.1414458525041777
 30
0.0
 70
     8
  0
VERTEX
  5
A0F
330
9C2
100
AcDbEntity
  8
0
370
    20
100
AcDbVertex
100
AcDb2dVertex
 10
0.2099210761801711
 20
0.1384429493428012
 30
0.0
 70
     8
  0
VERTEX
  5
A10
330
9C2
100
AcDbEntity
  8
0
370
    20
100
AcDbVertex
100
AcDb2dVertex
 10
0.2110940652906308
 20
0.1355514563928249
 30
0.0
 70
     8
  0
VERTEX
  5
A11
330
9C2
100
AcDbEntity
  8
0
370
    20
100
AcDbVertex
100
AcDb2dVertex
 10
0.2125128913799674
 20
0.1327610365986108
 30
0.0
 70
     8
  0
VERTEX
  5
A12
330
9C2
100
AcDbEntity
  8
0
370
    20
100
AcDbVertex
100
AcDb2dVertex
 10
0.2142056994089305
 20
0.1300613529045204
 30
0.0
 70
     8
  0
VERTEX
  5
A13
330
9C2
100
AcDbEntity
  8
0
370
    20
100
AcDbVertex
100
AcDb2dVertex
 10
0.2162006343382679
 20
0.1274420682549154
 30
0.0
 70
     8
  0
VERTEX
  5
A14
330
9C2
100
AcDbEntity
  8
0
370
    20
100
AcDbVertex
100
AcDb2dVertex
 10
0.2185258411287236
 20
0.1248928455941575
 30
0.0
 70
     8
  0
VERTEX
  5
A15
330
9C2
100
AcDbEntity
  8
0
370
    20
100
AcDbVertex
100
AcDb2dVertex
 10
0.2212006574702681
 20
0.1224053578438752
 30
0.0
 70
     8
  0
VERTEX
  5
A16
330
9C2
100
AcDbEntity
  8
0
370
    20
100
AcDbVertex
100
AcDb2dVertex
 10
0.2242091919697557
 20
0.1199793178347647
 30
0.0
 70
     8
  0
VERTEX
  5
A17
330
9C2
100
AcDbEntity
  8
0
370
    20
100
AcDbVertex
100
AcDb2dVertex
 10
0.2275267459632637
 20
0.1176164483747893
 30
0.0
 70
     8
  0
VERTEX
  5
A18
330
9C2
100
AcDbEntity
  8
0
370
    20
100
AcDbVertex
100
AcDb2dVertex
 10
0.2311286207868708
 20
0.1153184722719123
 30
0.0
 70
     8
  0
VERTEX
  5
A19
330
9C2
100
AcDbEntity
  8
0
370
    20
100
AcDbVertex
100
AcDb2dVertex
 10
0.2349901177766522
 20
0.1130871123340966
 30
0.0
 70
     8
  0
VERTEX
  5
A1A
330
9C2
100
AcDbEntity
  8
0
370
    20
100
AcDbVertex
100
AcDb2dVertex
 10
0.2390865382686869
 20
0.1109240913693055
 30
0.0
 70
     8
  0
VERTEX
  5
A1B
330
9C2
100
AcDbEntity
  8
0
370
    20
100
AcDbVertex
100
AcDb2dVertex
 10
0.2433931835990517
 20
0.1088311321855022
 30
0.0
 70
     8
  0
VERTEX
  5
A1C
330
9C2
100
AcDbEntity
  8
0
370
    20
100
AcDbVertex
100
AcDb2dVertex
 10
0.247885355103822
 20
0.10680995759065
 30
0.0
 70
     8
  0
VERTEX
  5
A1D
330
9C2
100
AcDbEntity
  8
0
370
    20
100
AcDbVertex
100
AcDb2dVertex
 10
0.2525389285289936
 20
0.1048603761462448
 30
0.0
 70
     8
  0
VERTEX
  5
A1E
330
9C2
100
AcDbEntity
  8
0
370
    20
100
AcDbVertex
100
AcDb2dVertex
 10
0.2573320772602337
 20
0.1029745394279137
 30
0.0
 70
     8
  0
VERTEX
  5
A1F
330
9C2
100
AcDbEntity
  8
0
370
    20
100
AcDbVertex
100
AcDb2dVertex
 10
0.2622435490931192
 20
0.1011426847648171
 30
0.0
 70
     8
  0
VERTEX
  5
A20
330
9C2
100
AcDbEntity
  8
0
370
    20
100
AcDbVertex
100
AcDb2dVertex
 10
0.2672520918232326
 20
0.0993550494861151
 30
0.0
 70
     8
  0
VERTEX
  5
A21
330
9C2
100
AcDbEntity
  8
0
370
    20
100
AcDbVertex
100
AcDb2dVertex
 10
0.2723364532461563
 20
0.097601870920968
 30
0.0
 70
     8
  0
VERTEX
  5
A22
330
9C2
100
AcDbEntity
  8
0
370
    20
100
AcDbVertex
100
AcDb2dVertex
 10
0.2774753811574708
 20
0.0958733863985357
 30
0.0
 70
     8
  0
VERTEX
  5
A23
330
9C2
100
AcDbEntity
  8
0
370
    20
100
AcDbVertex
100
AcDb2dVertex
 10
0.2826476233527604
 20
0.0941598332479786
 30
0.0
 70
     8
  0
VERTEX
  5
A24
330
9C2
100
AcDbEntity
  8
0
370
    20
100
AcDbVertex
100
AcDb2dVertex
 10
0.287831927627602
 20
0.0924514487984568
 30
0.0
 70
     8
  0
VERTEX
  5
A25
330
9C2
100
AcDbEntity
  8
0
370
    20
100
AcDbVertex
100
AcDb2dVertex
 10
0.2930014893698054
 20
0.0907391403561557
 30
0.0
 70
     8
  0
VERTEX
  5
A26
330
9C2
100
AcDbEntity
  8
0
370
    20
100
AcDbVertex
100
AcDb2dVertex
 10
0.2981072943360718
 20
0.0890164951353622
 30
0.0
 70
     8
  0
VERTEX
  5
A27
330
9C2
100
AcDbEntity
  8
0
370
    20
100
AcDbVertex
100
AcDb2dVertex
 10
0.3030947758753317
 20
0.0872777703273881
 30
0.0
 70
     8
  0
VERTEX
  5
A28
330
9C2
100
AcDbEntity
  8
0
370
    20
100
AcDbVertex
100
AcDb2dVertex
 10
0.3079093673365136
 20
0.0855172231235457
 30
0.0
 70
     8
  0
VERTEX
  5
A29
330
9C2
100
AcDbEntity
  8
0
370
    20
100
AcDbVertex
100
AcDb2dVertex
 10
0.3124965020685426
 20
0.0837291107151469
 30
0.0
 70
     8
  0
VERTEX
  5
A2A
330
9C2
100
AcDbEntity
  8
0
370
    20
100
AcDbVertex
100
AcDb2dVertex
 10
0.3168016134203508
 20
0.081907690293504
 30
0.0
 70
     8
  0
VERTEX
  5
A2B
330
9C2
100
AcDbEntity
  8
0
370
    20
100
AcDbVertex
100
AcDb2dVertex
 10
0.3207701347408669
 20
0.0800472190499286
 30
0.0
 70
     8
  0
VERTEX
  5
A2C
330
9C2
100
AcDbEntity
  8
0
370
    20
100
AcDbVertex
100
AcDb2dVertex
 10
0.3243474993790159
 20
0.0781419541757333
 30
0.0
 70
     8
  0
VERTEX
  5
A2D
330
9C2
100
AcDbEntity
  8
0
370
    20
100
AcDbVertex
100
AcDb2dVertex
 10
0.327493404611479
 20
0.0761885456934094
 30
0.0
 70
     8
  0
VERTEX
  5
A2E
330
9C2
100
AcDbEntity
  8
0
370
    20
100
AcDbVertex
100
AcDb2dVertex
 10
0.3302246034259451
 20
0.074193214950166
 30
0.0
 70
     8
  0
VERTEX
  5
A2F
330
9C2
100
AcDbEntity
  8
0
370
    20
100
AcDbVertex
100
AcDb2dVertex
 10
0.3325721127378465
 20
0.0721645761243919
 30
0.0
 70
     8
  0
VERTEX
  5
A30
330
9C2
100
AcDbEntity
  8
0
370
    20
100
AcDbVertex
100
AcDb2dVertex
 10
0.3345669494626211
 20
0.070111243394476
 30
0.0
 70
     8
  0
VERTEX
  5
A31
330
9C2
100
AcDbEntity
  8
0
370
    20
100
AcDbVertex
100
AcDb2dVertex
 10
0.3362401305157086
 20
0.0680418309388067
 30
0.0
 70
     8
  0
VERTEX
  5
A32
330
9C2
100
AcDbEntity
  8
0
370
    20
100
AcDbVertex
100
AcDb2dVertex
 10
0.3376226728125431
 20
0.0659649529357727
 30
0.0
 70
     8
  0
VERTEX
  5
A33
330
9C2
100
AcDbEntity
  8
0
370
    20
100
AcDbVertex
100
AcDb2dVertex
 10
0.3387455932685626
 20
0.0638892235637628
 30
0.0
 70
     8
  0
VERTEX
  5
A34
330
9C2
100
AcDbEntity
  8
0
370
    20
100
AcDbVertex
100
AcDb2dVertex
 10
0.3396399087992048
 20
0.0618232570011658
 30
0.0
 70
     8
  0
VERTEX
  5
A35
330
9C2
100
AcDbEntity
  8
0
370
    20
100
AcDbVertex
100
AcDb2dVertex
 10
0.3403307967139479
 20
0.0597737531568076
 30
0.0
 70
     8
  0
VERTEX
  5
A36
330
9C2
100
AcDbEntity
  8
0
370
    20
100
AcDbVertex
100
AcDb2dVertex
 10
0.3408200758984545
 20
0.0577397548612636
 30
0.0
 70
     8
  0
VERTEX
  5
A37
330
9C2
100
AcDbEntity
  8
0
370
    20
100
AcDbVertex
100
AcDb2dVertex
 10
0.3411037256324221
 20
0.0557183906755467
 30
0.0
 70
     8
  0
VERTEX
  5
A38
330
9C2
100
AcDbEntity
  8
0
370
    20
100
AcDbVertex
100
AcDb2dVertex
 10
0.3411777251955534
 20
0.0537067891606697
 30
0.0
 70
     8
  0
VERTEX
  5
A39
330
9C2
100
AcDbEntity
  8
0
370
    20
100
AcDbVertex
100
AcDb2dVertex
 10
0.3410380538675515
 20
0.0517020788776452
 30
0.0
 70
     8
  0
VERTEX
  5
A3A
330
9C2
100
AcDbEntity
  8
0
370
    20
100
AcDbVertex
100
AcDb2dVertex
 10
0.340680690928119
 20
0.0497013883874862
 30
0.0
 70
     8
  0
VERTEX
  5
A3B
330
9C2
100
AcDbEntity
  8
0
370
    20
100
AcDbVertex
100
AcDb2dVertex
 10
0.3401016156569554
 20
0.0477018462512052
 30
0.0
 70
     8
  0
VERTEX
  5
A3C
330
9C2
100
AcDbEntity
  8
0
370
    20
100
AcDbVertex
100
AcDb2dVertex
 10
0.3392968073337652
 20
0.0457005810298152
 30
0.0
 70
     8
  0
VERTEX
  5
A3D
330
9C2
100
AcDbEntity
  8
0
370
    20
100
AcDbVertex
100
AcDb2dVertex
 10
0.338264064123905
 20
0.0436975927002208
 30
0.0
 70
     8
  0
VERTEX
  5
A3E
330
9C2
100
AcDbEntity
  8
0
370
    20
100
AcDbVertex
100
AcDb2dVertex
 10
0.3370084597353671
 20
0.0417043669028929
 30
0.0
 70
     8
  0
VERTEX
  5
A3F
330
9C2
100
AcDbEntity
  8
0
370
    20
100
AcDbVertex
100
AcDb2dVertex
 10
0.3355368867617994
 20
0.0397352606941952
 30
0.0
 70
     8
  0
VERTEX
  5
A40
330
9C2
100
AcDbEntity
  8
0
370
    20
100
AcDbVertex
100
AcDb2dVertex
 10
0.3338562377968497
 20
0.0378046311304906
 30
0.0
 70
     8
  0
VERTEX
  5
A41
330
9C2
100
AcDbEntity
  8
0
370
    20
100
AcDbVertex
100
AcDb2dVertex
 10
0.3319734054341676
 20
0.0359268352681422
 30
0.0
 70
     8
  0
VERTEX
  5
A42
330
9C2
100
AcDbEntity
  8
0
370
    20
100
AcDbVertex
100
AcDb2dVertex
 10
0.3298952822673993
 20
0.0341162301635132
 30
0.0
 70
     8
  0
VERTEX
  5
A43
330
9C2
100
AcDbEntity
  8
0
370
    20
100
AcDbVertex
100
AcDb2dVertex
 10
0.3276287608901942
 20
0.0323871728729666
 30
0.0
 70
     8
  0
VERTEX
  5
A44
330
9C2
100
AcDbEntity
  8
0
370
    20
100
AcDbVertex
100
AcDb2dVertex
 10
0.3251807338962003
 20
0.0307540204528656
 30
0.0
 70
     8
  0
VERTEX
  5
A45
330
9C2
100
AcDbEntity
  8
0
370
    20
100
AcDbVertex
100
AcDb2dVertex
 10
0.3225613487149541
 20
0.0292294070938715
 30
0.0
 70
     8
  0
VERTEX
  5
A46
330
9C2
100
AcDbEntity
  8
0
370
    20
100
AcDbVertex
100
AcDb2dVertex
 10
0.3197937721195512
 20
0.0278190755238379
 30
0.0
 70
     8
  0
VERTEX
  5
A47
330
9C2
100
AcDbEntity
  8
0
370
    20
100
AcDbVertex
100
AcDb2dVertex
 10
0.3169044257189792
 20
0.0265270456049169
 30
0.0
 70
     8
  0
VERTEX
  5
A48
330
9C2
100
AcDbEntity
  8
0
370
    20
100
AcDbVertex
100
AcDb2dVertex
 10
0.3139197311222173
 20
0.0253573371992602
 30
0.0
 70
     8
  0
VERTEX
  5
A49
330
9C2
100
AcDbEntity
  8
0
370
    20
100
AcDbVertex
100
AcDb2dVertex
 10
0.3108661099382548
 20
0.0243139701690196
 30
0.0
 70
     8
  0
VERTEX
  5
A4A
330
9C2
100
AcDbEntity
  8
0
370
    20
100
AcDbVertex
100
AcDb2dVertex
 10
0.3077699837760743
 20
0.023400964376347
 30
0.0
 70
     8
  0
VERTEX
  5
A4B
330
9C2
100
AcDbEntity
  8
0
370
    20
100
AcDbVertex
100
AcDb2dVertex
 10
0.3046577742446619
 20
0.0226223396833945
 30
0.0
 70
     8
  0
VERTEX
  5
A4C
330
9C2
100
AcDbEntity
  8
0
370
    20
100
AcDbVertex
100
AcDb2dVertex
 10
0.3015559029529999
 20
0.0219821159523135
 30
0.0
 70
     8
  0
VERTEX
  5
A4D
330
9C2
100
AcDbEntity
  8
0
370
    20
100
AcDbVertex
100
AcDb2dVertex
 10
0.2984847605109682
 20
0.0214830687873621
 30
0.0
 70
     8
  0
VERTEX
  5
A4E
330
9C2
100
AcDbEntity
  8
0
370
    20
100
AcDbVertex
100
AcDb2dVertex
 10
0.2954406135320155
 20
0.0211229967612214
 30
0.0
 70
     8
  0
VERTEX
  5
A4F
330
9C2
100
AcDbEntity
  8
0
370
    20
100
AcDbVertex
100
AcDb2dVertex
 10
0.2924136976304812
 20
0.020898454188679
 30
0.0
 70
     8
  0
VERTEX
  5
A50
330
9C2
100
AcDbEntity
  8
0
370
    20
100
AcDbVertex
100
AcDb2dVertex
 10
0.2893942484207112
 20
0.0208059953845218
 30
0.0
 70
     8
  0
VERTEX
  5
A51
330
9C2
100
AcDbEntity
  8
0
370
    20
100
AcDbVertex
100
AcDb2dVertex
 10
0.2863725015170431
 20
0.0208421746635371
 30
0.0
 70
     8
  0
VERTEX
  5
A52
330
9C2
100
AcDbEntity
  8
0
370
    20
100
AcDbVertex
100
AcDb2dVertex
 10
0.283338692533821
 20
0.0210035463405123
 30
0.0
 70
     8
  0
VERTEX
  5
A53
330
9C2
100
AcDbEntity
  8
0
370
    20
100
AcDbVertex
100
AcDb2dVertex
 10
0.280283057085386
 20
0.0212866647302343
 30
0.0
 70
     8
  0
VERTEX
  5
A54
330
9C2
100
AcDbEntity
  8
0
370
    20
100
AcDbVertex
100
AcDb2dVertex
 10
0.2771958307860807
 20
0.0216880841474907
 30
0.0
 70
     8
  0
VERTEX
  5
A55
330
9C2
100
AcDbEntity
  8
0
370
    20
100
AcDbVertex
100
AcDb2dVertex
 10
0.2740731845256636
 20
0.022205603199606
 30
0.0
 70
     8
  0
VERTEX
  5
A56
330
9C2
100
AcDbEntity
  8
0
370
    20
100
AcDbVertex
100
AcDb2dVertex
 10
0.2709350302955702
 20
0.0228419976640538
 30
0.0
 70
     8
  0
VERTEX
  5
A57
330
9C2
100
AcDbEntity
  8
0
370
    20
100
AcDbVertex
100
AcDb2dVertex
 10
0.2678072153626481
 20
0.0236012876108457
 30
0.0
 70
     8
  0
VERTEX
  5
A58
330
9C2
100
AcDbEntity
  8
0
370
    20
100
AcDbVertex
100
AcDb2dVertex
 10
0.2647155869937503
 20
0.0244874931099928
 30
0.0
 70
     8
  0
VERTEX
  5
A59
330
9C2
100
AcDbEntity
  8
0
370
    20
100
AcDbVertex
100
AcDb2dVertex
 10
0.2616859924557247
 20
0.0255046342315064
 30
0.0
 70
     8
  0
VERTEX
  5
A5A
330
9C2
100
AcDbEntity
  8
0
370
    20
100
AcDbVertex
100
AcDb2dVertex
 10
0.2587442790154242
 20
0.0266567310453978
 30
0.0
 70
     8
  0
VERTEX
  5
A5B
330
9C2
100
AcDbEntity
  8
0
370
    20
100
AcDbVertex
100
AcDb2dVertex
 10
0.2559162939397002
 20
0.027947803621678
 30
0.0
 70
     8
  0
VERTEX
  5
A5C
330
9C2
100
AcDbEntity
  8
0
370
    20
100
AcDbVertex
100
AcDb2dVertex
 10
0.2532278844954003
 20
0.0293818720303587
 30
0.0
 70
     8
  0
VERTEX
  5
A5D
330
9C2
100
AcDbEntity
  8
0
370
    20
100
AcDbVertex
100
AcDb2dVertex
 10
0.2507005900715704
 20
0.0309575006558758
 30
0.0
 70
     8
  0
VERTEX
  5
A5E
330
9C2
100
AcDbEntity
  8
0
370
    20
100
AcDbVertex
100
AcDb2dVertex
 10
0.248338718546016
 20
0.0326514311403644
 30
0.0
 70
     8
  0
VERTEX
  5
A5F
330
9C2
100
AcDbEntity
  8
0
370
    20
100
AcDbVertex
100
AcDb2dVertex
 10
0.2461422699187388
 20
0.0344349494403852
 30
0.0
 70
     8
  0
VERTEX
  5
A60
330
9C2
100
AcDbEntity
  8
0
370
    20
100
AcDbVertex
100
AcDb2dVertex
 10
0.2441112441897388
 20
0.0362793415124982
 30
0.0
 70
     8
  0
VERTEX
  5
A61
330
9C2
100
AcDbEntity
  8
0
370
    20
100
AcDbVertex
100
AcDb2dVertex
 10
0.2422456413590144
 20
0.0381558933132638
 30
0.0
 70
     8
  0
VERTEX
  5
A62
330
9C2
100
AcDbEntity
  8
0
370
    20
100
AcDbVertex
100
AcDb2dVertex
 10
0.2405454614265672
 20
0.0400358907992422
 30
0.0
 70
     8
  0
VERTEX
  5
A63
330
9C2
100
AcDbEntity
  8
0
370
    20
100
AcDbVertex
100
AcDb2dVertex
 10
0.2390107043923972
 20
0.0418906199269937
 30
0.0
 70
     8
  0
VERTEX
  5
A64
330
9C2
100
AcDbEntity
  8
0
370
    20
100
AcDbVertex
100
AcDb2dVertex
 10
0.2376413702565028
 20
0.0436913666530786
 30
0.0
 70
     8
  0
VERTEX
  5
A65
330
9C2
100
AcDbEntity
  8
0
370
    20
100
AcDbVertex
100
AcDb2dVertex
 10
0.2364356401332266
 20
0.0454148726080845
 30
0.0
 70
     8
  0
VERTEX
  5
A66
330
9C2
100
AcDbEntity
  8
0
370
    20
100
AcDbVertex
100
AcDb2dVertex
 10
0.2353844195942809
 20
0.0470597021187087
 30
0.0
 70
     8
  0
VERTEX
  5
A67
330
9C2
100
AcDbEntity
  8
0
370
    20
100
AcDbVertex
100
AcDb2dVertex
 10
0.2344767953257207
 20
0.0486298751856762
 30
0.0
 70
     8
  0
VERTEX
  5
A68
330
9C2
100
AcDbEntity
  8
0
370
    20
100
AcDbVertex
100
AcDb2dVertex
 10
0.2337018540135975
 20
0.0501294118097115
 30
0.0
 70
     8
  0
VERTEX
  5
A69
330
9C2
100
AcDbEntity
  8
0
370
    20
100
AcDbVertex
100
AcDb2dVertex
 10
0.2330486823439664
 20
0.0515623319915397
 30
0.0
 70
     8
  0
VERTEX
  5
A6A
330
9C2
100
AcDbEntity
  8
0
370
    20
100
AcDbVertex
100
AcDb2dVertex
 10
0.2325063670028786
 20
0.0529326557318852
 30
0.0
 70
     8
  0
VERTEX
  5
A6B
330
9C2
100
AcDbEntity
  8
0
370
    20
100
AcDbVertex
100
AcDb2dVertex
 10
0.2320639946763912
 20
0.0542444030314731
 30
0.0
 70
     8
  0
VERTEX
  5
A6C
330
9C2
100
AcDbEntity
  8
0
370
    20
100
AcDbVertex
100
AcDb2dVertex
 10
0.2317106520505554
 20
0.0555015938910279
 30
0.0
 70
     8
  0
VERTEX
  5
A6D
330
9C2
100
AcDbEntity
  8
0
370
    20
100
AcDbVertex
100
AcDb2dVertex
 10
0.2314223106899522
 20
0.0567059511877994
 30
0.0
 70
     8
  0
VERTEX
  5
A6E
330
9C2
100
AcDbEntity
  8
0
370
    20
100
AcDbVertex
100
AcDb2dVertex
 10
0.2311224816732693
 20
0.0578500093051364
 30
0.0
 70
     8
  0
VERTEX
  5
A6F
330
9C2
100
AcDbEntity
  8
0
370
    20
100
AcDbVertex
100
AcDb2dVertex
 10
0.2307215609577202
 20
0.0589240055029127
 30
0.0
 70
     8
  0
VERTEX
  5
A70
330
9C2
100
AcDbEntity
  8
0
370
    20
100
AcDbVertex
100
AcDb2dVertex
 10
0.2301299445005167
 20
0.059918177041002
 30
0.0
 70
     8
  0
VERTEX
  5
A71
330
9C2
100
AcDbEntity
  8
0
370
    20
100
AcDbVertex
100
AcDb2dVertex
 10
0.2292580282588741
 20
0.0608227611792779
 30
0.0
 70
     8
  0
VERTEX
  5
A72
330
9C2
100
AcDbEntity
  8
0
370
    20
100
AcDbVertex
100
AcDb2dVertex
 10
0.2280162081900041
 20
0.0616279951776143
 30
0.0
 70
     8
  0
VERTEX
  5
A73
330
9C2
100
AcDbEntity
  8
0
370
    20
100
AcDbVertex
100
AcDb2dVertex
 10
0.2263148802511239
 20
0.0623241162958849
 30
0.0
 70
     8
  0
VERTEX
  5
A74
330
9C2
100
AcDbEntity
  8
0
370
    20
100
AcDbVertex
100
AcDb2dVertex
 10
0.2240644403994434
 20
0.0629013617939633
 30
0.0
 70
     8
  0
VERTEX
  5
A75
330
9C2
100
AcDbEntity
  8
0
370
    20
100
AcDbVertex
100
AcDb2dVertex
 10
0.2212150319107078
 20
0.0633535703737184
 30
0.0
 70
     8
  0
VERTEX
  5
A76
330
9C2
100
AcDbEntity
  8
0
370
    20
100
AcDbVertex
100
AcDb2dVertex
 10
0.217875787334787
 20
0.0636889865049986
 30
0.0
 70
     8
  0
VERTEX
  5
A77
330
9C2
100
AcDbEntity
  8
0
370
    20
100
AcDbVertex
100
AcDb2dVertex
 10
0.2141955865400806
 20
0.0639194560996475
 30
0.0
 70
     8
  0
VERTEX
  5
A78
330
9C2
100
AcDbEntity
  8
0
370
    20
100
AcDbVertex
100
AcDb2dVertex
 10
0.2103233093949886
 20
0.0640568250695088
 30
0.0
 70
     8
  0
VERTEX
  5
A79
330
9C2
100
AcDbEntity
  8
0
370
    20
100
AcDbVertex
100
AcDb2dVertex
 10
0.2064078357679104
 20
0.0641129393264263
 30
0.0
 70
     8
  0
VERTEX
  5
A7A
330
9C2
100
AcDbEntity
  8
0
370
    20
100
AcDbVertex
100
AcDb2dVertex
 10
0.2025980455272478
 20
0.0640996447822431
 30
0.0
 70
     8
  0
VERTEX
  5
A7B
330
9C2
100
AcDbEntity
  8
0
370
    20
100
AcDbVertex
100
AcDb2dVertex
 10
0.1990428185413986
 20
0.0640287873488033
 30
0.0
 70
     8
  0
VERTEX
  5
A7C
330
9C2
100
AcDbEntity
  8
0
370
    20
100
AcDbVertex
100
AcDb2dVertex
 10
0.1958910346787643
 20
0.0639122129379502
 30
0.0
 70
     8
  0
VERTEX
  5
A7D
330
9C2
100
AcDbEntity
  8
0
370
    20
100
AcDbVertex
100
AcDb2dVertex
 10
0.1932648138972386
 20
0.0637495124147214
 30
0.0
 70
     8
  0
VERTEX
  5
A7E
330
9C2
100
AcDbEntity
  8
0
370
    20
100
AcDbVertex
100
AcDb2dVertex
 10
0.1911792365126796
 20
0.063491256456929
 30
0.0
 70
     8
  0
VERTEX
  5
A7F
330
9C2
100
AcDbEntity
  8
0
370
    20
100
AcDbVertex
100
AcDb2dVertex
 10
0.1896226229304414
 20
0.0630757606955796
 30
0.0
 70
     8
  0
VERTEX
  5
A80
330
9C2
100
AcDbEntity
  8
0
370
    20
100
AcDbVertex
100
AcDb2dVertex
 10
0.1885832935558778
 20
0.0624413407616796
 30
0.0
 70
     8
  0
VERTEX
  5
A81
330
9C2
100
AcDbEntity
  8
0
370
    20
100
AcDbVertex
100
AcDb2dVertex
 10
0.1880495687943409
 20
0.0615263122862351
 30
0.0
 70
     8
  0
VERTEX
  5
A82
330
9C2
100
AcDbEntity
  8
0
370
    20
100
AcDbVertex
100
AcDb2dVertex
 10
0.1880097690511864
 20
0.0602689909002525
 30
0.0
 70
     8
  0
VERTEX
  5
A83
330
9C2
100
AcDbEntity
  8
0
370
    20
100
AcDbVertex
100
AcDb2dVertex
 10
0.1884522147317664
 20
0.0586076922347381
 30
0.0
 70
     8
  0
VERTEX
  5
A84
330
9C2
100
AcDbEntity
  8
0
370
    20
100
AcDbVertex
100
AcDb2dVertex
 10
0.1893652262414331
 20
0.056480731920698
 30
0.0
 70
     8
  0
VERTEX
  5
A85
330
9C2
100
AcDbEntity
  8
0
370
    20
100
AcDbVertex
100
AcDb2dVertex
 10
0.1907316465110806
 20
0.0538514208365142
 30
0.0
 70
     8
  0
VERTEX
  5
A86
330
9C2
100
AcDbEntity
  8
0
370
    20
100
AcDbVertex
100
AcDb2dVertex
 10
0.1925124085737693
 20
0.0507830508500697
 30
0.0
 70
     8
  0
VERTEX
  5
A87
330
9C2
100
AcDbEntity
  8
0
370
    20
100
AcDbVertex
100
AcDb2dVertex
 10
0.1946629679880942
 20
0.0473639090766233
 30
0.0
 70
     8
  0
VERTEX
  5
A88
330
9C2
100
AcDbEntity
  8
0
370
    20
100
AcDbVertex
100
AcDb2dVertex
 10
0.1971387803126543
 20
0.0436822826314334
 30
0.0
 70
     8
  0
VERTEX
  5
A89
330
9C2
100
AcDbEntity
  8
0
370
    20
100
AcDbVertex
100
AcDb2dVertex
 10
0.1998953011060482
 20
0.0398264586297584
 30
0.0
 70
     8
  0
VERTEX
  5
A8A
330
9C2
100
AcDbEntity
  8
0
370
    20
100
AcDbVertex
100
AcDb2dVertex
 10
0.2028879859268731
 20
0.0358847241868575
 30
0.0
 70
     8
  0
VERTEX
  5
A8B
330
9C2
100
AcDbEntity
  8
0
370
    20
100
AcDbVertex
100
AcDb2dVertex
 10
0.2060722903337311
 20
0.0319453664179887
 30
0.0
 70
     8
  0
VERTEX
  5
A8C
330
9C2
100
AcDbEntity
  8
0
370
    20
100
AcDbVertex
100
AcDb2dVertex
 10
0.209403669885214
 20
0.0280966724384111
 30
0.0
 70
     8
  0
VERTEX
  5
A8D
330
9C2
100
AcDbEntity
  8
0
370
    20
100
AcDbVertex
100
AcDb2dVertex
 10
0.2128401299797638
 20
0.0244143302746325
 30
0.0
 70
     8
  0
VERTEX
  5
A8E
330
9C2
100
AcDbEntity
  8
0
370
    20
100
AcDbVertex
100
AcDb2dVertex
 10
0.2163498753751671
 20
0.02092363159816
 30
0.0
 70
     8
  0
VERTEX
  5
A8F
330
9C2
100
AcDbEntity
  8
0
370
    20
100
AcDbVertex
100
AcDb2dVertex
 10
0.2199036606690488
 20
0.01763726899175
 30
0.0
 70
     8
  0
VERTEX
  5
A90
330
9C2
100
AcDbEntity
  8
0
370
    20
100
AcDbVertex
100
AcDb2dVertex
 10
0.2234722404590368
 20
0.0145679350381587
 30
0.0
 70
     8
  0
VERTEX
  5
A91
330
9C2
100
AcDbEntity
  8
0
370
    20
100
AcDbVertex
100
AcDb2dVertex
 10
0.2270263693427594
 20
0.0117283223201429
 30
0.0
 70
     8
  0
VERTEX
  5
A92
330
9C2
100
AcDbEntity
  8
0
370
    20
100
AcDbVertex
100
AcDb2dVertex
 10
0.2305368019178413
 20
0.0091311234204589
 30
0.0
 70
     8
  0
VERTEX
  5
A93
330
9C2
100
AcDbEntity
  8
0
370
    20
100
AcDbVertex
100
AcDb2dVertex
 10
0.2339742927819106
 20
0.0067890309218632
 30
0.0
 70
     8
  0
VERTEX
  5
A94
330
9C2
100
AcDbEntity
  8
0
370
    20
100
AcDbVertex
100
AcDb2dVertex
 10
0.2373095965325938
 20
0.0047147374071119
 30
0.0
 70
     8
  0
VERTEX
  5
A95
330
9C2
100
AcDbEntity
  8
0
370
    20
100
AcDbVertex
100
AcDb2dVertex
 10
0.2405294862531662
 20
0.0029150967586138
 30
0.0
 70
     8
  0
VERTEX
  5
A96
330
9C2
100
AcDbEntity
  8
0
370
    20
100
AcDbVertex
100
AcDb2dVertex
 10
0.2436848089695083
 20
0.0013736080573838
 30
0.0
 70
     8
  0
VERTEX
  5
A97
330
9C2
100
AcDbEntity
  8
0
370
    20
100
AcDbVertex
100
AcDb2dVertex
 10
0.246842430193146
 20
0.0000679316840895
 30
0.0
 70
     8
  0
VERTEX
  5
A98
330
9C2
100
AcDbEntity
  8
0
370
    20
100
AcDbVertex
100
AcDb2dVertex
 10
0.2500692154356088
 20
-0.0010242719806025
 30
0.0
 70
     8
  0
VERTEX
  5
A99
330
9C2
100
AcDbEntity
  8
0
370
    20
100
AcDbVertex
100
AcDb2dVertex
 10
0.2534320302084261
 20
-0.0019253425560248
 30
0.0
 70
     8
  0
VERTEX
  5
A9A
330
9C2
100
AcDbEntity
  8
0
370
    20
100
AcDbVertex
100
AcDb2dVertex
 10
0.2569977400231238
 20
-0.0026576196615102
 30
0.0
 70
     8
  0
VERTEX
  5
A9B
330
9C2
100
AcDbEntity
  8
0
370
    20
100
AcDbVertex
100
AcDb2dVertex
 10
0.2608332103912314
 20
-0.0032434429163919
 30
0.0
 70
     8
  0
VERTEX
  5
A9C
330
9C2
100
AcDbEntity
  8
0
370
    20
100
AcDbVertex
100
AcDb2dVertex
 10
0.2650053068242784
 20
-0.0037051519400024
 30
0.0
 70
     8
  0
VERTEX
  5
A9D
330
9C2
100
AcDbEntity
  8
0
370
    20
100
AcDbVertex
100
AcDb2dVertex
 10
0.2695577684189203
 20
-0.0040592943149531
 30
0.0
 70
     8
  0
VERTEX
  5
A9E
330
9C2
100
AcDbEntity
  8
0
370
    20
100
AcDbVertex
100
AcDb2dVertex
 10
0.274441828612332
 20
-0.0042992494769688
 30
0.0
 70
     8
  0
VERTEX
  5
A9F
330
9C2
100
AcDbEntity
  8
0
370
    20
100
AcDbVertex
100
AcDb2dVertex
 10
0.2795855944268162
 20
-0.0044126048250521
 30
0.0
 70
     8
  0
VERTEX
  5
AA0
330
9C2
100
AcDbEntity
  8
0
370
    20
100
AcDbVertex
100
AcDb2dVertex
 10
0.2849171728846755
 20
-0.0043869477582063
 30
0.0
 70
     8
  0
VERTEX
  5
AA1
330
9C2
100
AcDbEntity
  8
0
370
    20
100
AcDbVertex
100
AcDb2dVertex
 10
0.2903646710082146
 20
-0.0042098656754341
 30
0.0
 70
     8
  0
VERTEX
  5
AA2
330
9C2
100
AcDbEntity
  8
0
370
    20
100
AcDbVertex
100
AcDb2dVertex
 10
0.2958561958197325
 20
-0.0038689459757387
 30
0.0
 70
     8
  0
VERTEX
  5
AA3
330
9C2
100
AcDbEntity
  8
0
370
    20
100
AcDbVertex
100
AcDb2dVertex
 10
0.3013198543415374
 20
-0.0033517760581232
 30
0.0
 70
     8
  0
VERTEX
  5
AA4
330
9C2
100
AcDbEntity
  8
0
370
    20
100
AcDbVertex
100
AcDb2dVertex
 10
0.3066837535959284
 20
-0.0026459433215902
 30
0.0
 70
     8
  0
VERTEX
  5
AA5
330
9C2
100
AcDbEntity
  8
0
370
    20
100
AcDbVertex
100
AcDb2dVertex
 10
0.3118867065155708
 20
-0.0017409207039178
 30
0.0
 70
     8
  0
VERTEX
  5
AA6
330
9C2
100
AcDbEntity
  8
0
370
    20
100
AcDbVertex
100
AcDb2dVertex
 10
0.3169103496745702
 20
-0.0006337232979841
 30
0.0
 70
     8
  0
VERTEX
  5
AA7
330
9C2
100
AcDbEntity
  8
0
370
    20
100
AcDbVertex
100
AcDb2dVertex
 10
0.3217470255573929
 20
0.0006767482645583
 30
0.0
 70
     8
  0
VERTEX
  5
AA8
330
9C2
100
AcDbEntity
  8
0
370
    20
100
AcDbVertex
100
AcDb2dVertex
 10
0.3263890766485087
 20
0.0021915933520563
 30
0.0
 70
     8
  0
VERTEX
  5
AA9
330
9C2
100
AcDbEntity
  8
0
370
    20
100
AcDbVertex
100
AcDb2dVertex
 10
0.3308288454323822
 20
0.0039119113328573
 30
0.0
 70
     8
  0
VERTEX
  5
AAA
330
9C2
100
AcDbEntity
  8
0
370
    20
100
AcDbVertex
100
AcDb2dVertex
 10
0.3350586743934816
 20
0.0058388015753083
 30
0.0
 70
     8
  0
VERTEX
  5
AAB
330
9C2
100
AcDbEntity
  8
0
370
    20
100
AcDbVertex
100
AcDb2dVertex
 10
0.3390709060162749
 20
0.0079733634477562
 30
0.0
 70
     8
  0
VERTEX
  5
AAC
330
9C2
100
AcDbEntity
  8
0
370
    20
100
AcDbVertex
100
AcDb2dVertex
 10
0.3428578827852267
 20
0.0103166963185486
 30
0.0
 70
     8
  0
VERTEX
  5
AAD
330
9C2
100
AcDbEntity
  8
0
370
    20
100
AcDbVertex
100
AcDb2dVertex
 10
0.3464131282966445
 20
0.0128654391589854
 30
0.0
 70
     8
  0
VERTEX
  5
AAE
330
9C2
100
AcDbEntity
  8
0
370
    20
100
AcDbVertex
100
AcDb2dVertex
 10
0.3497348905941759
 20
0.0155983893521796
 30
0.0
 70
     8
  0
VERTEX
  5
AAF
330
9C2
100
AcDbEntity
  8
0
370
    20
100
AcDbVertex
100
AcDb2dVertex
 10
0.3528225988333116
 20
0.0184898838841968
 30
0.0
 70
     8
  0
VERTEX
  5
AB0
330
9C2
100
AcDbEntity
  8
0
370
    20
100
AcDbVertex
100
AcDb2dVertex
 10
0.3556756821695401
 20
0.0215142597411031
 30
0.0
 70
     8
  0
VERTEX
  5
AB1
330
9C2
100
AcDbEntity
  8
0
370
    20
100
AcDbVertex
100
AcDb2dVertex
 10
0.3582935697583487
 20
0.0246458539089642
 30
0.0
 70
     8
  0
VERTEX
  5
AB2
330
9C2
100
AcDbEntity
  8
0
370
    20
100
AcDbVertex
100
AcDb2dVertex
 10
0.360675690755226
 20
0.0278590033738462
 30
0.0
 70
     8
  0
VERTEX
  5
AB3
330
9C2
100
AcDbEntity
  8
0
370
    20
100
AcDbVertex
100
AcDb2dVertex
 10
0.3628214743156608
 20
0.0311280451218148
 30
0.0
 70
     8
  0
VERTEX
  5
AB4
330
9C2
100
AcDbEntity
  8
0
370
    20
100
AcDbVertex
100
AcDb2dVertex
 10
0.3647303495951437
 20
0.0344273161389359
 30
0.0
 70
     8
  0
VERTEX
  5
AB5
330
9C2
100
AcDbEntity
  8
0
370
    20
100
AcDbVertex
100
AcDb2dVertex
 10
0.3664046000530572
 20
0.0377320060274236
 30
0.0
 70
     8
  0
VERTEX
  5
AB6
330
9C2
100
AcDbEntity
  8
0
370
    20
100
AcDbVertex
100
AcDb2dVertex
 10
0.3678579263643815
 20
0.0410207148540847
 30
0.0
 70
     8
  0
VERTEX
  5
AB7
330
9C2
100
AcDbEntity
  8
0
370
    20
100
AcDbVertex
100
AcDb2dVertex
 10
0.3691068835079925
 20
0.0442728953018745
 30
0.0
 70
     8
  0
VERTEX
  5
AB8
330
9C2
100
AcDbEntity
  8
0
370
    20
100
AcDbVertex
100
AcDb2dVertex
 10
0.3701680264627676
 20
0.0474680000537481
 30
0.0
 70
     8
  0
VERTEX
  5
AB9
330
9C2
100
AcDbEntity
  8
0
370
    20
100
AcDbVertex
100
AcDb2dVertex
 10
0.3710579102075808
 20
0.0505854817926604
 30
0.0
 70
     8
  0
VERTEX
  5
ABA
330
9C2
100
AcDbEntity
  8
0
370
    20
100
AcDbVertex
100
AcDb2dVertex
 10
0.3717930897213133
 20
0.0536047932015668
 30
0.0
 70
     8
  0
VERTEX
  5
ABB
330
9C2
100
AcDbEntity
  8
0
370
    20
100
AcDbVertex
100
AcDb2dVertex
 10
0.3723901199828372
 20
0.0565053869634222
 30
0.0
 70
     8
  0
VERTEX
  5
ABC
330
9C2
100
AcDbEntity
  8
0
370
    20
100
AcDbVertex
100
AcDb2dVertex
 10
0.3728655559710283
 20
0.0592667157611817
 30
0.0
 70
     8
  0
VERTEX
  5
ABD
330
9C2
100
AcDbEntity
  8
0
370
    20
100
AcDbVertex
100
AcDb2dVertex
 10
0.3732298634668485
 20
0.0618777449168822
 30
0.0
 70
     8
  0
VERTEX
  5
ABE
330
9C2
100
AcDbEntity
  8
0
370
    20
100
AcDbVertex
100
AcDb2dVertex
 10
0.373469151459588
 20
0.0643654903088862
 30
0.0
 70
     8
  0
VERTEX
  5
ABF
330
9C2
100
AcDbEntity
  8
0
370
    20
100
AcDbVertex
100
AcDb2dVertex
 10
0.3735634397406216
 20
0.0667664804546384
 30
0.0
 70
     8
  0
VERTEX
  5
AC0
330
9C2
100
AcDbEntity
  8
0
370
    20
100
AcDbVertex
100
AcDb2dVertex
 10
0.3734927481013219
 20
0.0691172438715829
 30
0.0
 70
     8
  0
VERTEX
  5
AC1
330
9C2
100
AcDbEntity
  8
0
370
    20
100
AcDbVertex
100
AcDb2dVertex
 10
0.3732370963330638
 20
0.0714543090771642
 30
0.0
 70
     8
  0
VERTEX
  5
AC2
330
9C2
100
AcDbEntity
  8
0
370
    20
100
AcDbVertex
100
AcDb2dVertex
 10
0.37277650422722
 20
0.0738142045888268
 30
0.0
 70
     8
  0
VERTEX
  5
AC3
330
9C2
100
AcDbEntity
  8
0
370
    20
100
AcDbVertex
100
AcDb2dVertex
 10
0.3720909915751669
 20
0.0762334589240148
 30
0.0
 70
     8
  0
VERTEX
  5
AC4
330
9C2
100
AcDbEntity
  8
0
370
    20
100
AcDbVertex
100
AcDb2dVertex
 10
0.3711605781682774
 20
0.0787486006001728
 30
0.0
 70
     8
  0
VERTEX
  5
AC5
330
9C2
100
AcDbEntity
  8
0
370
    20
100
AcDbVertex
100
AcDb2dVertex
 10
0.3699677575388147
 20
0.0813849332307908
 30
0.0
 70
     8
  0
VERTEX
  5
AC6
330
9C2
100
AcDbEntity
  8
0
370
    20
100
AcDbVertex
100
AcDb2dVertex
 10
0.3685049181826034
 20
0.0841228608135422
 30
0.0
 70
     8
  0
VERTEX
  5
AC7
330
9C2
100
AcDbEntity
  8
0
370
    20
100
AcDbVertex
100
AcDb2dVertex
 10
0.3667669223363621
 20
0.0869315624421462
 30
0.0
 70
     8
  0
VERTEX
  5
AC8
330
9C2
100
AcDbEntity
  8
0
370
    20
100
AcDbVertex
100
AcDb2dVertex
 10
0.3647486322368056
 20
0.0897802172103217
 30
0.0
 70
     8
  0
VERTEX
  5
AC9
330
9C2
100
AcDbEntity
  8
0
370
    20
100
AcDbVertex
100
AcDb2dVertex
 10
0.362444910120649
 20
0.0926380042117883
 30
0.0
 70
     8
  0
VERTEX
  5
ACA
330
9C2
100
AcDbEntity
  8
0
370
    20
100
AcDbVertex
100
AcDb2dVertex
 10
0.3598506182246055
 20
0.0954741025402646
 30
0.0
 70
     8
  0
VERTEX
  5
ACB
330
9C2
100
AcDbEntity
  8
0
370
    20
100
AcDbVertex
100
AcDb2dVertex
 10
0.3569606187853935
 20
0.0982576912894699
 30
0.0
 70
     8
  0
VERTEX
  5
ACC
330
9C2
100
AcDbEntity
  8
0
370
    20
100
AcDbVertex
100
AcDb2dVertex
 10
0.3537697740397281
 20
0.1009579495531235
 30
0.0
 70
     8
  0
VERTEX
  5
ACD
330
9C2
100
AcDbEntity
  8
0
370
    20
100
AcDbVertex
100
AcDb2dVertex
 10
0.3502772276937289
 20
0.1035493834801966
 30
0.0
 70
     8
  0
VERTEX
  5
ACE
330
9C2
100
AcDbEntity
  8
0
370
    20
100
AcDbVertex
100
AcDb2dVertex
 10
0.3464992493311296
 20
0.1060278074406684
 30
0.0
 70
     8
  0
VERTEX
  5
ACF
330
9C2
100
AcDbEntity
  8
0
370
    20
100
AcDbVertex
100
AcDb2dVertex
 10
0.3424563900050668
 20
0.108394362859771
 30
0.0
 70
     8
  0
VERTEX
  5
AD0
330
9C2
100
AcDbEntity
  8
0
370
    20
100
AcDbVertex
100
AcDb2dVertex
 10
0.338169200768677
 20
0.110650191162736
 30
0.0
 70
     8
  0
VERTEX
  5
AD1
330
9C2
100
AcDbEntity
  8
0
370
    20
100
AcDbVertex
100
AcDb2dVertex
 10
0.3336582326751021
 20
0.1127964337747948
 30
0.0
 70
     8
  0
VERTEX
  5
AD2
330
9C2
100
AcDbEntity
  8
0
370
    20
100
AcDbVertex
100
AcDb2dVertex
 10
0.328944036777477
 20
0.114834232121179
 30
0.0
 70
     8
  0
VERTEX
  5
AD3
330
9C2
100
AcDbEntity
  8
0
370
    20
100
AcDbVertex
100
AcDb2dVertex
 10
0.32404716412894
 20
0.1167647276271208
 30
0.0
 70
     8
  0
VERTEX
  5
AD4
330
9C2
100
AcDbEntity
  8
0
370
    20
100
AcDbVertex
100
AcDb2dVertex
 10
0.3189881657826259
 20
0.1185890617178511
 30
0.0
 70
     8
  0
VERTEX
  5
AD5
330
9C2
100
AcDbEntity
  8
0
370
    20
100
AcDbVertex
100
AcDb2dVertex
 10
0.313792159737563
 20
0.1203099929993487
 30
0.0
 70
     8
  0
VERTEX
  5
AD6
330
9C2
100
AcDbEntity
  8
0
370
    20
100
AcDbVertex
100
AcDb2dVertex
 10
0.3085025317763179
 20
0.121936748800578
 30
0.0
 70
     8
  0
VERTEX
  5
AD7
330
9C2
100
AcDbEntity
  8
0
370
    20
100
AcDbVertex
100
AcDb2dVertex
 10
0.3031672346273435
 20
0.1234801736312503
 30
0.0
 70
     8
  0
VERTEX
  5
AD8
330
9C2
100
AcDbEntity
  8
0
370
    20
100
AcDbVertex
100
AcDb2dVertex
 10
0.2978342210190963
 20
0.1249511120010768
 30
0.0
 70
     8
  0
VERTEX
  5
AD9
330
9C2
100
AcDbEntity
  8
0
370
    20
100
AcDbVertex
100
AcDb2dVertex
 10
0.2925514436800292
 20
0.1263604084197687
 30
0.0
 70
     8
  0
VERTEX
  5
ADA
330
9C2
100
AcDbEntity
  8
0
370
    20
100
AcDbVertex
100
AcDb2dVertex
 10
0.2873668553385986
 20
0.1277189073970371
 30
0.0
 70
     8
  0
VERTEX
  5
ADB
330
9C2
100
AcDbEntity
  8
0
370
    20
100
AcDbVertex
100
AcDb2dVertex
 10
0.2823284087232576
 20
0.1290374534425933
 30
0.0
 70
     8
  0
VERTEX
  5
ADC
330
9C2
100
AcDbEntity
  8
0
370
    20
100
AcDbVertex
100
AcDb2dVertex
 10
0.2774840565624625
 20
0.1303268910661486
 30
0.0
 70
     8
  0
VERTEX
  5
ADD
330
9C2
100
AcDbEntity
  8
0
370
    20
100
AcDbVertex
100
AcDb2dVertex
 10
0.2728758912369944
 20
0.1315982067569295
 30
0.0
 70
     8
  0
VERTEX
  5
ADE
330
9C2
100
AcDbEntity
  8
0
370
    20
100
AcDbVertex
100
AcDb2dVertex
 10
0.2685225637369601
 20
0.1328629549222243
 30
0.0
 70
     8
  0
VERTEX
  5
ADF
330
9C2
100
AcDbEntity
  8
0
370
    20
100
AcDbVertex
100
AcDb2dVertex
 10
0.2644368647047948
 20
0.1341328319488371
 30
0.0
 70
     8
  0
VERTEX
  5
AE0
330
9C2
100
AcDbEntity
  8
0
370
    20
100
AcDbVertex
100
AcDb2dVertex
 10
0.2606315847829297
 20
0.1354195342235713
 30
0.0
 70
     8
  0
VERTEX
  5
AE1
330
9C2
100
AcDbEntity
  8
0
370
    20
100
AcDbVertex
100
AcDb2dVertex
 10
0.2571195146137999
 20
0.1367347581332308
 30
0.0
 70
     8
  0
VERTEX
  5
AE2
330
9C2
100
AcDbEntity
  8
0
370
    20
100
AcDbVertex
100
AcDb2dVertex
 10
0.2539134448398421
 20
0.1380902000646192
 30
0.0
 70
     8
  0
VERTEX
  5
AE3
330
9C2
100
AcDbEntity
  8
0
370
    20
100
AcDbVertex
100
AcDb2dVertex
 10
0.251026166103486
 20
0.1394975564045406
 30
0.0
 70
     8
  0
VERTEX
  5
AE4
330
9C2
100
AcDbEntity
  8
0
370
    20
100
AcDbVertex
100
AcDb2dVertex
 10
0.2484704690471684
 20
0.1409685235397986
 30
0.0
 70
     8
  0
VERTEX
  5
AE5
330
9C2
100
AcDbEntity
  8
0
370
    20
100
AcDbVertex
100
AcDb2dVertex
 10
0.2462524635156242
 20
0.1425112710606286
 30
0.0
 70
     8
  0
VERTEX
  5
AE6
330
9C2
100
AcDbEntity
  8
0
370
    20
100
AcDbVertex
100
AcDb2dVertex
 10
0.2443515361627888
 20
0.1441198613709926
 30
0.0
 70
     8
  0
VERTEX
  5
AE7
330
9C2
100
AcDbEntity
  8
0
370
    20
100
AcDbVertex
100
AcDb2dVertex
 10
0.2427403928448992
 20
0.1457848300782848
 30
0.0
 70
     8
  0
VERTEX
  5
AE8
330
9C2
100
AcDbEntity
  8
0
370
    20
100
AcDbVertex
100
AcDb2dVertex
 10
0.2413917394181908
 20
0.1474967127898991
 30
0.0
 70
     8
  0
VERTEX
  5
AE9
330
9C2
100
AcDbEntity
  8
0
370
    20
100
AcDbVertex
100
AcDb2dVertex
 10
0.2402782817389042
 20
0.1492460451132291
 30
0.0
 70
     8
  0
VERTEX
  5
AEA
330
9C2
100
AcDbEntity
  8
0
370
    20
100
AcDbVertex
100
AcDb2dVertex
 10
0.2393727256632712
 20
0.151023362655669
 30
0.0
 70
     8
  0
VERTEX
  5
AEB
330
9C2
100
AcDbEntity
  8
0
370
    20
100
AcDbVertex
100
AcDb2dVertex
 10
0.2386477770475324
 20
0.1528192010246125
 30
0.0
 70
     8
  0
VERTEX
  5
AEC
330
9C2
100
AcDbEntity
  8
0
370
    20
100
AcDbVertex
100
AcDb2dVertex
 10
0.2380761417479231
 20
0.1546240958274534
 30
0.0
 70
     8
  0
VERTEX
  5
AED
330
9C2
100
AcDbEntity
  8
0
370
    20
100
AcDbVertex
100
AcDb2dVertex
 10
0.2376362950708373
 20
0.1564317706919814
 30
0.0
 70
     8
  0
VERTEX
  5
AEE
330
9C2
100
AcDbEntity
  8
0
370
    20
100
AcDbVertex
100
AcDb2dVertex
 10
0.2373297901233009
 20
0.158248701327568
 30
0.0
 70
     8
  0
VERTEX
  5
AEF
330
9C2
100
AcDbEntity
  8
0
370
    20
100
AcDbVertex
100
AcDb2dVertex
 10
0.2371639494624986
 20
0.1600845514639803
 30
0.0
 70
     8
  0
VERTEX
  5
AF0
330
9C2
100
AcDbEntity
  8
0
370
    20
100
AcDbVertex
100
AcDb2dVertex
 10
0.2371460956456115
 20
0.1619489848309856
 30
0.0
 70
     8
  0
VERTEX
  5
AF1
330
9C2
100
AcDbEntity
  8
0
370
    20
100
AcDbVertex
100
AcDb2dVertex
 10
0.2372835512298224
 20
0.1638516651583513
 30
0.0
 70
     8
  0
VERTEX
  5
AF2
330
9C2
100
AcDbEntity
  8
0
370
    20
100
AcDbVertex
100
AcDb2dVertex
 10
0.2375836387723158
 20
0.1658022561758441
 30
0.0
 70
     8
  0
VERTEX
  5
AF3
330
9C2
100
AcDbEntity
  8
0
370
    20
100
AcDbVertex
100
AcDb2dVertex
 10
0.2380536808302747
 20
0.1678104216132318
 30
0.0
 70
     8
  0
VERTEX
  5
AF4
330
9C2
100
AcDbEntity
  8
0
370
    20
100
AcDbVertex
100
AcDb2dVertex
 10
0.2387009999608818
 20
0.1698858252002811
 30
0.0
 70
     8
  0
VERTEX
  5
AF5
330
9C2
100
AcDbEntity
  8
0
370
    20
100
AcDbVertex
100
AcDb2dVertex
 10
0.2395298821885845
 20
0.1720322477146473
 30
0.0
 70
     8
  0
VERTEX
  5
AF6
330
9C2
100
AcDbEntity
  8
0
370
    20
100
AcDbVertex
100
AcDb2dVertex
 10
0.2405324674068829
 20
0.1742299381255374
 30
0.0
 70
     8
  0
VERTEX
  5
AF7
330
9C2
100
AcDbEntity
  8
0
370
    20
100
AcDbVertex
100
AcDb2dVertex
 10
0.2416978589765435
 20
0.1764532624500463
 30
0.0
 70
     8
  0
VERTEX
  5
AF8
330
9C2
100
AcDbEntity
  8
0
370
    20
100
AcDbVertex
100
AcDb2dVertex
 10
0.2430151602583308
 20
0.1786765867052688
 30
0.0
 70
     8
  0
VERTEX
  5
AF9
330
9C2
100
AcDbEntity
  8
0
370
    20
100
AcDbVertex
100
AcDb2dVertex
 10
0.2444734746130113
 20
0.1808742769082996
 30
0.0
 70
     8
  0
VERTEX
  5
AFA
330
9C2
100
AcDbEntity
  8
0
370
    20
100
AcDbVertex
100
AcDb2dVertex
 10
0.246061905401346
 20
0.1830206990762338
 30
0.0
 70
     8
  0
VERTEX
  5
AFB
330
9C2
100
AcDbEntity
  8
0
370
    20
100
AcDbVertex
100
AcDb2dVertex
 10
0.2477695559841049
 20
0.185090219226166
 30
0.0
 70
     8
  0
VERTEX
  5
AFC
330
9C2
100
AcDbEntity
  8
0
370
    20
100
AcDbVertex
100
AcDb2dVertex
 10
0.2495855297220526
 20
0.1870572033751912
 30
0.0
 70
     8
  0
VERTEX
  5
AFD
330
9C2
100
AcDbEntity
  8
0
370
    20
100
AcDbVertex
100
AcDb2dVertex
 10
0.2515026690156361
 20
0.1888993285904668
 30
0.0
 70
     8
  0
VERTEX
  5
AFE
330
9C2
100
AcDbEntity
  8
0
370
    20
100
AcDbVertex
100
AcDb2dVertex
 10
0.2535287724240458
 20
0.1906075161394015
 30
0.0
 70
     8
  0
VERTEX
  5
AFF
330
9C2
100
AcDbEntity
  8
0
370
    20
100
AcDbVertex
100
AcDb2dVertex
 10
0.2556753775461598
 20
0.1921759983394657
 30
0.0
 70
     8
  0
VERTEX
  5
B00
330
9C2
100
AcDbEntity
  8
0
370
    20
100
AcDbVertex
100
AcDb2dVertex
 10
0.2579540219808472
 20
0.193599007508131
 30
0.0
 70
     8
  0
VERTEX
  5
B01
330
9C2
100
AcDbEntity
  8
0
370
    20
100
AcDbVertex
100
AcDb2dVertex
 10
0.2603762433269861
 20
0.1948707759628678
 30
0.0
 70
     8
  0
VERTEX
  5
B02
330
9C2
100
AcDbEntity
  8
0
370
    20
100
AcDbVertex
100
AcDb2dVertex
 10
0.262953579183451
 20
0.1959855360211475
 30
0.0
 70
     8
  0
VERTEX
  5
B03
330
9C2
100
AcDbEntity
  8
0
370
    20
100
AcDbVertex
100
AcDb2dVertex
 10
0.2656975671491164
 20
0.1969375200004408
 30
0.0
 70
     8
  0
VERTEX
  5
B04
330
9C2
100
AcDbEntity
  8
0
370
    20
100
AcDbVertex
100
AcDb2dVertex
 10
0.2686197448228551
 20
0.1977209602182188
 30
0.0
 70
     8
  0
VERTEX
  5
B05
330
9C2
100
AcDbEntity
  8
0
370
    20
100
AcDbVertex
100
AcDb2dVertex
 10
0.2717244388584721
 20
0.1983284334553734
 30
0.0
 70
     8
  0
VERTEX
  5
B06
330
9C2
100
AcDbEntity
  8
0
370
    20
100
AcDbVertex
100
AcDb2dVertex
 10
0.2749871321294943
 20
0.1987458943464801
 30
0.0
 70
     8
  0
VERTEX
  5
B07
330
9C2
100
AcDbEntity
  8
0
370
    20
100
AcDbVertex
100
AcDb2dVertex
 10
0.2783760965643758
 20
0.1989576419895355
 30
0.0
 70
     8
  0
VERTEX
  5
B08
330
9C2
100
AcDbEntity
  8
0
370
    20
100
AcDbVertex
100
AcDb2dVertex
 10
0.2818596040915704
 20
0.1989479754825358
 30
0.0
 70
     8
  0
VERTEX
  5
B09
330
9C2
100
AcDbEntity
  8
0
370
    20
100
AcDbVertex
100
AcDb2dVertex
 10
0.2854059266395357
 20
0.1987011939234776
 30
0.0
 70
     8
  0
VERTEX
  5
B0A
330
9C2
100
AcDbEntity
  8
0
370
    20
100
AcDbVertex
100
AcDb2dVertex
 10
0.2889833361367255
 20
0.1982015964103574
 30
0.0
 70
     8
  0
VERTEX
  5
B0B
330
9C2
100
AcDbEntity
  8
0
370
    20
100
AcDbVertex
100
AcDb2dVertex
 10
0.2925601045115957
 20
0.1974334820411716
 30
0.0
 70
     8
  0
VERTEX
  5
B0C
330
9C2
100
AcDbEntity
  8
0
370
    20
100
AcDbVertex
100
AcDb2dVertex
 10
0.296104503692602
 20
0.1963811499139166
 30
0.0
 70
     8
  0
VERTEX
  5
B0D
330
9C2
100
AcDbEntity
  8
0
370
    20
100
AcDbVertex
100
AcDb2dVertex
 10
0.2996047333660456
 20
0.1949981979011295
 30
0.0
 70
     8
  0
VERTEX
  5
B0E
330
9C2
100
AcDbEntity
  8
0
370
    20
100
AcDbVertex
100
AcDb2dVertex
 10
0.3031287042496142
 20
0.1931154189735087
 30
0.0
 70
     8
  0
VERTEX
  5
B0F
330
9C2
100
AcDbEntity
  8
0
370
    20
100
AcDbVertex
100
AcDb2dVertex
 10
0.3067642548188445
 20
0.1905329048762937
 30
0.0
 70
     8
  0
VERTEX
  5
B10
330
9C2
100
AcDbEntity
  8
0
370
    20
100
AcDbVertex
100
AcDb2dVertex
 10
0.3105992235492714
 20
0.1870507473547236
 30
0.0
 70
     8
  0
VERTEX
  5
B11
330
9C2
100
AcDbEntity
  8
0
370
    20
100
AcDbVertex
100
AcDb2dVertex
 10
0.3147214489164298
 20
0.1824690381540371
 30
0.0
 70
     8
  0
VERTEX
  5
B12
330
9C2
100
AcDbEntity
  8
0
370
    20
100
AcDbVertex
100
AcDb2dVertex
 10
0.3192187693958548
 20
0.176587869019474
 30
0.0
 70
     8
  0
VERTEX
  5
B13
330
9C2
100
AcDbEntity
  8
0
370
    20
100
AcDbVertex
100
AcDb2dVertex
 10
0.3241790234630848
 20
0.169207331696273
 30
0.0
 70
     8
  0
VERTEX
  5
B14
330
9C2
100
AcDbEntity
  8
0
370
    20
100
AcDbVertex
100
AcDb2dVertex
 10
0.3296900495936512
 20
0.1601275179296736
 30
0.0
 70
     8
  0
VERTEX
  5
B15
330
9C2
100
AcDbEntity
  8
0
370
    20
100
AcDbVertex
100
AcDb2dVertex
 10
0.3693915347685106
 20
0.1601275179296736
 30
0.0
 70
    16
  0
VERTEX
  5
B16
330
9C2
100
AcDbEntity
  8
0
370
    20
100
AcDbVertex
100
AcDb2dVertex
 10
0.3640980228467114
 20
0.1804156592504641
 30
0.0
 70
    16
  0
VERTEX
  5
B17
330
9C2
100
AcDbEntity
  8
0
370
    20
100
AcDbVertex
100
AcDb2dVertex
 10
0.3511582437456582
 20
0.2007037650965914
 30
0.0
 70
    16
  0
VERTEX
  5
B18
330
9C2
100
AcDbEntity
  8
0
370
    20
100
AcDbVertex
100
AcDb2dVertex
 10
0.3255728320083691
 20
0.2145232067112702
 30
0.0
 70
    16
  0
VERTEX
  5
B19
330
9C2
100
AcDbEntity
  8
0
370
    20
100
AcDbVertex
100
AcDb2dVertex
 10
0.3023401338824314
 20
0.2230501113138104
 30
0.0
 70
    16
  0
VERTEX
  5
B1A
330
9C2
100
AcDbEntity
  8
0
370
    20
100
AcDbVertex
100
AcDb2dVertex
 10
0.2788132892916764
 20
0.2230501113138104
 30
0.0
 70
    16
  0
VERTEX
  5
B1B
330
9C2
100
AcDbEntity
  8
0
370
    20
100
AcDbVertex
100
AcDb2dVertex
 10
0.2444053576847196
 20
0.2186396165041274
 30
0.0
 70
    16
  0
VERTEX
  5
B1C
330
9C2
100
AcDbEntity
  8
0
370
    20
100
AcDbVertex
100
AcDb2dVertex
 10
0.2241134578692296
 20
0.2033500336026607
 30
0.0
 70
    16
  0
VERTEX
  5
B1D
330
9C2
100
AcDbEntity
  8
0
370
    20
100
AcDbVertex
100
AcDb2dVertex
 10
0.2061742716650912
 20
0.1774753412022322
 30
0.0
 70
    16
  0
VERTEX
  5
B1E
330
9C2
100
AcDbEntity
  8
0
370
    20
100
AcDbVertex
100
AcDb2dVertex
 10
0.2061742716650912
 20
0.1463080763149877
 30
0.0
 70
    16
  0
VERTEX
  5
B1F
330
9C2
100
AcDbEntity
  8
0
370
    20
100
AcDbVertex
100
AcDb2dVertex
 10
0.2147027283621483
 20
0.1242557796399312
 30
0.0
 70
    16
  0
VERTEX
  5
B20
330
9C2
100
AcDbEntity
  8
0
370
    20
100
AcDbVertex
100
AcDb2dVertex
 10
0.2461698616586574
 20
0.1060258786902325
 30
0.0
 70
    16
  0
VERTEX
  5
B21
330
9C2
100
AcDbEntity
  8
0
370
    20
100
AcDbVertex
100
AcDb2dVertex
 10
0.2879299556261543
 20
0.0925004511430389
 30
0.0
 70
    16
  0
VERTEX
  5
B22
330
9C2
100
AcDbEntity
  8
0
370
    20
100
AcDbVertex
100
AcDb2dVertex
 10
0.329101881602341
 20
0.0786810095283529
 30
0.0
 70
    16
  0
VERTEX
  5
B23
330
9C2
100
AcDbEntity
  8
0
370
    20
100
AcDbVertex
100
AcDb2dVertex
 10
0.3417475142385768
 20
0.0616272357979498
 30
0.0
 70
    16
  0
VERTEX
  5
B24
330
9C2
100
AcDbEntity
  8
0
370
    20
100
AcDbVertex
100
AcDb2dVertex
 10
0.3417475142385768
 20
0.0457495892868424
 30
0.0
 70
    16
  0
VERTEX
  5
B25
330
9C2
100
AcDbEntity
  8
0
370
    20
100
AcDbVertex
100
AcDb2dVertex
 10
0.3270432728097035
 20
0.0295778932335723
 30
0.0
 70
    16
  0
VERTEX
  5
B26
330
9C2
100
AcDbEntity
  8
0
370
    20
100
AcDbVertex
100
AcDb2dVertex
 10
0.301163797899811
 20
0.0204629604960617
 30
0.0
 70
    16
  0
VERTEX
  5
B27
330
9C2
100
AcDbEntity
  8
0
370
    20
100
AcDbVertex
100
AcDb2dVertex
 10
0.2776369533090559
 20
0.0204629604960617
 30
0.0
 70
    16
  0
VERTEX
  5
B28
330
9C2
100
AcDbEntity
  8
0
370
    20
100
AcDbVertex
100
AcDb2dVertex
 10
0.2514633735804495
 20
0.027813702404636
 30
0.0
 70
    16
  0
VERTEX
  5
B29
330
9C2
100
AcDbEntity
  8
0
370
    20
100
AcDbVertex
100
AcDb2dVertex
 10
0.2358768593415519
 20
0.0445734620675468
 30
0.0
 70
    16
  0
VERTEX
  5
B2A
330
9C2
100
AcDbEntity
  8
0
370
    20
100
AcDbVertex
100
AcDb2dVertex
 10
0.2308774105923561
 20
0.0560406492436486
 30
0.0
 70
    16
  0
VERTEX
  5
B2B
330
9C2
100
AcDbEntity
  8
0
370
    20
100
AcDbVertex
100
AcDb2dVertex
 10
0.2308774105923561
 20
0.0642735043040262
 30
0.0
 70
    16
  0
VERTEX
  5
B2C
330
9C2
100
AcDbEntity
  8
0
370
    20
100
AcDbVertex
100
AcDb2dVertex
 10
0.1899995894348763
 20
0.0642735043040262
 30
0.0
 70
    16
  0
VERTEX
  5
B2D
330
9C2
100
AcDbEntity
  8
0
370
    20
100
AcDbVertex
100
AcDb2dVertex
 10
0.1844704397407302
 20
0.0621057561075699
 30
0.0
 70
    16
  0
VERTEX
  5
B2E
330
9C2
100
AcDbEntity
  8
0
370
    20
100
AcDbVertex
100
AcDb2dVertex
 10
0.2083100090507983
 20
0.0261878627898825
 30
0.0
 70
    16
  0
VERTEX
  5
B2F
330
9C2
100
AcDbEntity
  8
0
370
    20
100
AcDbVertex
100
AcDb2dVertex
 10
0.2387115433673657
 20
0.0017228273633664
 30
0.0
 70
    16
  0
VERTEX
  5
B30
330
9C2
100
AcDbEntity
  8
0
370
    20
100
AcDbVertex
100
AcDb2dVertex
 10
0.2607013966753016
 20
-0.0047907478006762
 30
0.0
 70
    16
  0
VERTEX
  5
B31
330
9C2
100
AcDbEntity
  8
0
370
    20
100
AcDbVertex
100
AcDb2dVertex
 10
0.3085147108770982
 20
-0.0047907478006762
 30
0.0
 70
    16
  0
VERTEX
  5
B32
330
9C2
100
AcDbEntity
  8
0
370
    20
100
AcDbVertex
100
AcDb2dVertex
 10
0.3453422813918721
 20
0.0080780790738403
 30
0.0
 70
    16
  0
VERTEX
  5
B33
330
9C2
100
AcDbEntity
  8
0
370
    20
100
AcDbVertex
100
AcDb2dVertex
 10
0.367263460266777
 20
0.0343786094166064
 30
0.0
 70
    16
  0
VERTEX
  5
B34
330
9C2
100
AcDbEntity
  8
0
370
    20
100
AcDbVertex
100
AcDb2dVertex
 10
0.3739859751118786
 20
0.0609713800933492
 30
0.0
 70
    16
  0
VERTEX
  5
B35
330
9C2
100
AcDbEntity
  8
0
370
    20
100
AcDbVertex
100
AcDb2dVertex
 10
0.3739859751118786
 20
0.0773361647770871
 30
0.0
 70
    16
  0
VERTEX
  5
B36
330
9C2
100
AcDbEntity
  8
0
370
    20
100
AcDbVertex
100
AcDb2dVertex
 10
0.357033593450268
 20
0.1021755643993388
 30
0.0
 70
    16
  0
VERTEX
  5
B37
330
9C2
100
AcDbEntity
  8
0
370
    20
100
AcDbVertex
100
AcDb2dVertex
 10
0.3204982953254216
 20
0.1197092749442988
 30
0.0
 70
    16
  0
VERTEX
  5
B38
330
9C2
100
AcDbEntity
  8
0
370
    20
100
AcDbVertex
100
AcDb2dVertex
 10
0.2749022199438045
 20
0.1305217061305727
 30
0.0
 70
    16
  0
VERTEX
  5
B39
330
9C2
100
AcDbEntity
  8
0
370
    20
100
AcDbVertex
100
AcDb2dVertex
 10
0.2447971642741322
 20
0.1401652469303017
 30
0.0
 70
    16
  0
VERTEX
  5
B3A
330
9C2
100
AcDbEntity
  8
0
370
    20
100
AcDbVertex
100
AcDb2dVertex
 10
0.2367319372426806
 20
0.1546284473870118
 30
0.0
 70
    16
  0
VERTEX
  5
B3B
330
9C2
100
AcDbEntity
  8
0
370
    20
100
AcDbVertex
100
AcDb2dVertex
 10
0.2367319372426806
 20
0.1690655384863718
 30
0.0
 70
    16
  0
VERTEX
  5
B3C
330
9C2
100
AcDbEntity
  8
0
370
    20
100
AcDbVertex
100
AcDb2dVertex
 10
0.2485463135518913
 20
0.1884243498691874
 30
0.0
 70
    16
  0
VERTEX
  5
B3D
330
9C2
100
AcDbEntity
  8
0
370
    20
100
AcDbVertex
100
AcDb2dVertex
 10
0.2665959868820664
 20
0.1995802822880252
 30
0.0
 70
    16
  0
VERTEX
  5
B3E
330
9C2
100
AcDbEntity
  8
0
370
    20
100
AcDbVertex
100
AcDb2dVertex
 10
0.2967882078569701
 20
0.1995802822880252
 30
0.0
 70
    16
  0
VERTEX
  5
B3F
330
9C2
100
AcDbEntity
  8
0
370
    20
100
AcDbVertex
100
AcDb2dVertex
 10
0.3141815385161024
 20
0.1867837527915911
 30
0.0
 70
    16
  0
VERTEX
  5
B40
330
9C2
100
AcDbEntity
  8
0
370
    20
100
AcDbVertex
100
AcDb2dVertex
 10
0.3296900495936512
 20
0.1601275179296736
 30
0.0
 70
    16
  0
SEQEND
  5
B41
330
9C2
100
AcDbEntity
  8
0
370
    20
  0
POLYLINE
  5
B42
330
9BC
100
AcDbEntity
  8
0
370
    20
100
AcDb2dPolyline
 66
     1
 10
0.0
 20
0.0
 30
0.0
 70
     4
 75
     6
  0
VERTEX
  5
B43
330
B42
100
AcDbEntity
  8
0
370
    20
100
AcDbVertex
100
AcDb2dVertex
 10
0.5076641115149628
 20
0.1601275179296736
 30
0.0
 70
    16
  0
VERTEX
  5
B44
330
B42
100
AcDbEntity
  8
0
370
    20
100
AcDbVertex
100
AcDb2dVertex
 10
0.5076641115149628
 20
0.1601275179296736
 30
0.0
 70
     8
  0
VERTEX
  5
B45
330
B42
100
AcDbEntity
  8
0
370
    20
100
AcDbVertex
100
AcDb2dVertex
 10
0.5206481786157067
 20
0.1605799064859885
 30
0.0
 70
     8
  0
VERTEX
  5
B46
330
B42
100
AcDbEntity
  8
0
370
    20
100
AcDbVertex
100
AcDb2dVertex
 10
0.5301486018904349
 20
0.1618446131313689
 30
0.0
 70
     8
  0
VERTEX
  5
B47
330
B42
100
AcDbEntity
  8
0
370
    20
100
AcDbVertex
100
AcDb2dVertex
 10
0.5366518851196087
 20
0.1637829493304684
 30
0.0
 70
     8
  0
VERTEX
  5
B48
330
B42
100
AcDbEntity
  8
0
370
    20
100
AcDbVertex
100
AcDb2dVertex
 10
0.5406445320836877
 20
0.1662562265479403
 30
0.0
 70
     8
  0
VERTEX
  5
B49
330
B42
100
AcDbEntity
  8
0
370
    20
100
AcDbVertex
100
AcDb2dVertex
 10
0.542613046563135
 20
0.169125756248438
 30
0.0
 70
     8
  0
VERTEX
  5
B4A
330
B42
100
AcDbEntity
  8
0
370
    20
100
AcDbVertex
100
AcDb2dVertex
 10
0.5430439323384118
 20
0.1722528498966152
 30
0.0
 70
     8
  0
VERTEX
  5
B4B
330
B42
100
AcDbEntity
  8
0
370
    20
100
AcDbVertex
100
AcDb2dVertex
 10
0.5424236931899778
 20
0.1754988189571249
 30
0.0
 70
     8
  0
VERTEX
  5
B4C
330
B42
100
AcDbEntity
  8
0
370
    20
100
AcDbVertex
100
AcDb2dVertex
 10
0.5412388328982978
 20
0.178724974894621
 30
0.0
 70
     8
  0
VERTEX
  5
B4D
330
B42
100
AcDbEntity
  8
0
370
    20
100
AcDbVertex
100
AcDb2dVertex
 10
0.539892282308605
 20
0.1818169403625594
 30
0.0
 70
     8
  0
VERTEX
  5
B4E
330
B42
100
AcDbEntity
  8
0
370
    20
100
AcDbVertex
100
AcDb2dVertex
 10
0.5384526805252304
 20
0.1847575827696053
 30
0.0
 70
     8
  0
VERTEX
  5
B4F
330
B42
100
AcDbEntity
  8
0
370
    20
100
AcDbVertex
100
AcDb2dVertex
 10
0.5369050937172784
 20
0.1875540807132269
 30
0.0
 70
     8
  0
VERTEX
  5
B50
330
B42
100
AcDbEntity
  8
0
370
    20
100
AcDbVertex
100
AcDb2dVertex
 10
0.535234588053859
 20
0.1902136127908922
 30
0.0
 70
     8
  0
VERTEX
  5
B51
330
B42
100
AcDbEntity
  8
0
370
    20
100
AcDbVertex
100
AcDb2dVertex
 10
0.5334262297040749
 20
0.1927433576000692
 30
0.0
 70
     8
  0
VERTEX
  5
B52
330
B42
100
AcDbEntity
  8
0
370
    20
100
AcDbVertex
100
AcDb2dVertex
 10
0.5314650848370324
 20
0.1951504937382258
 30
0.0
 70
     8
  0
VERTEX
  5
B53
330
B42
100
AcDbEntity
  8
0
370
    20
100
AcDbVertex
100
AcDb2dVertex
 10
0.5293362196218379
 20
0.1974421998028301
 30
0.0
 70
     8
  0
VERTEX
  5
B54
330
B42
100
AcDbEntity
  8
0
370
    20
100
AcDbVertex
100
AcDb2dVertex
 10
0.5270247002275977
 20
0.1996256543913499
 30
0.0
 70
     8
  0
VERTEX
  5
B55
330
B42
100
AcDbEntity
  8
0
370
    20
100
AcDbVertex
100
AcDb2dVertex
 10
0.5245229640693996
 20
0.2017072225222547
 30
0.0
 70
     8
  0
VERTEX
  5
B56
330
B42
100
AcDbEntity
  8
0
370
    20
100
AcDbVertex
100
AcDb2dVertex
 10
0.5218529335462759
 20
0.2036900148980183
 30
0.0
 70
     8
  0
VERTEX
  5
B57
330
B42
100
AcDbEntity
  8
0
370
    20
100
AcDbVertex
100
AcDb2dVertex
 10
0.5190439023032401
 20
0.2055763286421159
 30
0.0
 70
     8
  0
VERTEX
  5
B58
330
B42
100
AcDbEntity
  8
0
370
    20
100
AcDbVertex
100
AcDb2dVertex
 10
0.516125163985306
 20
0.2073684608780227
 30
0.0
 70
     8
  0
VERTEX
  5
B59
330
B42
100
AcDbEntity
  8
0
370
    20
100
AcDbVertex
100
AcDb2dVertex
 10
0.5131260122374926
 20
0.209068708729214
 30
0.0
 70
     8
  0
VERTEX
  5
B5A
330
B42
100
AcDbEntity
  8
0
370
    20
100
AcDbVertex
100
AcDb2dVertex
 10
0.5100757407048118
 20
0.2106793693191651
 30
0.0
 70
     8
  0
VERTEX
  5
B5B
330
B42
100
AcDbEntity
  8
0
370
    20
100
AcDbVertex
100
AcDb2dVertex
 10
0.5070036430322773
 20
0.2122027397713511
 30
0.0
 70
     8
  0
VERTEX
  5
B5C
330
B42
100
AcDbEntity
  8
0
370
    20
100
AcDbVertex
100
AcDb2dVertex
 10
0.5039390128649064
 20
0.2136411172092472
 30
0.0
 70
     8
  0
VERTEX
  5
B5D
330
B42
100
AcDbEntity
  8
0
370
    20
100
AcDbVertex
100
AcDb2dVertex
 10
0.5009053999654452
 20
0.2149953630483826
 30
0.0
 70
     8
  0
VERTEX
  5
B5E
330
B42
100
AcDbEntity
  8
0
370
    20
100
AcDbVertex
100
AcDb2dVertex
 10
0.4979033785675764
 20
0.2162605958725035
 30
0.0
 70
     8
  0
VERTEX
  5
B5F
330
B42
100
AcDbEntity
  8
0
370
    20
100
AcDbVertex
100
AcDb2dVertex
 10
0.4949277790227118
 20
0.2174304985574096
 30
0.0
 70
     8
  0
VERTEX
  5
B60
330
B42
100
AcDbEntity
  8
0
370
    20
100
AcDbVertex
100
AcDb2dVertex
 10
0.4919734316822649
 20
0.2184987539789012
 30
0.0
 70
     8
  0
VERTEX
  5
B61
330
B42
100
AcDbEntity
  8
0
370
    20
100
AcDbVertex
100
AcDb2dVertex
 10
0.4890351668976507
 20
0.219459045012778
 30
0.0
 70
     8
  0
VERTEX
  5
B62
330
B42
100
AcDbEntity
  8
0
370
    20
100
AcDbVertex
100
AcDb2dVertex
 10
0.4861078150202829
 20
0.2203050545348402
 30
0.0
 70
     8
  0
VERTEX
  5
B63
330
B42
100
AcDbEntity
  8
0
370
    20
100
AcDbVertex
100
AcDb2dVertex
 10
0.4831862064015749
 20
0.2210304654208877
 30
0.0
 70
     8
  0
VERTEX
  5
B64
330
B42
100
AcDbEntity
  8
0
370
    20
100
AcDbVertex
100
AcDb2dVertex
 10
0.48026517139294
 20
0.2216289605467204
 30
0.0
 70
     8
  0
VERTEX
  5
B65
330
B42
100
AcDbEntity
  8
0
370
    20
100
AcDbVertex
100
AcDb2dVertex
 10
0.47733695568418
 20
0.2220966156193179
 30
0.0
 70
     8
  0
VERTEX
  5
B66
330
B42
100
AcDbEntity
  8
0
370
    20
100
AcDbVertex
100
AcDb2dVertex
 10
0.474383466318642
 20
0.2224390776703774
 30
0.0
 70
     8
  0
VERTEX
  5
B67
330
B42
100
AcDbEntity
  8
0
370
    20
100
AcDbVertex
100
AcDb2dVertex
 10
0.4713840256780629
 20
0.2226643865627756
 30
0.0
 70
     8
  0
VERTEX
  5
B68
330
B42
100
AcDbEntity
  8
0
370
    20
100
AcDbVertex
100
AcDb2dVertex
 10
0.468317956144178
 20
0.2227805821593891
 30
0.0
 70
     8
  0
VERTEX
  5
B69
330
B42
100
AcDbEntity
  8
0
370
    20
100
AcDbVertex
100
AcDb2dVertex
 10
0.4651645800987208
 20
0.2227957043230947
 30
0.0
 70
     8
  0
VERTEX
  5
B6A
330
B42
100
AcDbEntity
  8
0
370
    20
100
AcDbVertex
100
AcDb2dVertex
 10
0.4619032199234301
 20
0.2227177929167687
 30
0.0
 70
     8
  0
VERTEX
  5
B6B
330
B42
100
AcDbEntity
  8
0
370
    20
100
AcDbVertex
100
AcDb2dVertex
 10
0.4585131980000412
 20
0.2225548878032884
 30
0.0
 70
     8
  0
VERTEX
  5
B6C
330
B42
100
AcDbEntity
  8
0
370
    20
100
AcDbVertex
100
AcDb2dVertex
 10
0.4549738367102876
 20
0.22231502884553
 30
0.0
 70
     8
  0
VERTEX
  5
B6D
330
B42
100
AcDbEntity
  8
0
370
    20
100
AcDbVertex
100
AcDb2dVertex
 10
0.451276041788562
 20
0.2220028102673484
 30
0.0
 70
     8
  0
VERTEX
  5
B6E
330
B42
100
AcDbEntity
  8
0
370
    20
100
AcDbVertex
100
AcDb2dVertex
 10
0.44745705237988
 20
0.2216090437365115
 30
0.0
 70
     8
  0
VERTEX
  5
B6F
330
B42
100
AcDbEntity
  8
0
370
    20
100
AcDbVertex
100
AcDb2dVertex
 10
0.4435656909819113
 20
0.221121095281765
 30
0.0
 70
     8
  0
VERTEX
  5
B70
330
B42
100
AcDbEntity
  8
0
370
    20
100
AcDbVertex
100
AcDb2dVertex
 10
0.4396507800923271
 20
0.220526330931855
 30
0.0
 70
     8
  0
VERTEX
  5
B71
330
B42
100
AcDbEntity
  8
0
370
    20
100
AcDbVertex
100
AcDb2dVertex
 10
0.4357611422088024
 20
0.2198121167155274
 30
0.0
 70
     8
  0
VERTEX
  5
B72
330
B42
100
AcDbEntity
  8
0
370
    20
100
AcDbVertex
100
AcDb2dVertex
 10
0.4319455998290032
 20
0.2189658186615278
 30
0.0
 70
     8
  0
VERTEX
  5
B73
330
B42
100
AcDbEntity
  8
0
370
    20
100
AcDbVertex
100
AcDb2dVertex
 10
0.4282529754506044
 20
0.2179748027986022
 30
0.0
 70
     8
  0
VERTEX
  5
B74
330
B42
100
AcDbEntity
  8
0
370
    20
100
AcDbVertex
100
AcDb2dVertex
 10
0.4247320915712756
 20
0.2168264351554968
 30
0.0
 70
     8
  0
VERTEX
  5
B75
330
B42
100
AcDbEntity
  8
0
370
    20
100
AcDbVertex
100
AcDb2dVertex
 10
0.4214198044006068
 20
0.2155102831189894
 30
0.0
 70
     8
  0
VERTEX
  5
B76
330
B42
100
AcDbEntity
  8
0
370
    20
100
AcDbVertex
100
AcDb2dVertex
 10
0.4183051049958593
 20
0.214024719507987
 30
0.0
 70
     8
  0
VERTEX
  5
B77
330
B42
100
AcDbEntity
  8
0
370
    20
100
AcDbVertex
100
AcDb2dVertex
 10
0.4153650181262112
 20
0.2123703184994286
 30
0.0
 70
     8
  0
VERTEX
  5
B78
330
B42
100
AcDbEntity
  8
0
370
    20
100
AcDbVertex
100
AcDb2dVertex
 10
0.4125765685608443
 20
0.2105476542702536
 30
0.0
 70
     8
  0
VERTEX
  5
B79
330
B42
100
AcDbEntity
  8
0
370
    20
100
AcDbVertex
100
AcDb2dVertex
 10
0.4099167810689384
 20
0.2085573009974007
 30
0.0
 70
     8
  0
VERTEX
  5
B7A
330
B42
100
AcDbEntity
  8
0
370
    20
100
AcDbVertex
100
AcDb2dVertex
 10
0.4073626804196682
 20
0.2063998328578092
 30
0.0
 70
     8
  0
VERTEX
  5
B7B
330
B42
100
AcDbEntity
  8
0
370
    20
100
AcDbVertex
100
AcDb2dVertex
 10
0.4048912913822189
 20
0.2040758240284184
 30
0.0
 70
     8
  0
VERTEX
  5
B7C
330
B42
100
AcDbEntity
  8
0
370
    20
100
AcDbVertex
100
AcDb2dVertex
 10
0.402479638725767
 20
0.201585848686167
 30
0.0
 70
     8
  0
VERTEX
  5
B7D
330
B42
100
AcDbEntity
  8
0
370
    20
100
AcDbVertex
100
AcDb2dVertex
 10
0.4001136501461762
 20
0.1989321081428966
 30
0.0
 70
     8
  0
VERTEX
  5
B7E
330
B42
100
AcDbEntity
  8
0
370
    20
100
AcDbVertex
100
AcDb2dVertex
 10
0.397814865046044
 20
0.1961233122500567
 30
0.0
 70
     8
  0
VERTEX
  5
B7F
330
B42
100
AcDbEntity
  8
0
370
    20
100
AcDbVertex
100
AcDb2dVertex
 10
0.3956137257546572
 20
0.1931697979939992
 30
0.0
 70
     8
  0
VERTEX
  5
B80
330
B42
100
AcDbEntity
  8
0
370
    20
100
AcDbVertex
100
AcDb2dVertex
 10
0.3935406746012955
 20
0.190081902361076
 30
0.0
 70
     8
  0
VERTEX
  5
B81
330
B42
100
AcDbEntity
  8
0
370
    20
100
AcDbVertex
100
AcDb2dVertex
 10
0.3916261539152419
 20
0.1868699623376391
 30
0.0
 70
     8
  0
VERTEX
  5
B82
330
B42
100
AcDbEntity
  8
0
370
    20
100
AcDbVertex
100
AcDb2dVertex
 10
0.3899006060257779
 20
0.1835443149100399
 30
0.0
 70
     8
  0
VERTEX
  5
B83
330
B42
100
AcDbEntity
  8
0
370
    20
100
AcDbVertex
100
AcDb2dVertex
 10
0.3883944732621902
 20
0.1801152970646306
 30
0.0
 70
     8
  0
VERTEX
  5
B84
330
B42
100
AcDbEntity
  8
0
370
    20
100
AcDbVertex
100
AcDb2dVertex
 10
0.3871381979537585
 20
0.1765932457877628
 30
0.0
 70
     8
  0
VERTEX
  5
B85
330
B42
100
AcDbEntity
  8
0
370
    20
100
AcDbVertex
100
AcDb2dVertex
 10
0.3861540853197081
 20
0.1729914651893847
 30
0.0
 70
     8
  0
VERTEX
  5
B86
330
B42
100
AcDbEntity
  8
0
370
    20
100
AcDbVertex
100
AcDb2dVertex
 10
0.3854318921390298
 20
0.1693351278738278
 30
0.0
 70
     8
  0
VERTEX
  5
B87
330
B42
100
AcDbEntity
  8
0
370
    20
100
AcDbVertex
100
AcDb2dVertex
 10
0.3849532380806533
 20
0.1656523735690198
 30
0.0
 70
     8
  0
VERTEX
  5
B88
330
B42
100
AcDbEntity
  8
0
370
    20
100
AcDbVertex
100
AcDb2dVertex
 10
0.3846997428135115
 20
0.1619713420028885
 30
0.0
 70
     8
  0
VERTEX
  5
B89
330
B42
100
AcDbEntity
  8
0
370
    20
100
AcDbVertex
100
AcDb2dVertex
 10
0.3846530260065339
 20
0.1583201729033618
 30
0.0
 70
     8
  0
VERTEX
  5
B8A
330
B42
100
AcDbEntity
  8
0
370
    20
100
AcDbVertex
100
AcDb2dVertex
 10
0.3847947073286537
 20
0.1547270059983672
 30
0.0
 70
     8
  0
VERTEX
  5
B8B
330
B42
100
AcDbEntity
  8
0
370
    20
100
AcDbVertex
100
AcDb2dVertex
 10
0.3851064064488039
 20
0.1512199810158326
 30
0.0
 70
     8
  0
VERTEX
  5
B8C
330
B42
100
AcDbEntity
  8
0
370
    20
100
AcDbVertex
100
AcDb2dVertex
 10
0.3855697430359122
 20
0.1478272376836857
 30
0.0
 70
     8
  0
VERTEX
  5
B8D
330
B42
100
AcDbEntity
  8
0
370
    20
100
AcDbVertex
100
AcDb2dVertex
 10
0.3861740909742153
 20
0.1445705029325932
 30
0.0
 70
     8
  0
VERTEX
  5
B8E
330
B42
100
AcDbEntity
  8
0
370
    20
100
AcDbVertex
100
AcDb2dVertex
 10
0.3869398410091573
 20
0.1414458525041777
 30
0.0
 70
     8
  0
VERTEX
  5
B8F
330
B42
100
AcDbEntity
  8
0
370
    20
100
AcDbVertex
100
AcDb2dVertex
 10
0.3878951381014826
 20
0.1384429493428012
 30
0.0
 70
     8
  0
VERTEX
  5
B90
330
B42
100
AcDbEntity
  8
0
370
    20
100
AcDbVertex
100
AcDb2dVertex
 10
0.3890681272119423
 20
0.1355514563928249
 30
0.0
 70
     8
  0
VERTEX
  5
B91
330
B42
100
AcDbEntity
  8
0
370
    20
100
AcDbVertex
100
AcDb2dVertex
 10
0.3904869533012789
 20
0.1327610365986108
 30
0.0
 70
     8
  0
VERTEX
  5
B92
330
B42
100
AcDbEntity
  8
0
370
    20
100
AcDbVertex
100
AcDb2dVertex
 10
0.392179761330242
 20
0.1300613529045204
 30
0.0
 70
     8
  0
VERTEX
  5
B93
330
B42
100
AcDbEntity
  8
0
370
    20
100
AcDbVertex
100
AcDb2dVertex
 10
0.3941746962595793
 20
0.1274420682549154
 30
0.0
 70
     8
  0
VERTEX
  5
B94
330
B42
100
AcDbEntity
  8
0
370
    20
100
AcDbVertex
100
AcDb2dVertex
 10
0.3964999030500351
 20
0.1248928455941575
 30
0.0
 70
     8
  0
VERTEX
  5
B95
330
B42
100
AcDbEntity
  8
0
370
    20
100
AcDbVertex
100
AcDb2dVertex
 10
0.3991747193915795
 20
0.1224053578438752
 30
0.0
 70
     8
  0
VERTEX
  5
B96
330
B42
100
AcDbEntity
  8
0
370
    20
100
AcDbVertex
100
AcDb2dVertex
 10
0.4021832538910673
 20
0.1199793178347647
 30
0.0
 70
     8
  0
VERTEX
  5
B97
330
B42
100
AcDbEntity
  8
0
370
    20
100
AcDbVertex
100
AcDb2dVertex
 10
0.4055008078845752
 20
0.1176164483747893
 30
0.0
 70
     8
  0
VERTEX
  5
B98
330
B42
100
AcDbEntity
  8
0
370
    20
100
AcDbVertex
100
AcDb2dVertex
 10
0.4091026827081823
 20
0.1153184722719123
 30
0.0
 70
     8
  0
VERTEX
  5
B99
330
B42
100
AcDbEntity
  8
0
370
    20
100
AcDbVertex
100
AcDb2dVertex
 10
0.4129641796979638
 20
0.1130871123340966
 30
0.0
 70
     8
  0
VERTEX
  5
B9A
330
B42
100
AcDbEntity
  8
0
370
    20
100
AcDbVertex
100
AcDb2dVertex
 10
0.4170606001899984
 20
0.1109240913693055
 30
0.0
 70
     8
  0
VERTEX
  5
B9B
330
B42
100
AcDbEntity
  8
0
370
    20
100
AcDbVertex
100
AcDb2dVertex
 10
0.4213672455203632
 20
0.1088311321855022
 30
0.0
 70
     8
  0
VERTEX
  5
B9C
330
B42
100
AcDbEntity
  8
0
370
    20
100
AcDbVertex
100
AcDb2dVertex
 10
0.4258594170251336
 20
0.10680995759065
 30
0.0
 70
     8
  0
VERTEX
  5
B9D
330
B42
100
AcDbEntity
  8
0
370
    20
100
AcDbVertex
100
AcDb2dVertex
 10
0.4305129904503051
 20
0.1048603761462448
 30
0.0
 70
     8
  0
VERTEX
  5
B9E
330
B42
100
AcDbEntity
  8
0
370
    20
100
AcDbVertex
100
AcDb2dVertex
 10
0.4353061391815452
 20
0.1029745394279137
 30
0.0
 70
     8
  0
VERTEX
  5
B9F
330
B42
100
AcDbEntity
  8
0
370
    20
100
AcDbVertex
100
AcDb2dVertex
 10
0.4402176110144307
 20
0.1011426847648171
 30
0.0
 70
     8
  0
VERTEX
  5
BA0
330
B42
100
AcDbEntity
  8
0
370
    20
100
AcDbVertex
100
AcDb2dVertex
 10
0.4452261537445441
 20
0.0993550494861151
 30
0.0
 70
     8
  0
VERTEX
  5
BA1
330
B42
100
AcDbEntity
  8
0
370
    20
100
AcDbVertex
100
AcDb2dVertex
 10
0.4503105151674678
 20
0.097601870920968
 30
0.0
 70
     8
  0
VERTEX
  5
BA2
330
B42
100
AcDbEntity
  8
0
370
    20
100
AcDbVertex
100
AcDb2dVertex
 10
0.4554494430787824
 20
0.0958733863985357
 30
0.0
 70
     8
  0
VERTEX
  5
BA3
330
B42
100
AcDbEntity
  8
0
370
    20
100
AcDbVertex
100
AcDb2dVertex
 10
0.4606216852740719
 20
0.0941598332479786
 30
0.0
 70
     8
  0
VERTEX
  5
BA4
330
B42
100
AcDbEntity
  8
0
370
    20
100
AcDbVertex
100
AcDb2dVertex
 10
0.4658059895489135
 20
0.0924514487984568
 30
0.0
 70
     8
  0
VERTEX
  5
BA5
330
B42
100
AcDbEntity
  8
0
370
    20
100
AcDbVertex
100
AcDb2dVertex
 10
0.4709755512911169
 20
0.0907391403561557
 30
0.0
 70
     8
  0
VERTEX
  5
BA6
330
B42
100
AcDbEntity
  8
0
370
    20
100
AcDbVertex
100
AcDb2dVertex
 10
0.4760813562573834
 20
0.0890164951353622
 30
0.0
 70
     8
  0
VERTEX
  5
BA7
330
B42
100
AcDbEntity
  8
0
370
    20
100
AcDbVertex
100
AcDb2dVertex
 10
0.4810688377966433
 20
0.0872777703273881
 30
0.0
 70
     8
  0
VERTEX
  5
BA8
330
B42
100
AcDbEntity
  8
0
370
    20
100
AcDbVertex
100
AcDb2dVertex
 10
0.4858834292578252
 20
0.0855172231235457
 30
0.0
 70
     8
  0
VERTEX
  5
BA9
330
B42
100
AcDbEntity
  8
0
370
    20
100
AcDbVertex
100
AcDb2dVertex
 10
0.4904705639898542
 20
0.0837291107151469
 30
0.0
 70
     8
  0
VERTEX
  5
BAA
330
B42
100
AcDbEntity
  8
0
370
    20
100
AcDbVertex
100
AcDb2dVertex
 10
0.4947756753416624
 20
0.081907690293504
 30
0.0
 70
     8
  0
VERTEX
  5
BAB
330
B42
100
AcDbEntity
  8
0
370
    20
100
AcDbVertex
100
AcDb2dVertex
 10
0.4987441966621784
 20
0.0800472190499286
 30
0.0
 70
     8
  0
VERTEX
  5
BAC
330
B42
100
AcDbEntity
  8
0
370
    20
100
AcDbVertex
100
AcDb2dVertex
 10
0.5023215613003274
 20
0.0781419541757333
 30
0.0
 70
     8
  0
VERTEX
  5
BAD
330
B42
100
AcDbEntity
  8
0
370
    20
100
AcDbVertex
100
AcDb2dVertex
 10
0.5054674665327905
 20
0.0761885456934094
 30
0.0
 70
     8
  0
VERTEX
  5
BAE
330
B42
100
AcDbEntity
  8
0
370
    20
100
AcDbVertex
100
AcDb2dVertex
 10
0.5081986653472566
 20
0.074193214950166
 30
0.0
 70
     8
  0
VERTEX
  5
BAF
330
B42
100
AcDbEntity
  8
0
370
    20
100
AcDbVertex
100
AcDb2dVertex
 10
0.510546174659158
 20
0.0721645761243919
 30
0.0
 70
     8
  0
VERTEX
  5
BB0
330
B42
100
AcDbEntity
  8
0
370
    20
100
AcDbVertex
100
AcDb2dVertex
 10
0.5125410113839326
 20
0.070111243394476
 30
0.0
 70
     8
  0
VERTEX
  5
BB1
330
B42
100
AcDbEntity
  8
0
370
    20
100
AcDbVertex
100
AcDb2dVertex
 10
0.5142141924370201
 20
0.0680418309388067
 30
0.0
 70
     8
  0
VERTEX
  5
BB2
330
B42
100
AcDbEntity
  8
0
370
    20
100
AcDbVertex
100
AcDb2dVertex
 10
0.5155967347338546
 20
0.0659649529357727
 30
0.0
 70
     8
  0
VERTEX
  5
BB3
330
B42
100
AcDbEntity
  8
0
370
    20
100
AcDbVertex
100
AcDb2dVertex
 10
0.5167196551898741
 20
0.0638892235637628
 30
0.0
 70
     8
  0
VERTEX
  5
BB4
330
B42
100
AcDbEntity
  8
0
370
    20
100
AcDbVertex
100
AcDb2dVertex
 10
0.5176139707205163
 20
0.0618232570011658
 30
0.0
 70
     8
  0
VERTEX
  5
BB5
330
B42
100
AcDbEntity
  8
0
370
    20
100
AcDbVertex
100
AcDb2dVertex
 10
0.5183048586352595
 20
0.0597737531568076
 30
0.0
 70
     8
  0
VERTEX
  5
BB6
330
B42
100
AcDbEntity
  8
0
370
    20
100
AcDbVertex
100
AcDb2dVertex
 10
0.5187941378197661
 20
0.0577397548612636
 30
0.0
 70
     8
  0
VERTEX
  5
BB7
330
B42
100
AcDbEntity
  8
0
370
    20
100
AcDbVertex
100
AcDb2dVertex
 10
0.5190777875537336
 20
0.0557183906755467
 30
0.0
 70
     8
  0
VERTEX
  5
BB8
330
B42
100
AcDbEntity
  8
0
370
    20
100
AcDbVertex
100
AcDb2dVertex
 10
0.519151787116865
 20
0.0537067891606697
 30
0.0
 70
     8
  0
VERTEX
  5
BB9
330
B42
100
AcDbEntity
  8
0
370
    20
100
AcDbVertex
100
AcDb2dVertex
 10
0.519012115788863
 20
0.0517020788776452
 30
0.0
 70
     8
  0
VERTEX
  5
BBA
330
B42
100
AcDbEntity
  8
0
370
    20
100
AcDbVertex
100
AcDb2dVertex
 10
0.5186547528494306
 20
0.0497013883874862
 30
0.0
 70
     8
  0
VERTEX
  5
BBB
330
B42
100
AcDbEntity
  8
0
370
    20
100
AcDbVertex
100
AcDb2dVertex
 10
0.5180756775782669
 20
0.0477018462512052
 30
0.0
 70
     8
  0
VERTEX
  5
BBC
330
B42
100
AcDbEntity
  8
0
370
    20
100
AcDbVertex
100
AcDb2dVertex
 10
0.5172708692550767
 20
0.0457005810298152
 30
0.0
 70
     8
  0
VERTEX
  5
BBD
330
B42
100
AcDbEntity
  8
0
370
    20
100
AcDbVertex
100
AcDb2dVertex
 10
0.5162381260452165
 20
0.0436975927002208
 30
0.0
 70
     8
  0
VERTEX
  5
BBE
330
B42
100
AcDbEntity
  8
0
370
    20
100
AcDbVertex
100
AcDb2dVertex
 10
0.5149825216566786
 20
0.0417043669028929
 30
0.0
 70
     8
  0
VERTEX
  5
BBF
330
B42
100
AcDbEntity
  8
0
370
    20
100
AcDbVertex
100
AcDb2dVertex
 10
0.5135109486831109
 20
0.0397352606941952
 30
0.0
 70
     8
  0
VERTEX
  5
BC0
330
B42
100
AcDbEntity
  8
0
370
    20
100
AcDbVertex
100
AcDb2dVertex
 10
0.5118302997181612
 20
0.0378046311304906
 30
0.0
 70
     8
  0
VERTEX
  5
BC1
330
B42
100
AcDbEntity
  8
0
370
    20
100
AcDbVertex
100
AcDb2dVertex
 10
0.5099474673554792
 20
0.0359268352681422
 30
0.0
 70
     8
  0
VERTEX
  5
BC2
330
B42
100
AcDbEntity
  8
0
370
    20
100
AcDbVertex
100
AcDb2dVertex
 10
0.5078693441887108
 20
0.0341162301635132
 30
0.0
 70
     8
  0
VERTEX
  5
BC3
330
B42
100
AcDbEntity
  8
0
370
    20
100
AcDbVertex
100
AcDb2dVertex
 10
0.5056028228115057
 20
0.0323871728729666
 30
0.0
 70
     8
  0
VERTEX
  5
BC4
330
B42
100
AcDbEntity
  8
0
370
    20
100
AcDbVertex
100
AcDb2dVertex
 10
0.5031547958175118
 20
0.0307540204528656
 30
0.0
 70
     8
  0
VERTEX
  5
BC5
330
B42
100
AcDbEntity
  8
0
370
    20
100
AcDbVertex
100
AcDb2dVertex
 10
0.5005354106362656
 20
0.0292294070938715
 30
0.0
 70
     8
  0
VERTEX
  5
BC6
330
B42
100
AcDbEntity
  8
0
370
    20
100
AcDbVertex
100
AcDb2dVertex
 10
0.4977678340408627
 20
0.0278190755238379
 30
0.0
 70
     8
  0
VERTEX
  5
BC7
330
B42
100
AcDbEntity
  8
0
370
    20
100
AcDbVertex
100
AcDb2dVertex
 10
0.4948784876402908
 20
0.0265270456049169
 30
0.0
 70
     8
  0
VERTEX
  5
BC8
330
B42
100
AcDbEntity
  8
0
370
    20
100
AcDbVertex
100
AcDb2dVertex
 10
0.4918937930435288
 20
0.0253573371992602
 30
0.0
 70
     8
  0
VERTEX
  5
BC9
330
B42
100
AcDbEntity
  8
0
370
    20
100
AcDbVertex
100
AcDb2dVertex
 10
0.4888401718595663
 20
0.0243139701690196
 30
0.0
 70
     8
  0
VERTEX
  5
BCA
330
B42
100
AcDbEntity
  8
0
370
    20
100
AcDbVertex
100
AcDb2dVertex
 10
0.4857440456973859
 20
0.023400964376347
 30
0.0
 70
     8
  0
VERTEX
  5
BCB
330
B42
100
AcDbEntity
  8
0
370
    20
100
AcDbVertex
100
AcDb2dVertex
 10
0.4826318361659734
 20
0.0226223396833945
 30
0.0
 70
     8
  0
VERTEX
  5
BCC
330
B42
100
AcDbEntity
  8
0
370
    20
100
AcDbVertex
100
AcDb2dVertex
 10
0.4795299648743115
 20
0.0219821159523135
 30
0.0
 70
     8
  0
VERTEX
  5
BCD
330
B42
100
AcDbEntity
  8
0
370
    20
100
AcDbVertex
100
AcDb2dVertex
 10
0.4764588224322797
 20
0.0214830687873621
 30
0.0
 70
     8
  0
VERTEX
  5
BCE
330
B42
100
AcDbEntity
  8
0
370
    20
100
AcDbVertex
100
AcDb2dVertex
 10
0.4734146754533271
 20
0.0211229967612214
 30
0.0
 70
     8
  0
VERTEX
  5
BCF
330
B42
100
AcDbEntity
  8
0
370
    20
100
AcDbVertex
100
AcDb2dVertex
 10
0.4703877595517927
 20
0.020898454188679
 30
0.0
 70
     8
  0
VERTEX
  5
BD0
330
B42
100
AcDbEntity
  8
0
370
    20
100
AcDbVertex
100
AcDb2dVertex
 10
0.4673683103420228
 20
0.0208059953845218
 30
0.0
 70
     8
  0
VERTEX
  5
BD1
330
B42
100
AcDbEntity
  8
0
370
    20
100
AcDbVertex
100
AcDb2dVertex
 10
0.4643465634383546
 20
0.0208421746635371
 30
0.0
 70
     8
  0
VERTEX
  5
BD2
330
B42
100
AcDbEntity
  8
0
370
    20
100
AcDbVertex
100
AcDb2dVertex
 10
0.4613127544551326
 20
0.0210035463405123
 30
0.0
 70
     8
  0
VERTEX
  5
BD3
330
B42
100
AcDbEntity
  8
0
370
    20
100
AcDbVertex
100
AcDb2dVertex
 10
0.4582571190066976
 20
0.0212866647302343
 30
0.0
 70
     8
  0
VERTEX
  5
BD4
330
B42
100
AcDbEntity
  8
0
370
    20
100
AcDbVertex
100
AcDb2dVertex
 10
0.4551698927073922
 20
0.0216880841474907
 30
0.0
 70
     8
  0
VERTEX
  5
BD5
330
B42
100
AcDbEntity
  8
0
370
    20
100
AcDbVertex
100
AcDb2dVertex
 10
0.4520472464469752
 20
0.022205603199606
 30
0.0
 70
     8
  0
VERTEX
  5
BD6
330
B42
100
AcDbEntity
  8
0
370
    20
100
AcDbVertex
100
AcDb2dVertex
 10
0.4489090922168817
 20
0.0228419976640538
 30
0.0
 70
     8
  0
VERTEX
  5
BD7
330
B42
100
AcDbEntity
  8
0
370
    20
100
AcDbVertex
100
AcDb2dVertex
 10
0.4457812772839596
 20
0.0236012876108457
 30
0.0
 70
     8
  0
VERTEX
  5
BD8
330
B42
100
AcDbEntity
  8
0
370
    20
100
AcDbVertex
100
AcDb2dVertex
 10
0.4426896489150618
 20
0.0244874931099928
 30
0.0
 70
     8
  0
VERTEX
  5
BD9
330
B42
100
AcDbEntity
  8
0
370
    20
100
AcDbVertex
100
AcDb2dVertex
 10
0.4396600543770362
 20
0.0255046342315064
 30
0.0
 70
     8
  0
VERTEX
  5
BDA
330
B42
100
AcDbEntity
  8
0
370
    20
100
AcDbVertex
100
AcDb2dVertex
 10
0.4367183409367357
 20
0.0266567310453978
 30
0.0
 70
     8
  0
VERTEX
  5
BDB
330
B42
100
AcDbEntity
  8
0
370
    20
100
AcDbVertex
100
AcDb2dVertex
 10
0.4338903558610117
 20
0.027947803621678
 30
0.0
 70
     8
  0
VERTEX
  5
BDC
330
B42
100
AcDbEntity
  8
0
370
    20
100
AcDbVertex
100
AcDb2dVertex
 10
0.4312019464167119
 20
0.0293818720303587
 30
0.0
 70
     8
  0
VERTEX
  5
BDD
330
B42
100
AcDbEntity
  8
0
370
    20
100
AcDbVertex
100
AcDb2dVertex
 10
0.4286746519928819
 20
0.0309575006558758
 30
0.0
 70
     8
  0
VERTEX
  5
BDE
330
B42
100
AcDbEntity
  8
0
370
    20
100
AcDbVertex
100
AcDb2dVertex
 10
0.4263127804673275
 20
0.0326514311403644
 30
0.0
 70
     8
  0
VERTEX
  5
BDF
330
B42
100
AcDbEntity
  8
0
370
    20
100
AcDbVertex
100
AcDb2dVertex
 10
0.4241163318400503
 20
0.0344349494403852
 30
0.0
 70
     8
  0
VERTEX
  5
BE0
330
B42
100
AcDbEntity
  8
0
370
    20
100
AcDbVertex
100
AcDb2dVertex
 10
0.4220853061110504
 20
0.0362793415124982
 30
0.0
 70
     8
  0
VERTEX
  5
BE1
330
B42
100
AcDbEntity
  8
0
370
    20
100
AcDbVertex
100
AcDb2dVertex
 10
0.4202197032803259
 20
0.0381558933132638
 30
0.0
 70
     8
  0
VERTEX
  5
BE2
330
B42
100
AcDbEntity
  8
0
370
    20
100
AcDbVertex
100
AcDb2dVertex
 10
0.4185195233478787
 20
0.0400358907992422
 30
0.0
 70
     8
  0
VERTEX
  5
BE3
330
B42
100
AcDbEntity
  8
0
370
    20
100
AcDbVertex
100
AcDb2dVertex
 10
0.4169847663137088
 20
0.0418906199269937
 30
0.0
 70
     8
  0
VERTEX
  5
BE4
330
B42
100
AcDbEntity
  8
0
370
    20
100
AcDbVertex
100
AcDb2dVertex
 10
0.4156154321778143
 20
0.0436913666530786
 30
0.0
 70
     8
  0
VERTEX
  5
BE5
330
B42
100
AcDbEntity
  8
0
370
    20
100
AcDbVertex
100
AcDb2dVertex
 10
0.4144097020545381
 20
0.0454148726080845
 30
0.0
 70
     8
  0
VERTEX
  5
BE6
330
B42
100
AcDbEntity
  8
0
370
    20
100
AcDbVertex
100
AcDb2dVertex
 10
0.4133584815155924
 20
0.0470597021187087
 30
0.0
 70
     8
  0
VERTEX
  5
BE7
330
B42
100
AcDbEntity
  8
0
370
    20
100
AcDbVertex
100
AcDb2dVertex
 10
0.4124508572470323
 20
0.0486298751856762
 30
0.0
 70
     8
  0
VERTEX
  5
BE8
330
B42
100
AcDbEntity
  8
0
370
    20
100
AcDbVertex
100
AcDb2dVertex
 10
0.4116759159349091
 20
0.0501294118097115
 30
0.0
 70
     8
  0
VERTEX
  5
BE9
330
B42
100
AcDbEntity
  8
0
370
    20
100
AcDbVertex
100
AcDb2dVertex
 10
0.4110227442652779
 20
0.0515623319915397
 30
0.0
 70
     8
  0
VERTEX
  5
BEA
330
B42
100
AcDbEntity
  8
0
370
    20
100
AcDbVertex
100
AcDb2dVertex
 10
0.4104804289241902
 20
0.0529326557318852
 30
0.0
 70
     8
  0
VERTEX
  5
BEB
330
B42
100
AcDbEntity
  8
0
370
    20
100
AcDbVertex
100
AcDb2dVertex
 10
0.4100380565977027
 20
0.0542444030314731
 30
0.0
 70
     8
  0
VERTEX
  5
BEC
330
B42
100
AcDbEntity
  8
0
370
    20
100
AcDbVertex
100
AcDb2dVertex
 10
0.4096847139718669
 20
0.0555015938910279
 30
0.0
 70
     8
  0
VERTEX
  5
BED
330
B42
100
AcDbEntity
  8
0
370
    20
100
AcDbVertex
100
AcDb2dVertex
 10
0.4093963726112638
 20
0.0567059511877994
 30
0.0
 70
     8
  0
VERTEX
  5
BEE
330
B42
100
AcDbEntity
  8
0
370
    20
100
AcDbVertex
100
AcDb2dVertex
 10
0.4090965435945808
 20
0.0578500093051364
 30
0.0
 70
     8
  0
VERTEX
  5
BEF
330
B42
100
AcDbEntity
  8
0
370
    20
100
AcDbVertex
100
AcDb2dVertex
 10
0.4086956228790318
 20
0.0589240055029127
 30
0.0
 70
     8
  0
VERTEX
  5
BF0
330
B42
100
AcDbEntity
  8
0
370
    20
100
AcDbVertex
100
AcDb2dVertex
 10
0.4081040064218282
 20
0.059918177041002
 30
0.0
 70
     8
  0
VERTEX
  5
BF1
330
B42
100
AcDbEntity
  8
0
370
    20
100
AcDbVertex
100
AcDb2dVertex
 10
0.4072320901801856
 20
0.0608227611792779
 30
0.0
 70
     8
  0
VERTEX
  5
BF2
330
B42
100
AcDbEntity
  8
0
370
    20
100
AcDbVertex
100
AcDb2dVertex
 10
0.4059902701113156
 20
0.0616279951776143
 30
0.0
 70
     8
  0
VERTEX
  5
BF3
330
B42
100
AcDbEntity
  8
0
370
    20
100
AcDbVertex
100
AcDb2dVertex
 10
0.4042889421724354
 20
0.0623241162958849
 30
0.0
 70
     8
  0
VERTEX
  5
BF4
330
B42
100
AcDbEntity
  8
0
370
    20
100
AcDbVertex
100
AcDb2dVertex
 10
0.4020385023207549
 20
0.0629013617939633
 30
0.0
 70
     8
  0
VERTEX
  5
BF5
330
B42
100
AcDbEntity
  8
0
370
    20
100
AcDbVertex
100
AcDb2dVertex
 10
0.3991890938320193
 20
0.0633535703737184
 30
0.0
 70
     8
  0
VERTEX
  5
BF6
330
B42
100
AcDbEntity
  8
0
370
    20
100
AcDbVertex
100
AcDb2dVertex
 10
0.3958498492560984
 20
0.0636889865049986
 30
0.0
 70
     8
  0
VERTEX
  5
BF7
330
B42
100
AcDbEntity
  8
0
370
    20
100
AcDbVertex
100
AcDb2dVertex
 10
0.3921696484613921
 20
0.0639194560996475
 30
0.0
 70
     8
  0
VERTEX
  5
BF8
330
B42
100
AcDbEntity
  8
0
370
    20
100
AcDbVertex
100
AcDb2dVertex
 10
0.3882973713163
 20
0.0640568250695088
 30
0.0
 70
     8
  0
VERTEX
  5
BF9
330
B42
100
AcDbEntity
  8
0
370
    20
100
AcDbVertex
100
AcDb2dVertex
 10
0.3843818976892219
 20
0.0641129393264263
 30
0.0
 70
     8
  0
VERTEX
  5
BFA
330
B42
100
AcDbEntity
  8
0
370
    20
100
AcDbVertex
100
AcDb2dVertex
 10
0.3805721074485593
 20
0.0640996447822431
 30
0.0
 70
     8
  0
VERTEX
  5
BFB
330
B42
100
AcDbEntity
  8
0
370
    20
100
AcDbVertex
100
AcDb2dVertex
 10
0.3770168804627101
 20
0.0640287873488033
 30
0.0
 70
     8
  0
VERTEX
  5
BFC
330
B42
100
AcDbEntity
  8
0
370
    20
100
AcDbVertex
100
AcDb2dVertex
 10
0.3738650966000758
 20
0.0639122129379502
 30
0.0
 70
     8
  0
VERTEX
  5
BFD
330
B42
100
AcDbEntity
  8
0
370
    20
100
AcDbVertex
100
AcDb2dVertex
 10
0.3712388758185501
 20
0.0637495124147214
 30
0.0
 70
     8
  0
VERTEX
  5
BFE
330
B42
100
AcDbEntity
  8
0
370
    20
100
AcDbVertex
100
AcDb2dVertex
 10
0.3691532984339911
 20
0.063491256456929
 30
0.0
 70
     8
  0
VERTEX
  5
BFF
330
B42
100
AcDbEntity
  8
0
370
    20
100
AcDbVertex
100
AcDb2dVertex
 10
0.3675966848517529
 20
0.0630757606955796
 30
0.0
 70
     8
  0
VERTEX
  5
C00
330
B42
100
AcDbEntity
  8
0
370
    20
100
AcDbVertex
100
AcDb2dVertex
 10
0.3665573554771893
 20
0.0624413407616796
 30
0.0
 70
     8
  0
VERTEX
  5
C01
330
B42
100
AcDbEntity
  8
0
370
    20
100
AcDbVertex
100
AcDb2dVertex
 10
0.3660236307156524
 20
0.0615263122862351
 30
0.0
 70
     8
  0
VERTEX
  5
C02
330
B42
100
AcDbEntity
  8
0
370
    20
100
AcDbVertex
100
AcDb2dVertex
 10
0.3659838309724979
 20
0.0602689909002525
 30
0.0
 70
     8
  0
VERTEX
  5
C03
330
B42
100
AcDbEntity
  8
0
370
    20
100
AcDbVertex
100
AcDb2dVertex
 10
0.3664262766530779
 20
0.0586076922347381
 30
0.0
 70
     8
  0
VERTEX
  5
C04
330
B42
100
AcDbEntity
  8
0
370
    20
100
AcDbVertex
100
AcDb2dVertex
 10
0.3673392881627446
 20
0.056480731920698
 30
0.0
 70
     8
  0
VERTEX
  5
C05
330
B42
100
AcDbEntity
  8
0
370
    20
100
AcDbVertex
100
AcDb2dVertex
 10
0.3687057084323921
 20
0.0538514208365142
 30
0.0
 70
     8
  0
VERTEX
  5
C06
330
B42
100
AcDbEntity
  8
0
370
    20
100
AcDbVertex
100
AcDb2dVertex
 10
0.3704864704950808
 20
0.0507830508500697
 30
0.0
 70
     8
  0
VERTEX
  5
C07
330
B42
100
AcDbEntity
  8
0
370
    20
100
AcDbVertex
100
AcDb2dVertex
 10
0.3726370299094057
 20
0.0473639090766233
 30
0.0
 70
     8
  0
VERTEX
  5
C08
330
B42
100
AcDbEntity
  8
0
370
    20
100
AcDbVertex
100
AcDb2dVertex
 10
0.3751128422339658
 20
0.0436822826314334
 30
0.0
 70
     8
  0
VERTEX
  5
C09
330
B42
100
AcDbEntity
  8
0
370
    20
100
AcDbVertex
100
AcDb2dVertex
 10
0.3778693630273597
 20
0.0398264586297584
 30
0.0
 70
     8
  0
VERTEX
  5
C0A
330
B42
100
AcDbEntity
  8
0
370
    20
100
AcDbVertex
100
AcDb2dVertex
 10
0.3808620478481845
 20
0.0358847241868575
 30
0.0
 70
     8
  0
VERTEX
  5
C0B
330
B42
100
AcDbEntity
  8
0
370
    20
100
AcDbVertex
100
AcDb2dVertex
 10
0.3840463522550426
 20
0.0319453664179887
 30
0.0
 70
     8
  0
VERTEX
  5
C0C
330
B42
100
AcDbEntity
  8
0
370
    20
100
AcDbVertex
100
AcDb2dVertex
 10
0.3873777318065254
 20
0.0280966724384111
 30
0.0
 70
     8
  0
VERTEX
  5
C0D
330
B42
100
AcDbEntity
  8
0
370
    20
100
AcDbVertex
100
AcDb2dVertex
 10
0.3908141919010752
 20
0.0244143302746325
 30
0.0
 70
     8
  0
VERTEX
  5
C0E
330
B42
100
AcDbEntity
  8
0
370
    20
100
AcDbVertex
100
AcDb2dVertex
 10
0.3943239372964786
 20
0.02092363159816
 30
0.0
 70
     8
  0
VERTEX
  5
C0F
330
B42
100
AcDbEntity
  8
0
370
    20
100
AcDbVertex
100
AcDb2dVertex
 10
0.3978777225903602
 20
0.01763726899175
 30
0.0
 70
     8
  0
VERTEX
  5
C10
330
B42
100
AcDbEntity
  8
0
370
    20
100
AcDbVertex
100
AcDb2dVertex
 10
0.4014463023803483
 20
0.0145679350381587
 30
0.0
 70
     8
  0
VERTEX
  5
C11
330
B42
100
AcDbEntity
  8
0
370
    20
100
AcDbVertex
100
AcDb2dVertex
 10
0.405000431264071
 20
0.0117283223201429
 30
0.0
 70
     8
  0
VERTEX
  5
C12
330
B42
100
AcDbEntity
  8
0
370
    20
100
AcDbVertex
100
AcDb2dVertex
 10
0.4085108638391528
 20
0.0091311234204589
 30
0.0
 70
     8
  0
VERTEX
  5
C13
330
B42
100
AcDbEntity
  8
0
370
    20
100
AcDbVertex
100
AcDb2dVertex
 10
0.4119483547032221
 20
0.0067890309218632
 30
0.0
 70
     8
  0
VERTEX
  5
C14
330
B42
100
AcDbEntity
  8
0
370
    20
100
AcDbVertex
100
AcDb2dVertex
 10
0.4152836584539053
 20
0.0047147374071119
 30
0.0
 70
     8
  0
VERTEX
  5
C15
330
B42
100
AcDbEntity
  8
0
370
    20
100
AcDbVertex
100
AcDb2dVertex
 10
0.4185035481744777
 20
0.0029150967586138
 30
0.0
 70
     8
  0
VERTEX
  5
C16
330
B42
100
AcDbEntity
  8
0
370
    20
100
AcDbVertex
100
AcDb2dVertex
 10
0.4216588708908198
 20
0.0013736080573838
 30
0.0
 70
     8
  0
VERTEX
  5
C17
330
B42
100
AcDbEntity
  8
0
370
    20
100
AcDbVertex
100
AcDb2dVertex
 10
0.4248164921144575
 20
0.0000679316840895
 30
0.0
 70
     8
  0
VERTEX
  5
C18
330
B42
100
AcDbEntity
  8
0
370
    20
100
AcDbVertex
100
AcDb2dVertex
 10
0.4280432773569203
 20
-0.0010242719806025
 30
0.0
 70
     8
  0
VERTEX
  5
C19
330
B42
100
AcDbEntity
  8
0
370
    20
100
AcDbVertex
100
AcDb2dVertex
 10
0.4314060921297376
 20
-0.0019253425560248
 30
0.0
 70
     8
  0
VERTEX
  5
C1A
330
B42
100
AcDbEntity
  8
0
370
    20
100
AcDbVertex
100
AcDb2dVertex
 10
0.4349718019444353
 20
-0.0026576196615102
 30
0.0
 70
     8
  0
VERTEX
  5
C1B
330
B42
100
AcDbEntity
  8
0
370
    20
100
AcDbVertex
100
AcDb2dVertex
 10
0.4388072723125429
 20
-0.0032434429163919
 30
0.0
 70
     8
  0
VERTEX
  5
C1C
330
B42
100
AcDbEntity
  8
0
370
    20
100
AcDbVertex
100
AcDb2dVertex
 10
0.4429793687455899
 20
-0.0037051519400024
 30
0.0
 70
     8
  0
VERTEX
  5
C1D
330
B42
100
AcDbEntity
  8
0
370
    20
100
AcDbVertex
100
AcDb2dVertex
 10
0.4475318303402318
 20
-0.0040592943149531
 30
0.0
 70
     8
  0
VERTEX
  5
C1E
330
B42
100
AcDbEntity
  8
0
370
    20
100
AcDbVertex
100
AcDb2dVertex
 10
0.4524158905336435
 20
-0.0042992494769688
 30
0.0
 70
     8
  0
VERTEX
  5
C1F
330
B42
100
AcDbEntity
  8
0
370
    20
100
AcDbVertex
100
AcDb2dVertex
 10
0.4575596563481277
 20
-0.0044126048250521
 30
0.0
 70
     8
  0
VERTEX
  5
C20
330
B42
100
AcDbEntity
  8
0
370
    20
100
AcDbVertex
100
AcDb2dVertex
 10
0.4628912348059871
 20
-0.0043869477582063
 30
0.0
 70
     8
  0
VERTEX
  5
C21
330
B42
100
AcDbEntity
  8
0
370
    20
100
AcDbVertex
100
AcDb2dVertex
 10
0.4683387329295261
 20
-0.0042098656754341
 30
0.0
 70
     8
  0
VERTEX
  5
C22
330
B42
100
AcDbEntity
  8
0
370
    20
100
AcDbVertex
100
AcDb2dVertex
 10
0.4738302577410441
 20
-0.0038689459757387
 30
0.0
 70
     8
  0
VERTEX
  5
C23
330
B42
100
AcDbEntity
  8
0
370
    20
100
AcDbVertex
100
AcDb2dVertex
 10
0.4792939162628489
 20
-0.0033517760581232
 30
0.0
 70
     8
  0
VERTEX
  5
C24
330
B42
100
AcDbEntity
  8
0
370
    20
100
AcDbVertex
100
AcDb2dVertex
 10
0.4846578155172399
 20
-0.0026459433215902
 30
0.0
 70
     8
  0
VERTEX
  5
C25
330
B42
100
AcDbEntity
  8
0
370
    20
100
AcDbVertex
100
AcDb2dVertex
 10
0.4898607684368823
 20
-0.0017409207039178
 30
0.0
 70
     8
  0
VERTEX
  5
C26
330
B42
100
AcDbEntity
  8
0
370
    20
100
AcDbVertex
100
AcDb2dVertex
 10
0.4948844115958817
 20
-0.0006337232979841
 30
0.0
 70
     8
  0
VERTEX
  5
C27
330
B42
100
AcDbEntity
  8
0
370
    20
100
AcDbVertex
100
AcDb2dVertex
 10
0.4997210874787044
 20
0.0006767482645583
 30
0.0
 70
     8
  0
VERTEX
  5
C28
330
B42
100
AcDbEntity
  8
0
370
    20
100
AcDbVertex
100
AcDb2dVertex
 10
0.5043631385698202
 20
0.0021915933520563
 30
0.0
 70
     8
  0
VERTEX
  5
C29
330
B42
100
AcDbEntity
  8
0
370
    20
100
AcDbVertex
100
AcDb2dVertex
 10
0.5088029073536938
 20
0.0039119113328573
 30
0.0
 70
     8
  0
VERTEX
  5
C2A
330
B42
100
AcDbEntity
  8
0
370
    20
100
AcDbVertex
100
AcDb2dVertex
 10
0.5130327363147931
 20
0.0058388015753083
 30
0.0
 70
     8
  0
VERTEX
  5
C2B
330
B42
100
AcDbEntity
  8
0
370
    20
100
AcDbVertex
100
AcDb2dVertex
 10
0.5170449679375864
 20
0.0079733634477562
 30
0.0
 70
     8
  0
VERTEX
  5
C2C
330
B42
100
AcDbEntity
  8
0
370
    20
100
AcDbVertex
100
AcDb2dVertex
 10
0.5208319447065382
 20
0.0103166963185486
 30
0.0
 70
     8
  0
VERTEX
  5
C2D
330
B42
100
AcDbEntity
  8
0
370
    20
100
AcDbVertex
100
AcDb2dVertex
 10
0.524387190217956
 20
0.0128654391589854
 30
0.0
 70
     8
  0
VERTEX
  5
C2E
330
B42
100
AcDbEntity
  8
0
370
    20
100
AcDbVertex
100
AcDb2dVertex
 10
0.5277089525154875
 20
0.0155983893521796
 30
0.0
 70
     8
  0
VERTEX
  5
C2F
330
B42
100
AcDbEntity
  8
0
370
    20
100
AcDbVertex
100
AcDb2dVertex
 10
0.5307966607546231
 20
0.0184898838841968
 30
0.0
 70
     8
  0
VERTEX
  5
C30
330
B42
100
AcDbEntity
  8
0
370
    20
100
AcDbVertex
100
AcDb2dVertex
 10
0.5336497440908517
 20
0.0215142597411031
 30
0.0
 70
     8
  0
VERTEX
  5
C31
330
B42
100
AcDbEntity
  8
0
370
    20
100
AcDbVertex
100
AcDb2dVertex
 10
0.5362676316796602
 20
0.0246458539089642
 30
0.0
 70
     8
  0
VERTEX
  5
C32
330
B42
100
AcDbEntity
  8
0
370
    20
100
AcDbVertex
100
AcDb2dVertex
 10
0.5386497526765375
 20
0.0278590033738462
 30
0.0
 70
     8
  0
VERTEX
  5
C33
330
B42
100
AcDbEntity
  8
0
370
    20
100
AcDbVertex
100
AcDb2dVertex
 10
0.5407955362369723
 20
0.0311280451218148
 30
0.0
 70
     8
  0
VERTEX
  5
C34
330
B42
100
AcDbEntity
  8
0
370
    20
100
AcDbVertex
100
AcDb2dVertex
 10
0.5427044115164552
 20
0.0344273161389359
 30
0.0
 70
     8
  0
VERTEX
  5
C35
330
B42
100
AcDbEntity
  8
0
370
    20
100
AcDbVertex
100
AcDb2dVertex
 10
0.5443786619743687
 20
0.0377320060274236
 30
0.0
 70
     8
  0
VERTEX
  5
C36
330
B42
100
AcDbEntity
  8
0
370
    20
100
AcDbVertex
100
AcDb2dVertex
 10
0.5458319882856931
 20
0.0410207148540847
 30
0.0
 70
     8
  0
VERTEX
  5
C37
330
B42
100
AcDbEntity
  8
0
370
    20
100
AcDbVertex
100
AcDb2dVertex
 10
0.547080945429304
 20
0.0442728953018745
 30
0.0
 70
     8
  0
VERTEX
  5
C38
330
B42
100
AcDbEntity
  8
0
370
    20
100
AcDbVertex
100
AcDb2dVertex
 10
0.5481420883840791
 20
0.0474680000537481
 30
0.0
 70
     8
  0
VERTEX
  5
C39
330
B42
100
AcDbEntity
  8
0
370
    20
100
AcDbVertex
100
AcDb2dVertex
 10
0.5490319721288924
 20
0.0505854817926604
 30
0.0
 70
     8
  0
VERTEX
  5
C3A
330
B42
100
AcDbEntity
  8
0
370
    20
100
AcDbVertex
100
AcDb2dVertex
 10
0.5497671516426248
 20
0.0536047932015668
 30
0.0
 70
     8
  0
VERTEX
  5
C3B
330
B42
100
AcDbEntity
  8
0
370
    20
100
AcDbVertex
100
AcDb2dVertex
 10
0.5503641819041487
 20
0.0565053869634222
 30
0.0
 70
     8
  0
VERTEX
  5
C3C
330
B42
100
AcDbEntity
  8
0
370
    20
100
AcDbVertex
100
AcDb2dVertex
 10
0.5508396178923399
 20
0.0592667157611817
 30
0.0
 70
     8
  0
VERTEX
  5
C3D
330
B42
100
AcDbEntity
  8
0
370
    20
100
AcDbVertex
100
AcDb2dVertex
 10
0.55120392538816
 20
0.0618777449168822
 30
0.0
 70
     8
  0
VERTEX
  5
C3E
330
B42
100
AcDbEntity
  8
0
370
    20
100
AcDbVertex
100
AcDb2dVertex
 10
0.5514432133808996
 20
0.0643654903088862
 30
0.0
 70
     8
  0
VERTEX
  5
C3F
330
B42
100
AcDbEntity
  8
0
370
    20
100
AcDbVertex
100
AcDb2dVertex
 10
0.5515375016619331
 20
0.0667664804546384
 30
0.0
 70
     8
  0
VERTEX
  5
C40
330
B42
100
AcDbEntity
  8
0
370
    20
100
AcDbVertex
100
AcDb2dVertex
 10
0.5514668100226335
 20
0.0691172438715829
 30
0.0
 70
     8
  0
VERTEX
  5
C41
330
B42
100
AcDbEntity
  8
0
370
    20
100
AcDbVertex
100
AcDb2dVertex
 10
0.5512111582543753
 20
0.0714543090771642
 30
0.0
 70
     8
  0
VERTEX
  5
C42
330
B42
100
AcDbEntity
  8
0
370
    20
100
AcDbVertex
100
AcDb2dVertex
 10
0.5507505661485315
 20
0.0738142045888268
 30
0.0
 70
     8
  0
VERTEX
  5
C43
330
B42
100
AcDbEntity
  8
0
370
    20
100
AcDbVertex
100
AcDb2dVertex
 10
0.5500650534964784
 20
0.0762334589240148
 30
0.0
 70
     8
  0
VERTEX
  5
C44
330
B42
100
AcDbEntity
  8
0
370
    20
100
AcDbVertex
100
AcDb2dVertex
 10
0.5491346400895889
 20
0.0787486006001728
 30
0.0
 70
     8
  0
VERTEX
  5
C45
330
B42
100
AcDbEntity
  8
0
370
    20
100
AcDbVertex
100
AcDb2dVertex
 10
0.5479418194601263
 20
0.0813849332307908
 30
0.0
 70
     8
  0
VERTEX
  5
C46
330
B42
100
AcDbEntity
  8
0
370
    20
100
AcDbVertex
100
AcDb2dVertex
 10
0.546478980103915
 20
0.0841228608135422
 30
0.0
 70
     8
  0
VERTEX
  5
C47
330
B42
100
AcDbEntity
  8
0
370
    20
100
AcDbVertex
100
AcDb2dVertex
 10
0.5447409842576736
 20
0.0869315624421462
 30
0.0
 70
     8
  0
VERTEX
  5
C48
330
B42
100
AcDbEntity
  8
0
370
    20
100
AcDbVertex
100
AcDb2dVertex
 10
0.5427226941581172
 20
0.0897802172103217
 30
0.0
 70
     8
  0
VERTEX
  5
C49
330
B42
100
AcDbEntity
  8
0
370
    20
100
AcDbVertex
100
AcDb2dVertex
 10
0.5404189720419606
 20
0.0926380042117883
 30
0.0
 70
     8
  0
VERTEX
  5
C4A
330
B42
100
AcDbEntity
  8
0
370
    20
100
AcDbVertex
100
AcDb2dVertex
 10
0.537824680145917
 20
0.0954741025402646
 30
0.0
 70
     8
  0
VERTEX
  5
C4B
330
B42
100
AcDbEntity
  8
0
370
    20
100
AcDbVertex
100
AcDb2dVertex
 10
0.5349346807067051
 20
0.0982576912894699
 30
0.0
 70
     8
  0
VERTEX
  5
C4C
330
B42
100
AcDbEntity
  8
0
370
    20
100
AcDbVertex
100
AcDb2dVertex
 10
0.5317438359610396
 20
0.1009579495531235
 30
0.0
 70
     8
  0
VERTEX
  5
C4D
330
B42
100
AcDbEntity
  8
0
370
    20
100
AcDbVertex
100
AcDb2dVertex
 10
0.5282512896150405
 20
0.1035493834801966
 30
0.0
 70
     8
  0
VERTEX
  5
C4E
330
B42
100
AcDbEntity
  8
0
370
    20
100
AcDbVertex
100
AcDb2dVertex
 10
0.5244733112524412
 20
0.1060278074406684
 30
0.0
 70
     8
  0
VERTEX
  5
C4F
330
B42
100
AcDbEntity
  8
0
370
    20
100
AcDbVertex
100
AcDb2dVertex
 10
0.5204304519263783
 20
0.108394362859771
 30
0.0
 70
     8
  0
VERTEX
  5
C50
330
B42
100
AcDbEntity
  8
0
370
    20
100
AcDbVertex
100
AcDb2dVertex
 10
0.5161432626899885
 20
0.110650191162736
 30
0.0
 70
     8
  0
VERTEX
  5
C51
330
B42
100
AcDbEntity
  8
0
370
    20
100
AcDbVertex
100
AcDb2dVertex
 10
0.5116322945964136
 20
0.1127964337747948
 30
0.0
 70
     8
  0
VERTEX
  5
C52
330
B42
100
AcDbEntity
  8
0
370
    20
100
AcDbVertex
100
AcDb2dVertex
 10
0.5069180986987885
 20
0.114834232121179
 30
0.0
 70
     8
  0
VERTEX
  5
C53
330
B42
100
AcDbEntity
  8
0
370
    20
100
AcDbVertex
100
AcDb2dVertex
 10
0.5020212260502515
 20
0.1167647276271208
 30
0.0
 70
     8
  0
VERTEX
  5
C54
330
B42
100
AcDbEntity
  8
0
370
    20
100
AcDbVertex
100
AcDb2dVertex
 10
0.4969622277039374
 20
0.1185890617178511
 30
0.0
 70
     8
  0
VERTEX
  5
C55
330
B42
100
AcDbEntity
  8
0
370
    20
100
AcDbVertex
100
AcDb2dVertex
 10
0.4917662216588746
 20
0.1203099929993487
 30
0.0
 70
     8
  0
VERTEX
  5
C56
330
B42
100
AcDbEntity
  8
0
370
    20
100
AcDbVertex
100
AcDb2dVertex
 10
0.4864765936976295
 20
0.121936748800578
 30
0.0
 70
     8
  0
VERTEX
  5
C57
330
B42
100
AcDbEntity
  8
0
370
    20
100
AcDbVertex
100
AcDb2dVertex
 10
0.481141296548655
 20
0.1234801736312503
 30
0.0
 70
     8
  0
VERTEX
  5
C58
330
B42
100
AcDbEntity
  8
0
370
    20
100
AcDbVertex
100
AcDb2dVertex
 10
0.4758082829404078
 20
0.1249511120010768
 30
0.0
 70
     8
  0
VERTEX
  5
C59
330
B42
100
AcDbEntity
  8
0
370
    20
100
AcDbVertex
100
AcDb2dVertex
 10
0.4705255056013407
 20
0.1263604084197687
 30
0.0
 70
     8
  0
VERTEX
  5
C5A
330
B42
100
AcDbEntity
  8
0
370
    20
100
AcDbVertex
100
AcDb2dVertex
 10
0.4653409172599102
 20
0.1277189073970371
 30
0.0
 70
     8
  0
VERTEX
  5
C5B
330
B42
100
AcDbEntity
  8
0
370
    20
100
AcDbVertex
100
AcDb2dVertex
 10
0.4603024706445691
 20
0.1290374534425933
 30
0.0
 70
     8
  0
VERTEX
  5
C5C
330
B42
100
AcDbEntity
  8
0
370
    20
100
AcDbVertex
100
AcDb2dVertex
 10
0.4554581184837741
 20
0.1303268910661486
 30
0.0
 70
     8
  0
VERTEX
  5
C5D
330
B42
100
AcDbEntity
  8
0
370
    20
100
AcDbVertex
100
AcDb2dVertex
 10
0.4508499531583059
 20
0.1315982067569295
 30
0.0
 70
     8
  0
VERTEX
  5
C5E
330
B42
100
AcDbEntity
  8
0
370
    20
100
AcDbVertex
100
AcDb2dVertex
 10
0.4464966256582717
 20
0.1328629549222243
 30
0.0
 70
     8
  0
VERTEX
  5
C5F
330
B42
100
AcDbEntity
  8
0
370
    20
100
AcDbVertex
100
AcDb2dVertex
 10
0.4424109266261063
 20
0.1341328319488371
 30
0.0
 70
     8
  0
VERTEX
  5
C60
330
B42
100
AcDbEntity
  8
0
370
    20
100
AcDbVertex
100
AcDb2dVertex
 10
0.4386056467042412
 20
0.1354195342235713
 30
0.0
 70
     8
  0
VERTEX
  5
C61
330
B42
100
AcDbEntity
  8
0
370
    20
100
AcDbVertex
100
AcDb2dVertex
 10
0.4350935765351114
 20
0.1367347581332308
 30
0.0
 70
     8
  0
VERTEX
  5
C62
330
B42
100
AcDbEntity
  8
0
370
    20
100
AcDbVertex
100
AcDb2dVertex
 10
0.4318875067611537
 20
0.1380902000646192
 30
0.0
 70
     8
  0
VERTEX
  5
C63
330
B42
100
AcDbEntity
  8
0
370
    20
100
AcDbVertex
100
AcDb2dVertex
 10
0.4290002280247976
 20
0.1394975564045406
 30
0.0
 70
     8
  0
VERTEX
  5
C64
330
B42
100
AcDbEntity
  8
0
370
    20
100
AcDbVertex
100
AcDb2dVertex
 10
0.4264445309684799
 20
0.1409685235397986
 30
0.0
 70
     8
  0
VERTEX
  5
C65
330
B42
100
AcDbEntity
  8
0
370
    20
100
AcDbVertex
100
AcDb2dVertex
 10
0.4242265254369358
 20
0.1425112710606286
 30
0.0
 70
     8
  0
VERTEX
  5
C66
330
B42
100
AcDbEntity
  8
0
370
    20
100
AcDbVertex
100
AcDb2dVertex
 10
0.4223255980841003
 20
0.1441198613709926
 30
0.0
 70
     8
  0
VERTEX
  5
C67
330
B42
100
AcDbEntity
  8
0
370
    20
100
AcDbVertex
100
AcDb2dVertex
 10
0.4207144547662108
 20
0.1457848300782848
 30
0.0
 70
     8
  0
VERTEX
  5
C68
330
B42
100
AcDbEntity
  8
0
370
    20
100
AcDbVertex
100
AcDb2dVertex
 10
0.4193658013395023
 20
0.1474967127898991
 30
0.0
 70
     8
  0
VERTEX
  5
C69
330
B42
100
AcDbEntity
  8
0
370
    20
100
AcDbVertex
100
AcDb2dVertex
 10
0.4182523436602157
 20
0.1492460451132291
 30
0.0
 70
     8
  0
VERTEX
  5
C6A
330
B42
100
AcDbEntity
  8
0
370
    20
100
AcDbVertex
100
AcDb2dVertex
 10
0.4173467875845827
 20
0.151023362655669
 30
0.0
 70
     8
  0
VERTEX
  5
C6B
330
B42
100
AcDbEntity
  8
0
370
    20
100
AcDbVertex
100
AcDb2dVertex
 10
0.4166218389688439
 20
0.1528192010246125
 30
0.0
 70
     8
  0
VERTEX
  5
C6C
330
B42
100
AcDbEntity
  8
0
370
    20
100
AcDbVertex
100
AcDb2dVertex
 10
0.4160502036692347
 20
0.1546240958274534
 30
0.0
 70
     8
  0
VERTEX
  5
C6D
330
B42
100
AcDbEntity
  8
0
370
    20
100
AcDbVertex
100
AcDb2dVertex
 10
0.4156103569921488
 20
0.1564317706919814
 30
0.0
 70
     8
  0
VERTEX
  5
C6E
330
B42
100
AcDbEntity
  8
0
370
    20
100
AcDbVertex
100
AcDb2dVertex
 10
0.4153038520446124
 20
0.158248701327568
 30
0.0
 70
     8
  0
VERTEX
  5
C6F
330
B42
100
AcDbEntity
  8
0
370
    20
100
AcDbVertex
100
AcDb2dVertex
 10
0.4151380113838102
 20
0.1600845514639803
 30
0.0
 70
     8
  0
VERTEX
  5
C70
330
B42
100
AcDbEntity
  8
0
370
    20
100
AcDbVertex
100
AcDb2dVertex
 10
0.415120157566923
 20
0.1619489848309856
 30
0.0
 70
     8
  0
VERTEX
  5
C71
330
B42
100
AcDbEntity
  8
0
370
    20
100
AcDbVertex
100
AcDb2dVertex
 10
0.4152576131511339
 20
0.1638516651583513
 30
0.0
 70
     8
  0
VERTEX
  5
C72
330
B42
100
AcDbEntity
  8
0
370
    20
100
AcDbVertex
100
AcDb2dVertex
 10
0.4155577006936273
 20
0.1658022561758441
 30
0.0
 70
     8
  0
VERTEX
  5
C73
330
B42
100
AcDbEntity
  8
0
370
    20
100
AcDbVertex
100
AcDb2dVertex
 10
0.4160277427515862
 20
0.1678104216132318
 30
0.0
 70
     8
  0
VERTEX
  5
C74
330
B42
100
AcDbEntity
  8
0
370
    20
100
AcDbVertex
100
AcDb2dVertex
 10
0.4166750618821933
 20
0.1698858252002811
 30
0.0
 70
     8
  0
VERTEX
  5
C75
330
B42
100
AcDbEntity
  8
0
370
    20
100
AcDbVertex
100
AcDb2dVertex
 10
0.417503944109896
 20
0.1720322477146473
 30
0.0
 70
     8
  0
VERTEX
  5
C76
330
B42
100
AcDbEntity
  8
0
370
    20
100
AcDbVertex
100
AcDb2dVertex
 10
0.4185065293281945
 20
0.1742299381255374
 30
0.0
 70
     8
  0
VERTEX
  5
C77
330
B42
100
AcDbEntity
  8
0
370
    20
100
AcDbVertex
100
AcDb2dVertex
 10
0.419671920897855
 20
0.1764532624500463
 30
0.0
 70
     8
  0
VERTEX
  5
C78
330
B42
100
AcDbEntity
  8
0
370
    20
100
AcDbVertex
100
AcDb2dVertex
 10
0.4209892221796423
 20
0.1786765867052688
 30
0.0
 70
     8
  0
VERTEX
  5
C79
330
B42
100
AcDbEntity
  8
0
370
    20
100
AcDbVertex
100
AcDb2dVertex
 10
0.4224475365343228
 20
0.1808742769082996
 30
0.0
 70
     8
  0
VERTEX
  5
C7A
330
B42
100
AcDbEntity
  8
0
370
    20
100
AcDbVertex
100
AcDb2dVertex
 10
0.4240359673226575
 20
0.1830206990762338
 30
0.0
 70
     8
  0
VERTEX
  5
C7B
330
B42
100
AcDbEntity
  8
0
370
    20
100
AcDbVertex
100
AcDb2dVertex
 10
0.4257436179054164
 20
0.185090219226166
 30
0.0
 70
     8
  0
VERTEX
  5
C7C
330
B42
100
AcDbEntity
  8
0
370
    20
100
AcDbVertex
100
AcDb2dVertex
 10
0.4275595916433641
 20
0.1870572033751912
 30
0.0
 70
     8
  0
VERTEX
  5
C7D
330
B42
100
AcDbEntity
  8
0
370
    20
100
AcDbVertex
100
AcDb2dVertex
 10
0.4294767309369476
 20
0.1888993285904668
 30
0.0
 70
     8
  0
VERTEX
  5
C7E
330
B42
100
AcDbEntity
  8
0
370
    20
100
AcDbVertex
100
AcDb2dVertex
 10
0.4315028343453573
 20
0.1906075161394015
 30
0.0
 70
     8
  0
VERTEX
  5
C7F
330
B42
100
AcDbEntity
  8
0
370
    20
100
AcDbVertex
100
AcDb2dVertex
 10
0.4336494394674713
 20
0.1921759983394657
 30
0.0
 70
     8
  0
VERTEX
  5
C80
330
B42
100
AcDbEntity
  8
0
370
    20
100
AcDbVertex
100
AcDb2dVertex
 10
0.4359280839021587
 20
0.193599007508131
 30
0.0
 70
     8
  0
VERTEX
  5
C81
330
B42
100
AcDbEntity
  8
0
370
    20
100
AcDbVertex
100
AcDb2dVertex
 10
0.4383503052482976
 20
0.1948707759628678
 30
0.0
 70
     8
  0
VERTEX
  5
C82
330
B42
100
AcDbEntity
  8
0
370
    20
100
AcDbVertex
100
AcDb2dVertex
 10
0.4409276411047625
 20
0.1959855360211475
 30
0.0
 70
     8
  0
VERTEX
  5
C83
330
B42
100
AcDbEntity
  8
0
370
    20
100
AcDbVertex
100
AcDb2dVertex
 10
0.4436716290704279
 20
0.1969375200004408
 30
0.0
 70
     8
  0
VERTEX
  5
C84
330
B42
100
AcDbEntity
  8
0
370
    20
100
AcDbVertex
100
AcDb2dVertex
 10
0.4465938067441666
 20
0.1977209602182188
 30
0.0
 70
     8
  0
VERTEX
  5
C85
330
B42
100
AcDbEntity
  8
0
370
    20
100
AcDbVertex
100
AcDb2dVertex
 10
0.4496985007797836
 20
0.1983284334553734
 30
0.0
 70
     8
  0
VERTEX
  5
C86
330
B42
100
AcDbEntity
  8
0
370
    20
100
AcDbVertex
100
AcDb2dVertex
 10
0.4529611940508059
 20
0.1987458943464801
 30
0.0
 70
     8
  0
VERTEX
  5
C87
330
B42
100
AcDbEntity
  8
0
370
    20
100
AcDbVertex
100
AcDb2dVertex
 10
0.4563501584856873
 20
0.1989576419895355
 30
0.0
 70
     8
  0
VERTEX
  5
C88
330
B42
100
AcDbEntity
  8
0
370
    20
100
AcDbVertex
100
AcDb2dVertex
 10
0.4598336660128819
 20
0.1989479754825358
 30
0.0
 70
     8
  0
VERTEX
  5
C89
330
B42
100
AcDbEntity
  8
0
370
    20
100
AcDbVertex
100
AcDb2dVertex
 10
0.4633799885608472
 20
0.1987011939234776
 30
0.0
 70
     8
  0
VERTEX
  5
C8A
330
B42
100
AcDbEntity
  8
0
370
    20
100
AcDbVertex
100
AcDb2dVertex
 10
0.4669573980580371
 20
0.1982015964103574
 30
0.0
 70
     8
  0
VERTEX
  5
C8B
330
B42
100
AcDbEntity
  8
0
370
    20
100
AcDbVertex
100
AcDb2dVertex
 10
0.4705341664329073
 20
0.1974334820411716
 30
0.0
 70
     8
  0
VERTEX
  5
C8C
330
B42
100
AcDbEntity
  8
0
370
    20
100
AcDbVertex
100
AcDb2dVertex
 10
0.4740785656139135
 20
0.1963811499139166
 30
0.0
 70
     8
  0
VERTEX
  5
C8D
330
B42
100
AcDbEntity
  8
0
370
    20
100
AcDbVertex
100
AcDb2dVertex
 10
0.4775787952873572
 20
0.1949981979011295
 30
0.0
 70
     8
  0
VERTEX
  5
C8E
330
B42
100
AcDbEntity
  8
0
370
    20
100
AcDbVertex
100
AcDb2dVertex
 10
0.4811027661709258
 20
0.1931154189735087
 30
0.0
 70
     8
  0
VERTEX
  5
C8F
330
B42
100
AcDbEntity
  8
0
370
    20
100
AcDbVertex
100
AcDb2dVertex
 10
0.484738316740156
 20
0.1905329048762937
 30
0.0
 70
     8
  0
VERTEX
  5
C90
330
B42
100
AcDbEntity
  8
0
370
    20
100
AcDbVertex
100
AcDb2dVertex
 10
0.4885732854705829
 20
0.1870507473547236
 30
0.0
 70
     8
  0
VERTEX
  5
C91
330
B42
100
AcDbEntity
  8
0
370
    20
100
AcDbVertex
100
AcDb2dVertex
 10
0.4926955108377414
 20
0.1824690381540371
 30
0.0
 70
     8
  0
VERTEX
  5
C92
330
B42
100
AcDbEntity
  8
0
370
    20
100
AcDbVertex
100
AcDb2dVertex
 10
0.4971928313171663
 20
0.176587869019474
 30
0.0
 70
     8
  0
VERTEX
  5
C93
330
B42
100
AcDbEntity
  8
0
370
    20
100
AcDbVertex
100
AcDb2dVertex
 10
0.5021530853843963
 20
0.169207331696273
 30
0.0
 70
     8
  0
VERTEX
  5
C94
330
B42
100
AcDbEntity
  8
0
370
    20
100
AcDbVertex
100
AcDb2dVertex
 10
0.5076641115149628
 20
0.1601275179296736
 30
0.0
 70
     8
  0
VERTEX
  5
C95
330
B42
100
AcDbEntity
  8
0
370
    20
100
AcDbVertex
100
AcDb2dVertex
 10
0.5473655966898221
 20
0.1601275179296736
 30
0.0
 70
    16
  0
VERTEX
  5
C96
330
B42
100
AcDbEntity
  8
0
370
    20
100
AcDbVertex
100
AcDb2dVertex
 10
0.542072084768023
 20
0.1804156592504641
 30
0.0
 70
    16
  0
VERTEX
  5
C97
330
B42
100
AcDbEntity
  8
0
370
    20
100
AcDbVertex
100
AcDb2dVertex
 10
0.5291323056669697
 20
0.2007037650965914
 30
0.0
 70
    16
  0
VERTEX
  5
C98
330
B42
100
AcDbEntity
  8
0
370
    20
100
AcDbVertex
100
AcDb2dVertex
 10
0.5035468939296806
 20
0.2145232067112702
 30
0.0
 70
    16
  0
VERTEX
  5
C99
330
B42
100
AcDbEntity
  8
0
370
    20
100
AcDbVertex
100
AcDb2dVertex
 10
0.4803141958037429
 20
0.2230501113138104
 30
0.0
 70
    16
  0
VERTEX
  5
C9A
330
B42
100
AcDbEntity
  8
0
370
    20
100
AcDbVertex
100
AcDb2dVertex
 10
0.4567873512129879
 20
0.2230501113138104
 30
0.0
 70
    16
  0
VERTEX
  5
C9B
330
B42
100
AcDbEntity
  8
0
370
    20
100
AcDbVertex
100
AcDb2dVertex
 10
0.4223794196060311
 20
0.2186396165041274
 30
0.0
 70
    16
  0
VERTEX
  5
C9C
330
B42
100
AcDbEntity
  8
0
370
    20
100
AcDbVertex
100
AcDb2dVertex
 10
0.4020875197905412
 20
0.2033500336026607
 30
0.0
 70
    16
  0
VERTEX
  5
C9D
330
B42
100
AcDbEntity
  8
0
370
    20
100
AcDbVertex
100
AcDb2dVertex
 10
0.3841483335864026
 20
0.1774753412022322
 30
0.0
 70
    16
  0
VERTEX
  5
C9E
330
B42
100
AcDbEntity
  8
0
370
    20
100
AcDbVertex
100
AcDb2dVertex
 10
0.3841483335864026
 20
0.1463080763149877
 30
0.0
 70
    16
  0
VERTEX
  5
C9F
330
B42
100
AcDbEntity
  8
0
370
    20
100
AcDbVertex
100
AcDb2dVertex
 10
0.3926767902834598
 20
0.1242557796399312
 30
0.0
 70
    16
  0
VERTEX
  5
CA0
330
B42
100
AcDbEntity
  8
0
370
    20
100
AcDbVertex
100
AcDb2dVertex
 10
0.4241439235799689
 20
0.1060258786902325
 30
0.0
 70
    16
  0
VERTEX
  5
CA1
330
B42
100
AcDbEntity
  8
0
370
    20
100
AcDbVertex
100
AcDb2dVertex
 10
0.4659040175474658
 20
0.0925004511430389
 30
0.0
 70
    16
  0
VERTEX
  5
CA2
330
B42
100
AcDbEntity
  8
0
370
    20
100
AcDbVertex
100
AcDb2dVertex
 10
0.5070759435236525
 20
0.0786810095283529
 30
0.0
 70
    16
  0
VERTEX
  5
CA3
330
B42
100
AcDbEntity
  8
0
370
    20
100
AcDbVertex
100
AcDb2dVertex
 10
0.5197215761598884
 20
0.0616272357979498
 30
0.0
 70
    16
  0
VERTEX
  5
CA4
330
B42
100
AcDbEntity
  8
0
370
    20
100
AcDbVertex
100
AcDb2dVertex
 10
0.5197215761598884
 20
0.0457495892868424
 30
0.0
 70
    16
  0
VERTEX
  5
CA5
330
B42
100
AcDbEntity
  8
0
370
    20
100
AcDbVertex
100
AcDb2dVertex
 10
0.505017334731015
 20
0.0295778932335723
 30
0.0
 70
    16
  0
VERTEX
  5
CA6
330
B42
100
AcDbEntity
  8
0
370
    20
100
AcDbVertex
100
AcDb2dVertex
 10
0.4791378598211225
 20
0.0204629604960617
 30
0.0
 70
    16
  0
VERTEX
  5
CA7
330
B42
100
AcDbEntity
  8
0
370
    20
100
AcDbVertex
100
AcDb2dVertex
 10
0.4556110152303674
 20
0.0204629604960617
 30
0.0
 70
    16
  0
VERTEX
  5
CA8
330
B42
100
AcDbEntity
  8
0
370
    20
100
AcDbVertex
100
AcDb2dVertex
 10
0.429437435501761
 20
0.027813702404636
 30
0.0
 70
    16
  0
VERTEX
  5
CA9
330
B42
100
AcDbEntity
  8
0
370
    20
100
AcDbVertex
100
AcDb2dVertex
 10
0.4138509212628634
 20
0.0445734620675468
 30
0.0
 70
    16
  0
VERTEX
  5
CAA
330
B42
100
AcDbEntity
  8
0
370
    20
100
AcDbVertex
100
AcDb2dVertex
 10
0.4088514725136676
 20
0.0560406492436486
 30
0.0
 70
    16
  0
VERTEX
  5
CAB
330
B42
100
AcDbEntity
  8
0
370
    20
100
AcDbVertex
100
AcDb2dVertex
 10
0.4088514725136676
 20
0.0642735043040262
 30
0.0
 70
    16
  0
VERTEX
  5
CAC
330
B42
100
AcDbEntity
  8
0
370
    20
100
AcDbVertex
100
AcDb2dVertex
 10
0.3679736513561878
 20
0.0642735043040262
 30
0.0
 70
    16
  0
VERTEX
  5
CAD
330
B42
100
AcDbEntity
  8
0
370
    20
100
AcDbVertex
100
AcDb2dVertex
 10
0.3624445016620417
 20
0.0621057561075699
 30
0.0
 70
    16
  0
VERTEX
  5
CAE
330
B42
100
AcDbEntity
  8
0
370
    20
100
AcDbVertex
100
AcDb2dVertex
 10
0.3862840709721098
 20
0.0261878627898825
 30
0.0
 70
    16
  0
VERTEX
  5
CAF
330
B42
100
AcDbEntity
  8
0
370
    20
100
AcDbVertex
100
AcDb2dVertex
 10
0.4166856052886772
 20
0.0017228273633664
 30
0.0
 70
    16
  0
VERTEX
  5
CB0
330
B42
100
AcDbEntity
  8
0
370
    20
100
AcDbVertex
100
AcDb2dVertex
 10
0.4386754585966131
 20
-0.0047907478006762
 30
0.0
 70
    16
  0
VERTEX
  5
CB1
330
B42
100
AcDbEntity
  8
0
370
    20
100
AcDbVertex
100
AcDb2dVertex
 10
0.4864887727984098
 20
-0.0047907478006762
 30
0.0
 70
    16
  0
VERTEX
  5
CB2
330
B42
100
AcDbEntity
  8
0
370
    20
100
AcDbVertex
100
AcDb2dVertex
 10
0.5233163433131836
 20
0.0080780790738403
 30
0.0
 70
    16
  0
VERTEX
  5
CB3
330
B42
100
AcDbEntity
  8
0
370
    20
100
AcDbVertex
100
AcDb2dVertex
 10
0.5452375221880886
 20
0.0343786094166064
 30
0.0
 70
    16
  0
VERTEX
  5
CB4
330
B42
100
AcDbEntity
  8
0
370
    20
100
AcDbVertex
100
AcDb2dVertex
 10
0.5519600370331901
 20
0.0609713800933492
 30
0.0
 70
    16
  0
VERTEX
  5
CB5
330
B42
100
AcDbEntity
  8
0
370
    20
100
AcDbVertex
100
AcDb2dVertex
 10
0.5519600370331901
 20
0.0773361647770871
 30
0.0
 70
    16
  0
VERTEX
  5
CB6
330
B42
100
AcDbEntity
  8
0
370
    20
100
AcDbVertex
100
AcDb2dVertex
 10
0.5350076553715795
 20
0.1021755643993388
 30
0.0
 70
    16
  0
VERTEX
  5
CB7
330
B42
100
AcDbEntity
  8
0
370
    20
100
AcDbVertex
100
AcDb2dVertex
 10
0.4984723572467331
 20
0.1197092749442988
 30
0.0
 70
    16
  0
VERTEX
  5
CB8
330
B42
100
AcDbEntity
  8
0
370
    20
100
AcDbVertex
100
AcDb2dVertex
 10
0.452876281865116
 20
0.1305217061305727
 30
0.0
 70
    16
  0
VERTEX
  5
CB9
330
B42
100
AcDbEntity
  8
0
370
    20
100
AcDbVertex
100
AcDb2dVertex
 10
0.4227712261954438
 20
0.1401652469303017
 30
0.0
 70
    16
  0
VERTEX
  5
CBA
330
B42
100
AcDbEntity
  8
0
370
    20
100
AcDbVertex
100
AcDb2dVertex
 10
0.4147059991639921
 20
0.1546284473870118
 30
0.0
 70
    16
  0
VERTEX
  5
CBB
330
B42
100
AcDbEntity
  8
0
370
    20
100
AcDbVertex
100
AcDb2dVertex
 10
0.4147059991639921
 20
0.1690655384863718
 30
0.0
 70
    16
  0
VERTEX
  5
CBC
330
B42
100
AcDbEntity
  8
0
370
    20
100
AcDbVertex
100
AcDb2dVertex
 10
0.4265203754732028
 20
0.1884243498691874
 30
0.0
 70
    16
  0
VERTEX
  5
CBD
330
B42
100
AcDbEntity
  8
0
370
    20
100
AcDbVertex
100
AcDb2dVertex
 10
0.444570048803378
 20
0.1995802822880252
 30
0.0
 70
    16
  0
VERTEX
  5
CBE
330
B42
100
AcDbEntity
  8
0
370
    20
100
AcDbVertex
100
AcDb2dVertex
 10
0.4747622697782817
 20
0.1995802822880252
 30
0.0
 70
    16
  0
VERTEX
  5
CBF
330
B42
100
AcDbEntity
  8
0
370
    20
100
AcDbVertex
100
AcDb2dVertex
 10
0.4921556004374139
 20
0.1867837527915911
 30
0.0
 70
    16
  0
VERTEX
  5
CC0
330
B42
100
AcDbEntity
  8
0
370
    20
100
AcDbVertex
100
AcDb2dVertex
 10
0.5076641115149628
 20
0.1601275179296736
 30
0.0
 70
    16
  0
SEQEND
  5
CC1
330
B42
100
AcDbEntity
  8
0
370
    20
  0
LWPOLYLINE
  5
CC2
330
9BC
100
AcDbEntity
  8
0
370
    20
100
AcDbPolyline
 90
        8
 70
     1
 43
0.0
 10
0.6000630067823085
 20
0.0514069832830803
 10
0.5804482369237807
 20
0.0
 10
0.5395534476262256
 20
0.0
 10
0.6295864676836019
 20
0.2177610153446779
 10
0.662997974496939
 20
0.2177610153446779
 10
0.7483729551692449
 20
0.0000000000000001
 10
0.7105144352368669
 20
0.0000000000000001
 10
0.6914578531219675
 20
0.0514069832830799
  0
LWPOLYLINE
  5
CC3
330
9BC
100
AcDbEntity
  8
0
370
    20
100
AcDbPolyline
 90
        3
 70
     1
 43
0.0
 10
0.6831794878931011
 20
0.0737386784614529
 10
0.6464200329974688
 20
0.1729008824664079
 10
0.6085838542139204
 20
0.0737386784614531
  0
LWPOLYLINE
  5
CC4
330
9BC
100
AcDbEntity
  8
0
370
    20
100
AcDbPolyline
 90
        8
 70
     1
 43
0.0
 10
0.8636941601153669
 20
0.0514069832830803
 10
0.844079390256839
 20
0.0
 10
0.803184600959284
 20
0.0
 10
0.8932176210166602
 20
0.2177610153446779
 10
0.9266291278299974
 20
0.2177610153446779
 10
1.012004108502303
 20
0.0000000000000001
 10
0.9741455885699252
 20
0.0000000000000001
 10
0.9550890064550259
 20
0.0514069832830799
  0
LWPOLYLINE
  5
CC5
330
9BC
100
AcDbEntity
  8
0
370
    20
100
AcDbPolyline
 90
        3
 70
     1
 43
0.0
 10
0.9468106412261594
 20
0.0737386784614529
 10
0.9100511863305271
 20
0.1729008824664079
 10
0.8722150075469787
 20
0.0737386784614531
  0
LWPOLYLINE
  5
CC6
330
9BC
100
AcDbEntity
  8
0
370
    20
100
AcDbPolyline
 90
       16
 70
     1
 43
0.0
 10
1.021169875598793
 20
0.2134611660316779
 10
1.021169875598793
 20
0.000187306259214
 10
1.138880352577366
 20
0.000187306259214
 10
1.172982518455206
 20
0.0119403483286292
 10
1.192137854321757
 20
0.026022515351592
 10
1.203123972823767
 20
0.0477090681758058
 10
1.203123972823767
 20
0.070522190104903
 10
1.190165952727156
 20
0.0961517525335226
 10
1.16340487134498
 20
0.1122054243586846
 10
1.158112442222005
 20
0.1196957590949098
 10
1.176579284621709
 20
0.1381591543245549
 10
1.189364015260565
 20
0.1559124530786989
 10
1.189364015260565
 20
0.1754410462335941
 10
1.179775456869897
 20
0.2010057964395671
 10
1.153269374610488
 20
0.2134611660316779
 10
1.021169875598793
 20
0.2134611660316779
  0
LWPOLYLINE
  5
CC7
330
9BC
100
AcDbEntity
  8
0
370
    20
100
AcDbPolyline
 90
        9
 70
     1
 43
0.0
 10
1.061672257087529
 20
0.099669988435693
 10
1.061672257087529
 20
0.0268787674687446
 10
1.127971695837295
 20
0.0268787674687446
 10
1.151379640788093
 20
0.0329006282276937
 10
1.166770793131696
 20
0.0503637087040759
 10
1.166770793131696
 20
0.0705932458695245
 10
1.154576021266819
 20
0.0930693939053883
 10
1.139624818414134
 20
0.099669988435693
 10
1.061672257087529
 20
0.099669988435693
  0
HATCH
  5
CC8
330
9BC
100
AcDbEntity
  8
0
370
    25
100
AcDbHatch
 10
0.0
 20
0.0
 30
0.0
210
0.0
220
0.0
230
1.0
  2
SOLID
 70
     1
 71
     0
 91
       22
 92
        7
 72
     0
 73
     1
 93
       15
 10
0.602693826244451
 20
0.6901425055690848
 10
0.6236396116105763
 20
0.7120363368918948
 10
0.6360166684926583
 20
0.7372618073510627
 10
0.6369687401806417
 20
0.7681987352040318
 10
0.62982814005162
 20
0.8010394467135611
 10
0.6160229548145182
 20
0.8257889889959301
 10
0.5936490410933626
 20
0.8472068566672563
 10
0.566514727286199
 20
0.8576778086771808
 10
0.5416452538013062
 20
0.8604584552343727
 10
0.4410816041652553
 20
0.8604584552343728
 10
0.4410816041652553
 20
0.544781283679214
 10
0.4907843190205857
 20
0.544781283679214
 10
0.4907843190205839
 20
0.6685490737544204
 10
0.5518040723566049
 20
0.6685490737544204
 10
0.5841282409213378
 20
0.6772918062510917
 97
        0
 92
       22
 72
     0
 73
     1
 93
       10
 10
0.4903481593255492
 20
0.7154812466505493
 10
0.4903481593255492
 20
0.8108859381021103
 10
0.5455611124516651
 20
0.8108859381021108
 10
0.5599644607461354
 20
0.804285627369167
 10
0.5761682536062374
 20
0.7916849890021528
 10
0.5845702310715737
 20
0.7748841851456989
 10
0.5845702310715719
 20
0.7478828526910601
 10
0.5767684156768187
 20
0.7346821957505058
 10
0.5641654703018589
 20
0.7232816300052329
 10
0.5431605474615698
 20
0.715481246650548
 97
        0
 92
        7
 72
     0
 73
     1
 93
       12
 10
0.7160846022578867
 20
0.678067069695942
 10
0.8248335030102893
 20
0.678067069695942
 10
0.8248335030102893
 20
0.7261832097134972
 10
0.7160846022578867
 20
0.7261832097134972
 10
0.7160846022578867
 20
0.8139740081521653
 10
0.8300649205842081
 20
0.8139740081521649
 10
0.8300649205842063
 20
0.8604584552343721
 10
0.6671152753744423
 20
0.8604584552343725
 10
0.6671152753744423
 20
0.544781283679214
 10
0.8300649205842063
 20
0.544781283679214
 10
0.8300649205842045
 20
0.5911204265118499
 10
0.7160846022578849
 20
0.5911204265118501
 97
        0
 92
        7
 72
     0
 73
     1
 93
       13
 10
0.9122478519730705
 20
0.8123638128670183
 10
1.004551412435683
 20
0.544781283679214
 10
1.046507576282317
 20
0.5447812836792143
 10
1.141328519069553
 20
0.8149255214085197
 10
1.141328519069555
 20
0.544781283679214
 10
1.189158533360888
 20
0.544781283679214
 10
1.189158533360888
 20
0.8604584552343725
 10
1.117833033998552
 20
0.8604584552343725
 10
1.026858312538408
 20
0.5962534142928454
 10
0.9357073131601723
 20
0.8604584552343725
 10
0.8627395827986532
 20
0.8604584552343725
 10
0.8627395827986532
 20
0.544781283679214
 10
0.9122478519730705
 20
0.544781283679214
 97
        0
 92
        7
 72
     0
 73
     1
 93
       11
 10
1.276080250505422
 20
0.6999642121828923
 10
1.385458007497206
 20
0.5447812836792138
 10
1.444630297811023
 20
0.5447812836792143
 10
1.324984291149938
 20
0.7045664362402757
 10
1.445287764926987
 20
0.8604584552343725
 10
1.386772941729141
 20
0.8604584552343727
 10
1.276080250505422
 20
0.708104668082889
 10
1.276080250505422
 20
0.8604584552343727
 10
1.226769966931136
 20
0.8604584552343721
 10
1.226769966931138
 20
0.544781283679214
 10
1.276080250505422
 20
0.544781283679214
 97
        0
 92
        7
 72
     0
 73
     1
 93
       25
 10
1.723273623899709
 20
0.6308379738093494
 10
1.73767913779184
 20
0.676206919883828
 10
1.737679137791838
 20
0.7230161730473434
 10
1.729035821127345
 20
0.7547024323611446
 10
1.711028918350669
 20
0.7914297132746376
 10
1.68653954889868
 20
0.8195152580778215
 10
1.646917024745667
 20
0.8491345857263048
 10
1.607364257824505
 20
0.8604584552343727
 10
1.535031838849199
 20
0.8604584552343725
 10
1.493029739344812
 20
0.8444350787776432
 10
1.466084998623854
 20
0.8230417595781659
 10
1.439140257902888
 20
0.7941211410360129
 10
1.421705406073511
 20
0.7612387822635239
 10
1.411460838180678
 20
0.7293193834164792
 10
1.41146083818068
 20
0.6771317090640027
 10
1.415366785057194
 20
0.6622209601667227
 10
1.429570148738317
 20
0.628139202791238
 10
1.448034492371503
 20
0.5986727000224291
 10
1.484608146562337
 20
0.5660110291739095
 10
1.531124142836128
 20
0.5422248015636774
 10
1.554204582789138
 20
0.5376095824316637
 10
1.597524864921936
 20
0.5376095824316637
 10
1.613791709990405
 20
0.5408201819929494
 10
1.655567671125272
 20
0.560984161967676
 10
1.693742285021684
 20
0.5890697067708563
 97
        0
 92
       22
 72
     0
 73
     1
 93
       25
 10
1.482774053933658
 20
0.627981128075542
 10
1.469676918125708
 20
0.6488823199194133
 10
1.458106152380009
 20
0.6766470128222561
 10
1.45646083818068
 20
0.6829279141398809
 10
1.45646083818068
 20
0.7222749480360277
 10
1.463332667985238
 20
0.7436857755726382
 10
1.476114527517097
 20
0.76779252996432
 10
1.496709322427102
 20
0.7898975564596311
 10
1.515565752853692
 20
0.8048689989112927
 10
1.54332390978026
 20
0.8154584552343726
 10
1.601049410808927
 20
0.8154584552343727
 10
1.626589944841029
 20
0.8081462569468953
 10
1.655765700184071
 20
0.7863362820558423
 10
1.673226506574341
 20
0.7663114193849113
 10
1.686747724687853
 20
0.7387332410548325
 10
1.692679137791838
 20
0.7169887764001627
 10
1.692679137791836
 20
0.683179579262775
 10
1.682497560396086
 20
0.6511135634801967
 10
1.661205352088529
 20
0.6209984831547679
 10
1.632255520422932
 20
0.5996997269579178
 10
1.599422526639932
 20
0.5838522440714457
 10
1.593126448919555
 20
0.5826095824316639
 10
1.558659638480142
 20
0.5826095824316639
 10
1.546061143837988
 20
0.585128807092259
 10
1.51025789307388
 20
0.6034370094329887
 97
        0
 92
        7
 72
     0
 73
     1
 93
        8
 10
0.1234445268707134
 20
0.2177610153446778
 10
0.0900330200573763
 20
0.2177610153446777
 10
0.0
 20
0.0
 10
0.0408947892975533
 20
0.0
 10
0.0605095591560829
 20
0.0514069832830801
 10
0.1519044054957437
 20
0.0514069832830799
 10
0.1709609876106395
 20
0.0000000000000001
 10
0.2088195075430193
 20
0.0000000000000001
 97
        0
 92
       22
 72
     0
 73
     1
 93
        3
 10
0.1068665853712432
 20
0.1729008824664058
 10
0.1436260402668736
 20
0.0737386784614529
 10
0.069030406587693
 20
0.0737386784614531
 97
        0
 92
        7
 72
     0
 73
     1
 93
      325
 10
0.2644368647047894
 20
0.1341328319488384
 10
0.2606315847829315
 20
0.135419534223575
 10
0.2571195146138105
 20
0.1367347581332279
 10
0.2539134448398457
 20
0.1380902000646151
 10
0.2510261661034985
 20
0.1394975564045381
 10
0.2484704690471737
 20
0.1409685235397964
 10
0.2462524635156331
 20
0.1425112710606277
 10
0.2443515361627817
 20
0.1441198613710033
 10
0.2419834992065404
 20
0.146567010166563
 10
0.2397640847304174
 20
0.1500538903185145
 10
0.2383143174377267
 20
0.1536452451727986
 10
0.2374098543595124
 20
0.1573623931190614
 10
0.2370791887384556
 20
0.1610228496234518
 10
0.2373534086392262
 20
0.1648186416501025
 10
0.2382908762625941
 20
0.168823794057306
 10
0.2395298821885952
 20
0.1720322477146242
 10
0.2405324674068794
 20
0.174229938125524
 10
0.2416978589765257
 20
0.176453262450038
 10
0.2430151602583273
 20
0.1786765867052645
 10
0.2444734746130219
 20
0.1808742769083181
 10
0.2460619054013513
 20
0.1830206990762236
 10
0.2477695559841173
 20
0.1850902192261757
 10
0.2495855297220366
 20
0.1870572033751707
 10
0.2515026690156432
 20
0.1888993285904643
 10
0.2535287724240494
 20
0.190607516139408
 10
0.2556753775461633
 20
0.1921759983394703
 10
0.2579540219808489
 20
0.1935990075081326
 10
0.2603762433269825
 20
0.1948707759628655
 10
0.2629535791834527
 20
0.1959855360211494
 10
0.2656975671491182
 20
0.1969375200004397
 10
0.2686197448228551
 20
0.1977209602182188
 10
0.2717244388584703
 20
0.1983284334553731
 10
0.2749871321294925
 20
0.19874589434648
 10
0.2783760965643758
 20
0.1989576419895356
 10
0.2818596040915704
 20
0.1989479754825358
 10
0.2854059266395339
 20
0.1987011939234779
 10
0.2889833361367309
 20
0.198201596410356
 10
0.2925601045115922
 20
0.1974334820411715
 10
0.2961045036926002
 20
0.196381149913915
 10
0.2996047333660368
 20
0.1949981979011338
 10
0.3031287042496018
 20
0.1931154189735139
 10
0.3067642548188427
 20
0.190532904876296
 10
0.3105992235492732
 20
0.1870507473547253
 10
0.3147214489164298
 20
0.1824690381540341
 10
0.3192187693958655
 20
0.1765878690194541
 10
0.3241790234630706
 20
0.1692073316962706
 10
0.3296900495936512
 20
0.1601275179296736
 10
0.3426741166943952
 20
0.1605799064859885
 10
0.3521745399691252
 20
0.1618446131313687
 10
0.358677823198299
 20
0.1637829493304694
 10
0.3626704701623797
 20
0.1662562265479415
 10
0.3646389846418216
 20
0.1691257562484368
 10
0.365069870417102
 20
0.1722528498966187
 10
0.3644496312686662
 20
0.1754988189571192
 10
0.3632647709769934
 20
0.1787249748945932
 10
0.3619182203872775
 20
0.1818169403625672
 10
0.3604786186039224
 20
0.184757582769607
 10
0.3589310317959757
 20
0.1875540807132007
 10
0.357260526132551
 20
0.190213612790899
 10
0.3554521677827722
 20
0.1927433576000619
 10
0.3534910229157262
 20
0.1951504937382346
 10
0.3513621577005033
 20
0.1974421998028375
 10
0.3490506383062861
 20
0.1996256543913467
 10
0.3465489021480881
 20
0.2017072225222479
 10
0.3438788716249714
 20
0.2036900148980187
 10
0.341069840381925
 20
0.2055763286421186
 10
0.3381511020639927
 20
0.2073684608780351
 10
0.3351519503161313
 20
0.2090687087292337
 10
0.3321016787834914
 20
0.2106793693191667
 10
0.3290295811110226
 20
0.2122027397713284
 10
0.32596495094357
 20
0.2136411172092528
 10
0.3229313380441461
 20
0.2149953630483727
 10
0.3199293166462347
 20
0.2162605958725151
 10
0.3169537171014163
 20
0.2174304985574053
 10
0.3139993697609391
 20
0.2184987539789081
 10
0.3110611049763143
 20
0.2194590450127839
 10
0.3081337530989927
 20
0.2203050545348363
 10
0.305212144480274
 20
0.2210304654208869
 10
0.3022911094716214
 20
0.2216289605467224
 10
0.2993628937628685
 20
0.2220966156193188
 10
0.2964094043973322
 20
0.2224390776703774
 10
0.2934099637567478
 20
0.2226643865627758
 10
0.2903438942228593
 20
0.2227805821593894
 10
0.2871905181774092
 20
0.2227957043230947
 10
0.2839291580021186
 20
0.2227177929167689
 10
0.2805391360787315
 20
0.2225548878032886
 10
0.2769997747889796
 20
0.2223150288455301
 10
0.2733019798672522
 20
0.2220028102673487
 10
0.2694829904585632
 20
0.221609043736511
 10
0.2655916290605891
 20
0.2211210952817639
 10
0.2616767181710173
 20
0.2205263309318549
 10
0.2577870802874838
 20
0.2198121167155272
 10
0.2539715379076863
 20
0.2189658186615286
 10
0.2502789135292875
 20
0.2179748027986012
 10
0.2467580296499658
 20
0.2168264351554965
 10
0.2434457424793077
 20
0.2155102831189919
 10
0.2403310430745584
 20
0.2140247195079917
 10
0.2373909562048979
 20
0.2123703184994302
 10
0.2346025066395416
 20
0.2105476542702533
 10
0.2319427191476269
 20
0.208557300997404
 10
0.2293886184983673
 20
0.2063998328578186
 10
0.2269172294609234
 20
0.2040758240284267
 10
0.2245055768044519
 20
0.2015858486861899
 10
0.2221395882248576
 20
0.1989321081428773
 10
0.2198408031247077
 20
0.1961233122500401
 10
0.2176396638333351
 20
0.1931697979939688
 10
0.2155666126799929
 20
0.1900819023610821
 10
0.2136520919939357
 20
0.1868699623376253
 10
0.2119265441044487
 20
0.1835443149100203
 10
0.2104204113408734
 20
0.1801152970646198
 10
0.2091641360324417
 20
0.1765932457877608
 10
0.2081800233984055
 20
0.1729914651893828
 10
0.2074578302177166
 20
0.1693351278738135
 10
0.2069791761593382
 20
0.1656523735690041
 10
0.2067256808922
 20
0.1619713420029478
 10
0.2066789640852207
 20
0.1583201729033683
 10
0.2068206454073405
 20
0.1547270059983871
 10
0.2071323445274888
 20
0.1512199810158367
 10
0.2075956811146025
 20
0.1478272376836658
 10
0.2082000290529109
 20
0.1445705029325697
 10
0.2089657790878423
 20
0.1414458525041823
 10
0.209921076180164
 20
0.1384429493428124
 10
0.2110940652906237
 20
0.1355514563928261
 10
0.2125128913799639
 20
0.1327610365986077
 10
0.2142056994089305
 20
0.1300613529045275
 10
0.2162006343382625
 20
0.1274420682549112
 10
0.2185258411287325
 20
0.1248928455941554
 10
0.2212006574702698
 20
0.1224053578438692
 10
0.2242091919697433
 20
0.1199793178347762
 10
0.2275267459632566
 20
0.1176164483747968
 10
0.2311286207868779
 20
0.1153184722719102
 10
0.2349901177766718
 20
0.1130871123340946
 10
0.2390865382686798
 20
0.110924091369304
 10
0.243393183599057
 20
0.1088311321855111
 10
0.2478853551038274
 20
0.1068099575906491
 10
0.2525389285289599
 20
0.1048603761462626
 10
0.257332077260223
 20
0.1029745394279241
 10
0.2622435490931281
 20
0.101142684764817
 10
0.2672520918232308
 20
0.0993550494861105
 10
0.272336453246222
 20
0.0976018709209383
 10
0.2774753811574424
 20
0.0958733863985393
 10
0.282647623352485
 20
0.0941598332480891
 10
0.2878319276272112
 20
0.0924514487983832
 10
0.2930014893697468
 20
0.0907391403561813
 10
0.2981072943360488
 20
0.0890164951353666
 10
0.3030947758753903
 20
0.0872777703273675
 10
0.3079093673364959
 20
0.0855172231235441
 10
0.3124965020685462
 20
0.0837291107151537
 10
0.316801613420342
 20
0.0819076902935039
 10
0.320770134740874
 20
0.0800472190499282
 10
0.3243474993790159
 20
0.0781419541757322
 10
0.3274934046114915
 20
0.0761885456934025
 10
0.3302246034259468
 20
0.0741932149501693
 10
0.33257211273785
 20
0.0721645761243857
 10
0.3345669494626211
 20
0.0701112433944723
 10
0.3362401305157014
 20
0.0680418309388016
 10
0.337622672812536
 20
0.0659649529357789
 10
0.3387455932685572
 20
0.063889223563768
 10
0.3400852787744739
 20
0.0607944037101742
 10
0.3410671511395975
 20
0.0567126303988381
 10
0.3412150245047325
 20
0.0526928460551524
 10
0.340500864378507
 20
0.0486946324315979
 10
0.339296807333767
 20
0.0457005810298098
 10
0.338264064123905
 20
0.0436975927002188
 10
0.3370084597353617
 20
0.0417043669028866
 10
0.3355368867617887
 20
0.0397352606941874
 10
0.3338562377968479
 20
0.0378046311304888
 10
0.3319734054341605
 20
0.0359268352681388
 10
0.3298952822673797
 20
0.0341162301635097
 10
0.3276287608901818
 20
0.0323871728729598
 10
0.3251807338961896
 20
0.0307540204528538
 10
0.3225613487149488
 20
0.0292294070938678
 10
0.3197937721195441
 20
0.0278190755238356
 10
0.3169044257189757
 20
0.0265270456049206
 10
0.313919731122219
 20
0.0253573371992598
 10
0.3108661099382459
 20
0.0243139701690166
 10
0.307769983776085
 20
0.0234009643763492
 10
0.3046577742446708
 20
0.0226223396833957
 10
0.3015559029529964
 20
0.0219821159523134
 10
0.2984847605109699
 20
0.0214830687873624
 10
0.2954406135320155
 20
0.0211229967612213
 10
0.2924136976304865
 20
0.0208984541886792
 10
0.289394248420713
 20
0.0208059953845218
 10
0.2863725015170377
 20
0.0208421746635371
 10
0.2833386925338246
 20
0.0210035463405126
 10
0.2802830570853949
 20
0.0212866647302337
 10
0.2771958307860842
 20
0.0216880841474899
 10
0.2740731845256707
 20
0.0222056031996069
 10
0.2709350302955613
 20
0.0228419976640534
 10
0.2678072153626534
 20
0.0236012876108419
 10
0.2647155869937414
 20
0.0244874931099963
 10
0.2616859924557175
 20
0.0255046342315072
 10
0.2587442790154313
 20
0.0266567310454002
 10
0.2559162939397108
 20
0.0279478036216765
 10
0.2532278844954021
 20
0.0293818720303628
 10
0.2507005900715775
 20
0.0309575006558645
 10
0.2483387185459911
 20
0.0326514311403848
 10
0.2461422699187441
 20
0.0344349494403781
 10
0.2441112441897228
 20
0.0362793415125056
 10
0.2422456413590144
 20
0.0381558933132648
 10
0.2405454614265778
 20
0.0400358907992231
 10
0.2390107043924203
 20
0.0418906199269762
 10
0.2369880804806375
 20
0.0445504772194754
 10
0.2348818925621874
 20
0.0478459988677292
 10
0.2333342861823162
 20
0.0508406675089254
 10
0.2322520876274829
 20
0.0535751694842878
 10
0.2317106520505661
 20
0.0555015938910183
 10
0.2314223106899593
 20
0.0567059511877564
 10
0.2311224816732693
 20
0.0578500093051251
 10
0.2307215609577167
 20
0.0589240055029214
 10
0.2301299445005149
 20
0.0599181770410088
 10
0.2292580282588759
 20
0.0608227611792809
 10
0.2280162081900041
 20
0.0616279951776148
 10
0.2263148802511186
 20
0.0623241162958864
 10
0.2240644403994398
 20
0.0629013617939642
 10
0.2212150319107007
 20
0.0633535703737178
 10
0.217875787334787
 20
0.0636889865049981
 10
0.2141955865400753
 20
0.0639194560996478
 10
0.2103233093949921
 20
0.0640568250695087
 10
0.2064078357679193
 20
0.0641129393264264
 10
0.2025980455272585
 20
0.064099644782243
 10
0.1990428185413933
 20
0.0640287873488031
 10
0.1958910346787626
 20
0.0639122129379502
 10
0.1932648138972386
 20
0.0637495124147214
 10
0.1911792365126779
 20
0.0634912564569288
 10
0.1896226229304432
 20
0.0630757606955802
 10
0.1885832935558778
 20
0.0624413407616783
 10
0.1880495687943391
 20
0.0615263122862332
 10
0.1880097690511864
 20
0.0602689909002493
 10
0.1884522147317682
 20
0.0586076922347334
 10
0.189365226241442
 20
0.0564807319206949
 10
0.1907316465111002
 20
0.0538514208364867
 10
0.1925124085738012
 20
0.0507830508500546
 10
0.1946629679880587
 20
0.047363909076683
 10
0.1971387803126827
 20
0.0436822826314118
 10
0.1998953011060873
 20
0.0398264586297199
 10
0.2028879859268819
 20
0.0358847241868423
 10
0.206072290333724
 20
0.0319453664180022
 10
0.2094036698852157
 20
0.0280966724384095
 10
0.212840129979746
 20
0.0244143302746467
 10
0.2163498753751796
 20
0.0209236315981487
 10
0.2199036606690505
 20
0.0176372689917157
 10
0.2234722404590386
 20
0.0145679350381429
 10
0.2270263693427577
 20
0.0117283223201351
 10
0.2305368019178591
 20
0.009131123420466
 10
0.2339742927819266
 20
0.0067890309218592
 10
0.237309596532576
 20
0.0047147374071275
 10
0.2405294862531804
 20
0.0029150967586201
 10
0.2436848089694976
 20
0.0013736080573847
 10
0.2468424301931531
 20
0.0000679316840912
 10
0.2500692154356106
 20
-0.0010242719806016
 10
0.2534320302084279
 20
-0.0019253425560221
 10
0.2569977400231203
 20
-0.002657619661509
 10
0.2608332103912261
 20
-0.0032434429163923
 10
0.2650053068242801
 20
-0.0037051519400023
 10
0.2695577684189185
 20
-0.0040592943149529
 10
0.2744418286123285
 20
-0.004299249476969
 10
0.279585594426818
 20
-0.0044126048250522
 10
0.2849171728846755
 20
-0.0043869477582061
 10
0.2903646710082146
 20
-0.0042098656754341
 10
0.2958561958197308
 20
-0.0038689459757388
 10
0.3013198543415303
 20
-0.0033517760581236
 10
0.3066837535959284
 20
-0.0026459433215902
 10
0.3118867065155708
 20
-0.0017409207039176
 10
0.3169103496745826
 20
-0.0006337232979815
 10
0.3217470255573875
 20
0.0006767482645579
 10
0.3263890766485122
 20
0.0021915933520597
 10
0.330828845432384
 20
0.0039119113328547
 10
0.3350586743934762
 20
0.0058388015753029
 10
0.3390709060162695
 20
0.0079733634477552
 10
0.342857882785216
 20
0.0103166963185389
 10
0.3464131282966516
 20
0.0128654391589852
 10
0.3497348905941831
 20
0.0155983893521768
 10
0.3528225988333062
 20
0.0184898838841947
 10
0.3556756821695544
 20
0.0215142597411164
 10
0.358293569758338
 20
0.0246458539089735
 10
0.3606756907552224
 20
0.0278590033738342
 10
0.3628214743156608
 20
0.0311280451218149
 10
0.364730349595149
 20
0.0344273161389451
 10
0.3664046000530625
 20
0.0377320060274356
 10
0.3678579263643975
 20
0.0410207148541135
 10
0.3691068835079996
 20
0.0442728953018851
 10
0.3701680264627711
 20
0.0474680000537821
 10
0.3709073146951134
 20
0.0500579086542576
 10
0.3687057084323868
 20
0.0538514208365091
 10
0.3673392881627464
 20
0.0564807319206997
 10
0.3664262766530779
 20
0.0586076922347376
 10
0.3657664167715957
 20
0.0610853395226427
 10
0.3668039874853033
 20
0.062864171641269
 10
0.3691532984339876
 20
0.0634912564569286
 10
0.3712388758185519
 20
0.0637495124147215
 10
0.37342291726757
 20
0.0638848188935249
 10
0.373469151459588
 20
0.0643654903088711
 10
0.3735634397406233
 20
0.0667664804546226
 10
0.3734927481013202
 20
0.0691172438715777
 10
0.3732370963330656
 20
0.0714543090771316
 10
0.3727765042272253
 20
0.0738142045888158
 10
0.3720909915751669
 20
0.0762334589240154
 10
0.3711605781682792
 20
0.0787486006001604
 10
0.3699677575388005
 20
0.081384933230801
 10
0.3685049181826159
 20
0.0841228608135336
 10
0.3667669223363479
 20
0.0869315624421642
 10
0.3647486322368039
 20
0.0897802172103184
 10
0.3624449101206544
 20
0.0926380042117974
 10
0.3598506182245931
 20
0.0954741025402783
 10
0.3569606187853971
 20
0.0982576912894627
 10
0.3537697740397068
 20
0.1009579495531383
 10
0.3502772276937094
 20
0.1035493834802003
 10
0.3464992493311314
 20
0.1060278074406488
 10
0.3424563900050686
 20
0.1083943628597771
 10
0.3381692007687
 20
0.1106501911627314
 10
0.333658232675111
 20
0.1127964337747911
 10
0.3289440367775001
 20
0.1148342321211759
 10
0.3240471641289382
 20
0.1167647276271216
 10
0.318988165782601
 20
0.1185890617178593
 10
0.3137921597376216
 20
0.1203099929993425
 10
0.3085025317763304
 20
0.1219367488005743
 10
0.3031672346273488
 20
0.1234801736312522
 10
0.2978342210190448
 20
0.1249511120010841
 10
0.2925514436798888
 20
0.1263604084197596
 10
0.2873668553385986
 20
0.1277189073970371
 10
0.2823284087233091
 20
0.1290374534425913
 10
0.2774840565625052
 20
0.1303268910661308
 10
0.2728758912369482
 20
0.1315982067569357
 10
0.2685225637369406
 20
0.1328629549222348
 97
        0
 92
        7
 72
     0
 73
     1
 93
      332
 10
0.4917662216588976
 20
0.1203099929993473
 10
0.4864765936976206
 20
0.1219367488005787
 10
0.4811412965486391
 20
0.1234801736312421
 10
0.4758082829404238
 20
0.1249511120010784
 10
0.4705255056013407
 20
0.1263604084197591
 10
0.4653409172599102
 20
0.1277189073970371
 10
0.4603024706446402
 20
0.1290374534425913
 10
0.4554581184838576
 20
0.1303268910661216
 10
0.4508499531582882
 20
0.1315982067569293
 10
0.4464966256582859
 20
0.1328629549222275
 10
0.4424109266261027
 20
0.1341328319488279
 10
0.4386056467042679
 20
0.1354195342235641
 10
0.4350935765351061
 20
0.1367347581332259
 10
0.4318875067611554
 20
0.1380902000646146
 10
0.4290002280248029
 20
0.1394975564045396
 10
0.4264445309684924
 20
0.1409685235397961
 10
0.4242265254369322
 20
0.1425112710606267
 10
0.4223255980840986
 20
0.1441198613709997
 10
0.4207144547661948
 20
0.1457848300782915
 10
0.4193658013394952
 20
0.1474967127899042
 10
0.4182523436602051
 20
0.1492460451132369
 10
0.4173467875845845
 20
0.1510233626556801
 10
0.4166218389688492
 20
0.152819201024605
 10
0.4160502036692418
 20
0.1546240958274666
 10
0.4156103569921453
 20
0.1564317706919933
 10
0.4153038520446124
 20
0.1582487013275746
 10
0.4151380113838084
 20
0.1600845514640105
 10
0.4151201575669213
 20
0.1619489848309913
 10
0.4152576131511374
 20
0.1638516651583726
 10
0.415557700693622
 20
0.165802256175831
 10
0.4160277427515826
 20
0.1678104216132269
 10
0.4166750618821951
 20
0.1698858252002608
 10
0.4175039441099031
 20
0.1720322477146446
 10
0.418506529328182
 20
0.1742299381255073
 10
0.4196719208978479
 20
0.1764532624500346
 10
0.4209892221796317
 20
0.1786765867052652
 10
0.4224475365343423
 20
0.1808742769083097
 10
0.4240359673226753
 20
0.1830206990762483
 10
0.4257436179054306
 20
0.1850902192261775
 10
0.4275595916433446
 20
0.1870572033751921
 10
0.4294767309369583
 20
0.1888993285904726
 10
0.431502834345368
 20
0.1906075161394026
 10
0.4336494394674695
 20
0.1921759983394663
 10
0.4359280839021658
 20
0.1935990075081308
 10
0.4383503052483047
 20
0.1948707759628703
 10
0.4409276411047607
 20
0.1959855360211492
 10
0.4436716290704262
 20
0.1969375200004412
 10
0.4465938067441613
 20
0.1977209602182185
 10
0.4496985007797854
 20
0.1983284334553736
 10
0.4529611940508059
 20
0.1987458943464803
 10
0.4563501584856891
 20
0.1989576419895355
 10
0.4598336660128802
 20
0.1989479754825357
 10
0.463379988560849
 20
0.1987011939234777
 10
0.4669573980580389
 20
0.1982015964103564
 10
0.4705341664329002
 20
0.1974334820411741
 10
0.4740785656139224
 20
0.1963811499139156
 10
0.4775787952873625
 20
0.1949981979011266
 10
0.4811027661709204
 20
0.1931154189735116
 10
0.4847383167401596
 20
0.1905329048762946
 10
0.4885732854705882
 20
0.1870507473547245
 10
0.4926955108377378
 20
0.1824690381540511
 10
0.4971928313171805
 20
0.1765878690194492
 10
0.5021530853844123
 20
0.1692073316962841
 10
0.5076641115149628
 20
0.1601275179296737
 10
0.5206481786157067
 20
0.1605799064859886
 10
0.5301486018904332
 20
0.1618446131313687
 10
0.536651885119607
 20
0.1637829493304679
 10
0.5406445320836859
 20
0.1662562265479401
 10
0.542613046563135
 20
0.1691257562484363
 10
0.5430439323384118
 20
0.172252849896612
 10
0.5424236931899796
 20
0.1754988189571149
 10
0.5412388328982978
 20
0.1787249748946105
 10
0.5398922823085855
 20
0.1818169403625633
 10
0.5384526805252073
 20
0.1847575827696433
 10
0.5369050937172926
 20
0.187554080713218
 10
0.535234588053875
 20
0.1902136127908867
 10
0.5334262297040802
 20
0.1927433576000596
 10
0.5314650848370271
 20
0.1951504937382256
 10
0.529336219621845
 20
0.1974421998028161
 10
0.5270247002276261
 20
0.1996256543913335
 10
0.5245229640694067
 20
0.2017072225222454
 10
0.5218529335462688
 20
0.2036900148980173
 10
0.5190439023032436
 20
0.2055763286421167
 10
0.5161251639852776
 20
0.2073684608780267
 10
0.5131260122374908
 20
0.2090687087292022
 10
0.5100757407048278
 20
0.2106793693191463
 10
0.5070036430322542
 20
0.2122027397713491
 10
0.5039390128649206
 20
0.2136411172092404
 10
0.5009053999654558
 20
0.2149953630483864
 10
0.497903378567532
 20
0.2162605958725137
 10
0.4949277790227101
 20
0.2174304985574031
 10
0.4919734316822613
 20
0.2184987539789
 10
0.4890351668976721
 20
0.2194590450127801
 10
0.48610781502029
 20
0.2203050545348351
 10
0.4831862064015838
 20
0.2210304654208871
 10
0.4802651713929436
 20
0.2216289605467199
 10
0.4773369556841836
 20
0.2220966156193174
 10
0.4743834663186331
 20
0.2224390776703781
 10
0.4713840256780646
 20
0.2226643865627759
 10
0.4683179561441815
 20
0.2227805821593891
 10
0.465164580098719
 20
0.2227957043230947
 10
0.4619032199234283
 20
0.2227177929167687
 10
0.4585131980000466
 20
0.2225548878032888
 10
0.4549738367102876
 20
0.2223150288455301
 10
0.4512760417885709
 20
0.2220028102673492
 10
0.4474570523798818
 20
0.2216090437365115
 10
0.4435656909819095
 20
0.2211210952817644
 10
0.43965078009232
 20
0.2205263309318538
 10
0.4357611422087971
 20
0.2198121167155262
 10
0.4319455998290121
 20
0.2189658186615299
 10
0.4282529754505973
 20
0.2179748027986019
 10
0.4247320915712809
 20
0.2168264351554977
 10
0.421419804400605
 20
0.2155102831189891
 10
0.4183051049958735
 20
0.2140247195079915
 10
0.4153650181262006
 20
0.2123703184994258
 10
0.4125765685608372
 20
0.2105476542702495
 10
0.4099167810689402
 20
0.2085573009973993
 10
0.4073626804196718
 20
0.2063998328578103
 10
0.4048912913822065
 20
0.204075824028397
 10
0.4024796387257723
 20
0.2015858486861641
 10
0.4001136501461602
 20
0.1989321081428752
 10
0.39781486504606
 20
0.1961233122500465
 10
0.3956137257546626
 20
0.1931697979940108
 10
0.3935406746012848
 20
0.190081902361054
 10
0.3916261539152383
 20
0.1868699623376062
 10
0.3899006060257815
 20
0.1835443149100314
 10
0.3883944732621867
 20
0.1801152970646242
 10
0.3871381979537585
 20
0.1765932457877587
 10
0.3861540853197081
 20
0.1729914651893928
 10
0.3854318921390316
 20
0.1693351278738298
 10
0.3849532380806533
 20
0.1656523735690273
 10
0.3846997428135133
 20
0.1619713420029044
 10
0.3846530260065357
 20
0.1583201729033169
 10
0.3847947073286519
 20
0.1547270059983656
 10
0.3851064064487968
 20
0.1512199810159045
 10
0.3855697430359175
 20
0.1478272376836713
 10
0.3861740909742135
 20
0.1445705029326059
 10
0.3869398410091485
 20
0.1414458525042019
 10
0.3878951381014826
 20
0.1384429493428101
 10
0.3890681272119458
 20
0.1355514563928174
 10
0.3904869533012771
 20
0.1327610365985987
 10
0.3921797613302456
 20
0.1300613529045202
 10
0.394174696259574
 20
0.1274420682549228
 10
0.3964999030500298
 20
0.124892845594154
 10
0.3991747193915973
 20
0.122405357843869
 10
0.4021832538910655
 20
0.1199793178347568
 10
0.4055008078845717
 20
0.1176164483747906
 10
0.4091026827081983
 20
0.1153184722719055
 10
0.412964179697946
 20
0.113087112334092
 10
0.4170606001899824
 20
0.1109240913693149
 10
0.4213672455203615
 20
0.1088311321855031
 10
0.4258594170251371
 20
0.1068099575906578
 10
0.4305129904503176
 20
0.1048603761462413
 10
0.4353061391815985
 20
0.1029745394279166
 10
0.4402176110145089
 20
0.1011426847647834
 10
0.4452261537446116
 20
0.0993550494860975
 10
0.4503105151673666
 20
0.0976018709209958
 10
0.455449443078722
 20
0.0958733863985544
 10
0.4606216852743757
 20
0.0941598332478796
 10
0.465805989548656
 20
0.0924514487985952
 10
0.4709755512911631
 20
0.0907391403561634
 10
0.4760813562573923
 20
0.0890164951353711
 10
0.4810688377966699
 20
0.0872777703273974
 10
0.4858834292578394
 20
0.0855172231235428
 10
0.4904705639898559
 20
0.0837291107151546
 10
0.4947756753416588
 20
0.0819076902934961
 10
0.4987441966621944
 20
0.080047219049923
 10
0.5023215613003292
 20
0.0781419541757349
 10
0.5054674665327959
 20
0.0761885456934043
 10
0.5081986653472406
 20
0.0741932149501802
 10
0.5105461746591633
 20
0.0721645761243757
 10
0.5125410113839309
 20
0.0701112433944728
 10
0.5142141924370183
 20
0.0680418309388085
 10
0.5155967347338617
 20
0.0659649529357689
 10
0.5167196551898741
 20
0.0638892235637508
 10
0.5176139707205128
 20
0.0618232570011514
 10
0.5183048586352684
 20
0.0597737531568059
 10
0.5187941378197643
 20
0.0577397548612632
 10
0.5190777875537318
 20
0.0557183906755443
 10
0.5191517871168632
 20
0.0537067891606651
 10
0.519012115788863
 20
0.0517020788776411
 10
0.5186547528494341
 20
0.0497013883874797
 10
0.5180756775782616
 20
0.0477018462511909
 10
0.5172708692550696
 20
0.045700581029812
 10
0.5162381260452201
 20
0.0436975927002424
 10
0.5149825216566822
 20
0.0417043669029043
 10
0.5135109486831198
 20
0.0397352606942039
 10
0.5118302997181559
 20
0.0378046311304902
 10
0.5099474673554792
 20
0.035926835268146
 10
0.5078693441887037
 20
0.0341162301635151
 10
0.5056028228115111
 20
0.0323871728729658
 10
0.5031547958175189
 20
0.030754020452869
 10
0.5005354106362799
 20
0.0292294070938767
 10
0.4977678340408503
 20
0.0278190755238312
 10
0.4948784876403103
 20
0.0265270456049238
 10
0.4918937930435324
 20
0.0253573371992613
 10
0.4888401718595699
 20
0.0243139701690217
 10
0.4857440456973823
 20
0.0234009643763464
 10
0.4826318361659805
 20
0.0226223396833966
 10
0.479529964874315
 20
0.0219821159523135
 10
0.4764588224322815
 20
0.0214830687873623
 10
0.4734146754533253
 20
0.0211229967612212
 10
0.4703877595517927
 20
0.0208984541886791
 10
0.4673683103420228
 20
0.0208059953845217
 10
0.4643465634383546
 20
0.020842174663537
 10
0.4613127544551379
 20
0.0210035463405121
 10
0.4582571190067118
 20
0.0212866647302338
 10
0.4551698927073922
 20
0.0216880841474911
 10
0.4520472464469752
 20
0.022205603199604
 10
0.4489090922168817
 20
0.0228419976640539
 10
0.4457812772839596
 20
0.0236012876108432
 10
0.4426896489150618
 20
0.0244874931099957
 10
0.4396600543770397
 20
0.0255046342315056
 10
0.4367183409367375
 20
0.0266567310453957
 10
0.4338903558610081
 20
0.0279478036216778
 10
0.4312019464166959
 20
0.0293818720303629
 10
0.4286746519928926
 20
0.0309575006558668
 10
0.4263127804673328
 20
0.0326514311403593
 10
0.4241163318400325
 20
0.0344349494403941
 10
0.4220853061110415
 20
0.0362793415124854
 10
0.4202197032803224
 20
0.0381558933132672
 10
0.4185195233478876
 20
0.040035890799237
 10
0.4169847663136839
 20
0.0418906199269974
 10
0.4156154321778143
 20
0.0436913666530927
 10
0.4144097020545346
 20
0.0454148726080665
 10
0.4133584815155924
 20
0.0470597021187107
 10
0.4124508572470536
 20
0.0486298751856343
 10
0.4116759159348984
 20
0.0501294118096901
 10
0.4110227442652637
 20
0.0515623319915488
 10
0.4104804289241884
 20
0.0529326557318921
 10
0.4100380565977133
 20
0.0542444030314302
 10
0.4096847139718652
 20
0.0555015938909876
 10
0.4093963726112638
 20
0.0567059511878141
 10
0.4090965435945862
 20
0.05785000930513
 10
0.4086956228790353
 20
0.0589240055029138
 10
0.4081040064218282
 20
0.0599181770409982
 10
0.4072320901801821
 20
0.0608227611792792
 10
0.4059902701113174
 20
0.0616279951776143
 10
0.4042889421724301
 20
0.0623241162958853
 10
0.4020385023207585
 20
0.0629013617939627
 10
0.3991890938320175
 20
0.0633535703737184
 10
0.3958498492560878
 20
0.063688986504999
 10
0.3921696484613921
 20
0.0639194560996476
 10
0.3882973713163018
 20
0.064056825069509
 10
0.3843818976892166
 20
0.0641129393264264
 10
0.3805721074485628
 20
0.0640996447822432
 10
0.3770168804627119
 20
0.0640287873488035
 10
0.3738650966000723
 20
0.0639122129379501
 10
0.3734229172675683
 20
0.0638848188935251
 10
0.3732298634668467
 20
0.0618777449168667
 10
0.3728655559710372
 20
0.059266715761202
 10
0.3723901199828479
 20
0.0565053869634642
 10
0.3717930897213133
 20
0.0536047932015529
 10
0.3709331110728815
 20
0.0500729437741586
 10
0.3726370299094022
 20
0.0473639090766298
 10
0.3751128422339605
 20
0.0436822826314469
 10
0.3778693630274148
 20
0.039826458629712
 10
0.3808620478481668
 20
0.0358847241868647
 10
0.3840463522550674
 20
0.0319453664179761
 10
0.3873777318065503
 20
0.0280966724383921
 10
0.3908141919010859
 20
0.0244143302746267
 10
0.3943239372964733
 20
0.020923631598178
 10
0.3978777225903816
 20
0.0176372689917415
 10
0.401446302380343
 20
0.0145679350381575
 10
0.4050004312640532
 20
0.0117283223201623
 10
0.4085108638391511
 20
0.0091311234204545
 10
0.4119483547032328
 20
0.0067890309218573
 10
0.4152836584539
 20
0.004714737407122
 10
0.4185035481744919
 20
0.0029150967586126
 10
0.4216588708908003
 20
0.0013736080573904
 10
0.4248164921144664
 20
0.0000679316840896
 10
0.4280432773569203
 20
-0.0010242719806016
 10
0.4314060921297376
 20
-0.0019253425560266
 10
0.4349718019444318
 20
-0.0026576196615091
 10
0.4388072723125447
 20
-0.0032434429163929
 10
0.4429793687455952
 20
-0.0037051519400027
 10
0.4475318303402318
 20
-0.004059294314953
 10
0.4524158905336382
 20
-0.0042992494769687
 10
0.4575596563481224
 20
-0.0044126048250521
 10
0.4628912348059853
 20
-0.0043869477582063
 10
0.4683387329295244
 20
-0.0042098656754341
 10
0.4738302577410405
 20
-0.0038689459757389
 10
0.4792939162628525
 20
-0.003351776058123
 10
0.4846578155172417
 20
-0.0026459433215901
 10
0.4898607684368806
 20
-0.0017409207039175
 10
0.4948844115958906
 20
-0.0006337232979811
 10
0.4997210874786902
 20
0.0006767482645547
 10
0.5043631385698309
 20
0.002191593352062
 10
0.5088029073536831
 20
0.0039119113328528
 10
0.5130327363147896
 20
0.0058388015753087
 10
0.5170449679375953
 20
0.0079733634477586
 10
0.5208319447065364
 20
0.0103166963185447
 10
0.5243871902179631
 20
0.0128654391589919
 10
0.5277089525154857
 20
0.0155983893521735
 10
0.5307966607546267
 20
0.0184898838842068
 10
0.5336497440908481
 20
0.0215142597411023
 10
0.5362676316796442
 20
0.0246458539089628
 10
0.5386497526765269
 20
0.0278590033738356
 10
0.5407955362369475
 20
0.0311280451217846
 10
0.5427044115164588
 20
0.0344273161389321
 10
0.5443786619743581
 20
0.0377320060274239
 10
0.5458319882856788
 20
0.0410207148540918
 10
0.5470809454292951
 20
0.0442728953018671
 10
0.548142088384072
 20
0.0474680000537537
 10
0.5490319721288888
 20
0.0505854817926522
 10
0.5497671516426142
 20
0.0536047932014763
 10
0.5503641819041452
 20
0.0565053869633913
 10
0.5508396178923487
 20
0.0592667157612287
 10
0.5512039253881583
 20
0.0618777449168426
 10
0.5514432133808996
 20
0.0643654903088951
 10
0.5515375016619313
 20
0.0667664804546262
 10
0.5514668100226317
 20
0.0691172438715736
 10
0.5512111582543735
 20
0.0714543090771517
 10
0.5507505661485262
 20
0.0738142045888514
 10
0.5500650534964855
 20
0.0762334589240386
 10
0.5491346400895978
 20
0.078748600600153
 10
0.5479418194601156
 20
0.0813849332307818
 10
0.5464789801039203
 20
0.0841228608135352
 10
0.5447409842576754
 20
0.0869315624421462
 10
0.5427226941581261
 20
0.0897802172102998
 10
0.5404189720419481
 20
0.0926380042118009
 10
0.5378246801459188
 20
0.0954741025402791
 10
0.5349346807067246
 20
0.0982576912894612
 10
0.5317438359610325
 20
0.1009579495531218
 10
0.5282512896150387
 20
0.1035493834801974
 10
0.5244733112524358
 20
0.1060278074406705
 10
0.5204304519263694
 20
0.1083943628597602
 10
0.5161432626899832
 20
0.1106501911627383
 10
0.5116322945963923
 20
0.1127964337747924
 10
0.5069180986987867
 20
0.1148342321211885
 10
0.5020212260502568
 20
0.1167647276271162
 10
0.4969622277039214
 20
0.1185890617178479
 97
        0
 92
        7
 72
     0
 73
     1
 93
        8
 10
0.662997974496939
 20
0.2177610153446778
 10
0.6295864676836001
 20
0.2177610153446778
 10
0.5395534476262256
 20
0.0
 10
0.5804482369237807
 20
0.0
 10
0.6000630067823103
 20
0.0514069832830803
 10
0.6914578531219658
 20
0.0514069832830799
 10
0.7105144352368669
 20
0.0000000000000001
 10
0.7483729551692449
 20
0.0000000000000001
 97
        0
 92
       22
 72
     0
 73
     1
 93
        3
 10
0.6464200329974688
 20
0.1729008824664072
 10
0.6831794878931028
 20
0.0737386784614529
 10
0.6085838542139186
 20
0.0737386784614531
 97
        0
 92
        7
 72
     0
 73
     1
 93
        8
 10
0.9266291278299974
 20
0.2177610153446779
 10
0.8932176210166584
 20
0.2177610153446778
 10
0.803184600959284
 20
0.0
 10
0.8440793902568373
 20
0.0
 10
0.8636941601153669
 20
0.0514069832830801
 10
0.9550890064550259
 20
0.0514069832830799
 10
0.9741455885699235
 20
0.0000000000000001
 10
1.012004108502305
 20
0.0000000000000001
 97
        0
 92
       22
 72
     0
 73
     1
 93
        3
 10
0.9100511863305253
 20
0.1729008824664071
 10
0.9468106412261594
 20
0.0737386784614529
 10
0.8722150075469752
 20
0.0737386784614531
 97
        0
 92
        7
 72
     0
 73
     1
 93
        9
 10
1.731557409708941
 20
0.2134611660316779
 10
1.687371096748465
 20
0.2134611660316779
 10
1.63194895521901
 20
0.1240483947173286
 10
1.57652681368955
 20
0.2134611660316779
 10
1.532571011940008
 20
0.2134611660316779
 10
1.609763989892435
 20
0.0843678120262729
 10
1.609763989892435
 20
-0.0009574968262028
 10
1.65179128529251
 20
-0.0009574968262029
 10
1.65179128529251
 20
0.0813664420704495
 97
        0
 92
        7
 72
     0
 73
     1
 93
       22
 10
1.54479751813961
 20
0.0704398533951249
 10
1.548640537746083
 20
0.0900355646262393
 10
1.548640537746081
 20
0.1284584993056417
 10
1.537495830862646
 20
0.1661130171515596
 10
1.516359264673175
 20
0.1926248701053339
 10
1.496375629353304
 20
0.2091467366291852
 10
1.467553065596998
 20
0.2210578538294782
 10
1.44564792047389
 20
0.2237474723826623
 10
1.429122994470624
 20
0.2237474723826623
 10
1.399916120424439
 20
0.2141417121068082
 10
1.371862177247878
 20
0.195698714812595
 10
1.352647120861632
 20
0.167649921767857
 10
1.343039613491566
 20
0.1434434612132056
 10
1.338812283595229
 20
0.1280742731515586
 10
1.338812283595229
 20
0.0884986245352745
 10
1.348804142901272
 20
0.0550706653334961
 10
1.374552265984739
 20
0.019721539886683
 10
1.397226031687578
 20
0.003199673362834
 10
1.412598068467353
 20
-0.0041006945139088
 10
1.469474575400234
 20
-0.0041006945139088
 10
1.505598868079605
 20
0.0124211720099423
 10
1.529041212716078
 20
0.0377803110268257
 97
        0
 92
       22
 72
     0
 73
     1
 93
       22
 10
1.501461810765713
 20
0.0565603242974487
 10
1.485857202083623
 20
0.0396797841036396
 10
1.462286187014486
 20
0.0288993054860914
 10
1.420036033185239
 20
0.0288993054860914
 10
1.414168124090389
 20
0.0316860471308983
 10
1.39817498173228
 20
0.0433398926720672
 10
1.37880410826677
 20
0.0699338092044216
 10
1.371812283595231
 20
0.0933250943204024
 10
1.371812283595231
 20
0.1236186458250142
 10
1.374378703904085
 20
0.1329493101780091
 10
1.381957757032646
 20
0.152045007275212
 10
1.395416497164688
 20
0.1716911331578764
 10
1.414385461288301
 20
0.1841615567202264
 10
1.434410321758232
 20
0.1907474723826624
 10
1.44362955033857
 20
0.1907474723826626
 10
1.459087374354989
 20
0.1888494867709366
 10
1.479178679533681
 20
0.1805466205612002
 10
1.492691589714867
 20
0.1693745542785299
 10
1.507679644320264
 20
0.1505748544503066
 10
1.515640537746081
 20
0.1236774576226223
 10
1.515640537746081
 20
0.0932409379032601
 10
1.513231263123831
 20
0.08095594989682
 97
        0
 92
        7
 72
     0
 73
     1
 93
        6
 10
1.357933552944972
 20
0.02830204671605
 10
1.259209037109409
 20
0.02830204671605
 10
1.259209037109409
 20
0.2134611660316779
 10
1.220767638241504
 20
0.2134611660316779
 10
1.220767638241504
 20
-0.00227069817155
 10
1.357933552944972
 20
-0.0022706981715499
 97
        0
 92
        7
 72
     0
 73
     1
 93
       15
 10
1.172982518455201
 20
0.0119403483286285
 10
1.192137854321757
 20
0.0260225153515897
 10
1.203123972823767
 20
0.0477090681758081
 10
1.203123972823767
 20
0.0705221901049027
 10
1.190165952727157
 20
0.0961517525335232
 10
1.16340487134498
 20
0.1122054243586857
 10
1.158112442222005
 20
0.1196957590949094
 10
1.176579284621707
 20
0.1381591543245509
 10
1.189364015260565
 20
0.1559124530786972
 10
1.189364015260565
 20
0.1754410462335968
 10
1.179775456869895
 20
0.2010057964395687
 10
1.153269374610488
 20
0.2134611660316781
 10
1.021169875598793
 20
0.2134611660316779
 10
1.021169875598793
 20
0.0001873062592139
 10
1.138880352577364
 20
0.000187306259214
 97
        0
 92
       22
 72
     0
 73
     1
 93
        8
 10
1.061672257087529
 20
0.0268787674687447
 10
1.061672257087527
 20
0.0996699884356929
 10
1.139624818414132
 20
0.0996699884356929
 10
1.154576021266819
 20
0.093069393905388
 10
1.166770793131695
 20
0.0705932458695265
 10
1.166770793131696
 20
0.0503637087040755
 10
1.151379640788093
 20
0.032900628227694
 10
1.127971695837294
 20
0.0268787674687446
 97
        0
 92
       22
 72
     0
 73
     1
 93
        8
 10
1.061672257087527
 20
0.1236034359276915
 10
1.061672257087529
 20
0.1868895027837711
 10
1.128535126040121
 20
0.186889502783771
 10
1.1455174512538
 20
0.1756986632893445
 10
1.152657759860055
 20
0.1641219658060184
 10
1.152657759860055
 20
0.1490722271504831
 10
1.141850802917113
 20
0.1313212697245795
 10
1.128535126040119
 20
0.1236034359276915
 97
        0
 75
     0
 76
     1
 47
0.0015905179214237
 98
       22
 10
0.4663390282533016
 20
0.6861063939894302
 10
0.4663390282533016
 20
0.6861063939894302
 10
0.6968627658461842
 20
0.6763677471629778
 10
0.8916715663053622
 20
0.6796139736944583
 10
1.245574230089999
 20
0.6633829065730305
 10
1.450123460954998
 20
0.6049510911502943
 10
1.450123460954998
 20
0.6049510911502943
 10
0.0925243096268105
 20
0.1990730617195312
 10
0.0925243096268105
 20
0.1990730617195312
 10
0.2247455793451607
 20
0.1329746505922246
 10
0.4313798828147882
 20
0.1187259486022257
 10
0.6179377937766759
 20
0.1142313926982653
 10
0.6179377937766759
 20
0.1142313926982653
 10
0.8719262341798028
 20
0.1288386420421511
 10
0.8719262341798028
 20
0.1288386420421511
 10
1.62599538443527
 20
0.085389498832381
 10
1.524183391842214
 20
0.066303291148092
 10
1.524183391842214
 20
0.066303291148092
 10
1.233064679238957
 20
0.0106351608262615
 10
1.091482356001748
 20
0.0106351608262615
 10
1.091482356001748
 20
0.0106351608262615
 10
1.091482356001748
 20
0.0106351608262615
1001
ACAD
1010
0.0
1020
0.0
1030
0.0
  0
LWPOLYLINE
  5
CC9
330
9BC
100
AcDbEntity
  8
0
370
    20
100
AcDbPolyline
 90
        9
 70
     1
 43
0.0
 10
1.061672257087529
 20
0.1236034359276915
 10
1.061672257087529
 20
0.186889502783771
 10
1.128535126040119
 20
0.186889502783771
 10
1.145517451253795
 20
0.1756986632893459
 10
1.152657759860055
 20
0.1641219658060181
 10
1.152657759860055
 20
0.1490722271504837
 10
1.141850802917112
 20
0.1313212697245804
 10
1.128535126040119
 20
0.1236034359276915
 10
1.061672257087529
 20
0.1236034359276915
  0
LWPOLYLINE
  5
CCA
330
9BC
100
AcDbEntity
  8
0
370
    20
100
AcDbPolyline
 90
        6
 70
     1
 43
0.0
 10
1.259209037109407
 20
0.2134611660316779
 10
1.220767638241504
 20
0.2134611660316779
 10
1.220767638241504
 20
-0.00227069817155
 10
1.35793355294497
 20
-0.00227069817155
 10
1.35793355294497
 20
0.0283020467160499
 10
1.259209037109407
 20
0.0283020467160499
  0
LWPOLYLINE
  5
CCB
330
9BC
100
AcDbEntity
  8
0
370
    20
100
AcDbPolyline
 90
       23
 70
     0
 43
0.0
 10
1.445647920473888
 20
0.2237474723826623
 10
1.429122994470624
 20
0.2237474723826623
 10
1.399916120424443
 20
0.2141417121068089
 10
1.371862177247876
 20
0.1956987148125934
 10
1.352647120861632
 20
0.1676499217678541
 10
1.343039613491569
 20
0.1434434612131882
 10
1.338812283595231
 20
0.1280742731515617
 10
1.338812283595231
 20
0.0884986245352694
 10
1.348804142901272
 20
0.0550706653334957
 10
1.374552265984739
 20
0.0197215398866818
 10
1.39722603168758
 20
0.0031996733628362
 10
1.412598068467353
 20
-0.0041006945139087
 10
1.469474575400234
 20
-0.0041006945139087
 10
1.505598868079609
 20
0.012421172009944
 10
1.52904121271608
 20
0.037780311026829
 10
1.54479751813961
 20
0.0704398533951222
 10
1.548640537746081
 20
0.0900355646262342
 10
1.548640537746081
 20
0.1284584993056371
 10
1.537495830862646
 20
0.1661130171515596
 10
1.51635926467317
 20
0.192624870105334
 10
1.496375629353302
 20
0.2091467366291867
 10
1.467553065596995
 20
0.2210578538294784
 10
1.445647920473888
 20
0.2237474723826623
  0
LWPOLYLINE
  5
CCC
330
9BC
100
AcDbEntity
  8
0
370
    20
100
AcDbPolyline
 90
       22
 70
     1
 43
0.0
 10
1.44362955033857
 20
0.1907474723826623
 10
1.434410321758232
 20
0.1907474723826623
 10
1.414385461288306
 20
0.1841615567202268
 10
1.395416497164687
 20
0.1716911331578734
 10
1.381957757032639
 20
0.1520450072752032
 10
1.374378703904094
 20
0.1329493101780066
 10
1.371812283595231
 20
0.1236186458250128
 10
1.371812283595231
 20
0.0933250943203935
 10
1.378804108266773
 20
0.0699338092044195
 10
1.39817498173228
 20
0.0433398926720642
 10
1.414168124090384
 20
0.0316860471309001
 10
1.420036033185237
 20
0.0288993054860913
 10
1.462286187014484
 20
0.0288993054860913
 10
1.485857202083623
 20
0.0396797841036393
 10
1.501461810765711
 20
0.056560324297451
 10
1.513231263123831
 20
0.0809559498968146
 10
1.515640537746081
 20
0.0932409379032658
 10
1.515640537746081
 20
0.1236774576226215
 10
1.507679644320262
 20
0.1505748544503053
 10
1.492691589714864
 20
0.1693745542785267
 10
1.47917867953368
 20
0.1805466205612002
 10
1.459087374354988
 20
0.188849486770937
  0
LWPOLYLINE
  5
CCD
330
9BC
100
AcDbEntity
  8
0
370
    20
100
AcDbPolyline
 90
        9
 70
     1
 43
0.0
 10
1.576526813689554
 20
0.2134611660316779
 10
1.532571011940007
 20
0.2134611660316779
 10
1.609763989892435
 20
0.0843678120262724
 10
1.609763989892435
 20
-0.0009574968262028
 10
1.65179128529251
 20
-0.0009574968262028
 10
1.65179128529251
 20
0.0813664420704471
 10
1.731557409708941
 20
0.2134611660316779
 10
1.687371096748464
 20
0.2134611660316779
 10
1.631948955219009
 20
0.1240483947173275
  0
LWPOLYLINE
  5
CCE
330
9BC
100
AcDbEntity
  8
0
370
    25
100
AcDbPolyline
 90
        4
 70
     0
 43
0.0
 10
-0.0711838555131834
 20
0.450674433040753
 10
-0.0711838555131834
 20
0.3805573636707394
 10
1.806200396433723
 20
0.3805573636707394
 10
1.806200396433723
 20
0.3149281238916687
  0
ARC
  5
CCF
102
{ACAD_REACTORS
330
D05
102
}
330
9BC
100
AcDbEntity
  8
0
370
    25
100
AcDbCircle
 10
0.311500377657822
 20
0.7894846678654219
 30
0.0
 40
0.0087605404650458
100
AcDbArc
 50
292.5
 51
30.06084317667181
  0
ARC
  5
CD0
102
{ACAD_REACTORS
330
D06
102
}
330
9BC
100
AcDbEntity
  8
0
370
    25
100
AcDbCircle
 10
0.3282629461305078
 20
0.7490162477184592
 30
0.0
 40
0.0087605404650458
100
AcDbArc
 50
14.93915682332819
 51
112.5
  0
ARC
  5
CD1
102
{ACAD_REACTORS
330
D00
102
}
330
9BC
100
AcDbEntity
  8
0
370
    25
100
AcDbCircle
 10
0.2103484179114297
 20
0.8669307759375309
 30
0.0
 40
0.0087605404650458
100
AcDbArc
 50
337.499999999999
 51
75.0608431766728
  0
ARC
  5
CD2
102
{ACAD_REACTORS
330
D00
102
}
330
9BC
100
AcDbEntity
  8
0
370
    25
100
AcDbCircle
 10
0.1245289331971158
 20
0.8669307759375309
 30
0.0
 40
0.0087605404650458
100
AcDbArc
 50
104.9391568233282
 51
202.5
  0
ARC
  5
CD3
102
{ACAD_REACTORS
330
CFF
102
}
330
9BC
100
AcDbEntity
  8
0
370
    25
100
AcDbCircle
 10
0.084060513050158
 20
0.8501682074648474
 30
0.0
 40
0.0087605404650458
100
AcDbArc
 50
22.50000000000001
 51
120.0608431766718
  0
ARC
  5
CD4
102
{ACAD_REACTORS
330
D00
102
}
330
9BC
100
AcDbEntity
  8
0
370
    25
100
AcDbCircle
 10
0.1674386755542763
 20
0.7061065053613027
 30
0.0
 40
0.1752108093009163
100
AcDbArc
 50
75.06084317667196
 51
104.9391568233279
  0
ARC
  5
CD5
102
{ACAD_REACTORS
330
CFF
102
}
330
9BC
100
AcDbEntity
  8
0
370
    25
100
AcDbCircle
 10
0.0233769734507305
 20
0.7894846678654219
 30
0.0
 40
0.0087605404650458
100
AcDbArc
 50
149.9391568233271
 51
247.4999999999981
  0
ARC
  5
CD6
102
{ACAD_REACTORS
330
CFF
102
}
330
9BC
100
AcDbEntity
  8
0
370
    25
100
AcDbCircle
 10
0.1674386755542763
 20
0.7061065053613027
 30
0.0
 40
0.1752108093009163
100
AcDbArc
 50
120.0608431766719
 51
149.9391568233279
  0
ARC
  5
CD7
102
{ACAD_REACTORS
330
D05
102
}
330
9BC
100
AcDbEntity
  8
0
370
    25
100
AcDbCircle
 10
0.2508168380583946
 20
0.8501682074648474
 30
0.0
 40
0.0087605404650458
100
AcDbArc
 50
59.93915682332772
 51
157.5000000000018
  0
LINE
  5
CD8
102
{ACAD_REACTORS
330
D05
102
}
330
9BC
100
AcDbEntity
  8
0
370
    25
100
AcDbLine
 10
0.1998134116718475
 20
0.7499274392028052
 30
0.0
 11
0.2427231540290009
 21
0.8535207211593837
 31
0.0
  0
ARC
  5
CD9
102
{ACAD_REACTORS
330
D06
102
}
330
9BC
100
AcDbEntity
  8
0
370
    25
100
AcDbCircle
 10
0.2246696641739234
 20
0.7061065053613027
 30
0.0
 40
0.0087605404650458
100
AcDbArc
 50
112.5
 51
247.5000000000018
  0
ARC
  5
CDA
102
{ACAD_REACTORS
330
D05
102
}
330
9BC
100
AcDbEntity
  8
0
370
    25
100
AcDbCircle
 10
0.2079070957012377
 20
0.7465749255082672
 30
0.0
 40
0.0087605404650458
100
AcDbArc
 50
157.4999999999999
 51
292.5
  0
ARC
  5
CDB
102
{ACAD_REACTORS
330
D00
102
}
330
9BC
100
AcDbEntity
  8
0
370
    25
100
AcDbCircle
 10
0.1674386755542727
 20
0.7633374939809507
 30
0.0
 40
0.0087605404650458
100
AcDbArc
 50
202.5
 51
337.5000000000018
  0
ARC
  5
CDC
102
{ACAD_REACTORS
330
CFF
102
}
330
9BC
100
AcDbEntity
  8
0
370
    25
100
AcDbCircle
 10
0.1269702554073113
 20
0.7465749255082654
 30
0.0
 40
0.0087605404650458
100
AcDbArc
 50
247.5000000000018
 51
22.50000000000001
  0
ARC
  5
CDD
102
{ACAD_REACTORS
330
CEA
102
}
330
9BC
100
AcDbEntity
  8
0
370
    25
100
AcDbCircle
 10
0.2079070957012341
 20
0.6656380852143386
 30
0.0
 40
0.0087605404650458
100
AcDbArc
 50
67.50000000000089
 51
202.5
  0
ARC
  5
CDE
102
{ACAD_REACTORS
330
CF9
102
}
330
9BC
100
AcDbEntity
  8
0
370
    25
100
AcDbCircle
 10
0.1269702554073113
 20
0.6656380852143386
 30
0.0
 40
0.0087605404650458
100
AcDbArc
 50
337.499999999999
 51
112.5
  0
ARC
  5
CDF
102
{ACAD_REACTORS
330
CF8
102
}
330
9BC
100
AcDbEntity
  8
0
370
    25
100
AcDbCircle
 10
0.1674386755542763
 20
0.6488755167416546
 30
0.0
 40
0.0087605404650458
100
AcDbArc
 50
22.50000000000001
 51
157.4999999999972
  0
ARC
  5
CE0
102
{ACAD_REACTORS
330
CFA
102
}
330
9BC
100
AcDbEntity
  8
0
370
    25
100
AcDbCircle
 10
0.1102076869346291
 20
0.7061065053613013
 30
0.0
 40
0.0087605404650458
100
AcDbArc
 50
292.5
 51
67.49999999999912
  0
ARC
  5
CE1
102
{ACAD_REACTORS
330
D06
102
}
330
9BC
100
AcDbEntity
  8
0
370
    25
100
AcDbCircle
 10
0.3282629461305042
 20
0.6631967630041462
 30
0.0
 40
0.0087605404650458
100
AcDbArc
 50
247.5000000000018
 51
345.0608431766722
  0
ARC
  5
CE2
102
{ACAD_REACTORS
330
CEA
102
}
330
9BC
100
AcDbEntity
  8
0
370
    25
100
AcDbCircle
 10
0.3115003776578185
 20
0.6227283428571834
 30
0.0
 40
0.0087605404650458
100
AcDbArc
 50
329.9391568233272
 51
67.49999999999824
  0
ARC
  5
CE3
102
{ACAD_REACTORS
330
CEA
102
}
330
9BC
100
AcDbEntity
  8
0
370
    25
100
AcDbCircle
 10
0.2508168380583946
 20
0.5620448032577582
 30
0.0
 40
0.0087605404650458
100
AcDbArc
 50
202.5
 51
300.0608431766718
  0
ARC
  5
CE4
102
{ACAD_REACTORS
330
CF8
102
}
330
9BC
100
AcDbEntity
  8
0
370
    25
100
AcDbCircle
 10
0.2103484179114332
 20
0.5452822347850743
 30
0.0
 40
0.0087605404650458
100
AcDbArc
 50
284.9391568233282
 51
22.50000000000001
  0
ARC
  5
CE5
102
{ACAD_REACTORS
330
CEA
102
}
330
9BC
100
AcDbEntity
  8
0
370
    25
100
AcDbCircle
 10
0.1674386755542763
 20
0.7061065053613027
 30
0.0
 40
0.1752108093009163
100
AcDbArc
 50
300.0608431766718
 51
329.9391568233279
  0
LINE
  5
CE6
102
{ACAD_REACTORS
330
D06
102
}
330
9BC
100
AcDbEntity
  8
0
370
    25
100
AcDbLine
 10
0.2213171504793827
 20
0.6980128213319107
 30
0.0
 11
0.3249104324359635
 21
0.6551030789747538
 31
0.0
  0
LINE
  5
CE7
102
{ACAD_REACTORS
330
CEA
102
}
330
9BC
100
AcDbEntity
  8
0
370
    25
100
AcDbLine
 10
0.2112596093957784
 20
0.6737317692437323
 30
0.0
 11
0.3148528913523556
 21
0.6308220268865758
 31
0.0
  0
LINE
  5
CE8
102
{ACAD_REACTORS
330
CEA
102
}
330
9BC
100
AcDbEntity
  8
0
370
    25
100
AcDbLine
 10
0.199813411671844
 20
0.6622855715198019
 30
0.0
 11
0.2427231540290045
 21
0.5586922895632215
 31
0.0
  0
LINE
  5
CE9
102
{ACAD_REACTORS
330
CF8
102
}
330
9BC
100
AcDbEntity
  8
0
370
    25
100
AcDbLine
 10
0.1755323595836664
 20
0.6522280304361913
 30
0.0
 11
0.2184421019408234
 21
0.548634748479611
 31
0.0
  0
HATCH
  5
CEA
330
9BC
100
AcDbEntity
  8
0
370
    25
100
AcDbHatch
 10
0.0
 20
0.0
 30
0.0
210
0.0
220
0.0
230
1.0
  2
SOLID
 70
     1
 71
     1
 91
        1
 92
        7
 72
     1
 73
     1
 93
        6
 10
0.2112596093957784
 20
0.6737317692437323
 42
0.6681786379194739
 10
0.1998134116718419
 20
0.662285571519807
 42
0.0
 10
0.2427231540290045
 20
0.5586922895632215
 42
0.4534141234452501
 10
0.2552051624007166
 20
0.5544626084102032
 42
0.1311123756655107
 10
0.3190825725053752
 20
0.6183400185148615
 42
0.4534141234453791
 10
0.3148528913523556
 20
0.6308220268865758
 42
0.0
 97
        6
330
CDD
330
CE8
330
CE3
330
CE5
330
CE2
330
CE7
 75
     0
 76
     1
 47
0.0008898326864094
 98
        1
 10
0.2856259566759149
 20
0.6281590630341922
  0
ARC
  5
CEB
102
{ACAD_REACTORS
330
CFA
102
}
330
9BC
100
AcDbEntity
  8
0
370
    25
100
AcDbCircle
 10
0.0066144049780483
 20
0.7490162477184578
 30
0.0
 40
0.0087605404650458
100
AcDbArc
 50
67.50000000000089
 51
165.0608431766717
  0
ARC
  5
CEC
102
{ACAD_REACTORS
330
CF9
102
}
330
9BC
100
AcDbEntity
  8
0
370
    25
100
AcDbCircle
 10
0.0233769734507305
 20
0.6227283428571834
 30
0.0
 40
0.0087605404650458
100
AcDbArc
 50
112.5
 51
210.0608431766716
  0
ARC
  5
CED
102
{ACAD_REACTORS
330
CFA
102
}
330
9BC
100
AcDbEntity
  8
0
370
    25
100
AcDbCircle
 10
0.0066144049780448
 20
0.6631967630041462
 30
0.0
 40
0.0087605404650458
100
AcDbArc
 50
194.9391568233283
 51
292.5
  0
ARC
  5
CEE
102
{ACAD_REACTORS
330
CFA
102
}
330
9BC
100
AcDbEntity
  8
0
370
    25
100
AcDbCircle
 10
0.1674386755542763
 20
0.7061065053613027
 30
0.0
 40
0.1752108093009163
100
AcDbArc
 50
165.060843176672
 51
194.939156823328
  0
ARC
  5
CEF
102
{ACAD_REACTORS
330
CF8
102
}
330
9BC
100
AcDbEntity
  8
0
370
    25
100
AcDbCircle
 10
0.1245289331971158
 20
0.5452822347850729
 30
0.0
 40
0.0087605404650458
100
AcDbArc
 50
157.5000000000018
 51
255.0608431766727
  0
ARC
  5
CF0
102
{ACAD_REACTORS
330
CF9
102
}
330
9BC
100
AcDbEntity
  8
0
370
    25
100
AcDbCircle
 10
0.084060513050158
 20
0.5620448032577582
 30
0.0
 40
0.0087605404650458
100
AcDbArc
 50
239.9391568233282
 51
337.499999999999
  0
ARC
  5
CF1
102
{ACAD_REACTORS
330
CF9
102
}
330
9BC
100
AcDbEntity
  8
0
370
    25
100
AcDbCircle
 10
0.1674386755542763
 20
0.7061065053613027
 30
0.0
 40
0.1752108093009163
100
AcDbArc
 50
210.0608431766719
 51
239.939156823328
  0
ARC
  5
CF2
102
{ACAD_REACTORS
330
CF8
102
}
330
9BC
100
AcDbEntity
  8
0
370
    25
100
AcDbCircle
 10
0.1674386755542763
 20
0.7061065053613027
 30
0.0
 40
0.1752108093009163
100
AcDbArc
 50
255.0608431766721
 51
284.9391568233279
  0
LINE
  5
CF3
102
{ACAD_REACTORS
330
CF8
102
}
330
9BC
100
AcDbEntity
  8
0
370
    25
100
AcDbLine
 10
0.1593449915248826
 20
0.6522280304361913
 30
0.0
 11
0.1164352491677256
 21
0.548634748479611
 31
0.0
  0
LINE
  5
CF4
102
{ACAD_REACTORS
330
CF9
102
}
330
9BC
100
AcDbEntity
  8
0
370
    25
100
AcDbLine
 10
0.135063939436705
 20
0.6622855715198019
 30
0.0
 11
0.0921541970795446
 21
0.5586922895632215
 31
0.0
  0
LINE
  5
CF5
102
{ACAD_REACTORS
330
CF9
102
}
330
9BC
100
AcDbEntity
  8
0
370
    25
100
AcDbLine
 10
0.1236177417127777
 20
0.6737317692437305
 30
0.0
 11
0.0200244597561934
 21
0.6308220268865758
 31
0.0
  0
LINE
  5
CF6
102
{ACAD_REACTORS
330
CFA
102
}
330
9BC
100
AcDbEntity
  8
0
370
    25
100
AcDbLine
 10
0.1135602006291627
 20
0.7142001893906964
 30
0.0
 11
0.0099669186725819
 21
0.7571099317478515
 31
0.0
  0
LINE
  5
CF7
102
{ACAD_REACTORS
330
CFA
102
}
330
9BC
100
AcDbEntity
  8
0
370
    25
100
AcDbLine
 10
0.1135602006291627
 20
0.698012821331909
 30
0.0
 11
0.0099669186725819
 21
0.6551030789747525
 31
0.0
  0
HATCH
  5
CF8
330
9BC
100
AcDbEntity
  8
0
370
    25
100
AcDbHatch
 10
0.0
 20
0.0
 30
0.0
210
0.0
220
0.0
230
1.0
  2
SOLID
 70
     1
 71
     1
 91
        1
 92
        7
 72
     1
 73
     1
 93
        6
 10
0.1164352491677256
 20
0.548634748479611
 42
0.4534141234453681
 10
0.122270525704634
 20
0.5368177994915872
 42
0.1311123756655164
 10
0.2126068254039138
 20
0.5368177994915881
 42
0.4534141234453477
 10
0.2184421019408234
 20
0.548634748479611
 42
0.0
 10
0.1755323595836664
 20
0.6522280304361913
 42
0.6681786379192369
 10
0.1593449915248815
 20
0.6522280304361887
 42
0.0
 97
        6
330
CDF
330
CF3
330
CEF
330
CF2
330
CE4
330
CE9
 75
     0
 76
     1
 47
0.0008898326864094
 98
        1
 10
0.1626798550505413
 20
0.6109839077895284
  0
HATCH
  5
CF9
330
9BC
100
AcDbEntity
  8
0
370
    25
100
AcDbHatch
 10
0.0
 20
0.0
 30
0.0
210
0.0
220
0.0
230
1.0
  2
SOLID
 70
     1
 71
     1
 91
        1
 92
        7
 72
     1
 73
     1
 93
        6
 10
0.0200244597561934
 20
0.6308220268865758
 42
0.4534141234453523
 10
0.0157947786031756
 20
0.6183400185148615
 42
0.1311123756655112
 10
0.0796721887078351
 20
0.5544626084102037
 42
0.4534141234451078
 10
0.0921541970795446
 20
0.5586922895632215
 42
0.0
 10
0.135063939436705
 20
0.6622855715198019
 42
0.6681786379190993
 10
0.1236177417127763
 20
0.67373176924373
 42
0.0
 97
        6
330
CF5
330
CEC
330
CF1
330
CF0
330
CF4
330
CDE
 75
     0
 76
     1
 47
0.0008898326864094
 98
        1
 10
0.0800515811903964
 20
0.6391971180666597
  0
HATCH
  5
CFA
330
9BC
100
AcDbEntity
  8
0
370
    25
100
AcDbHatch
 10
0.0
 20
0.0
 30
0.0
210
0.0
220
0.0
230
1.0
  2
SOLID
 70
     1
 71
     1
 91
        1
 92
        7
 72
     1
 73
     1
 93
        6
 10
-0.0018500303154383
 20
0.6609383555116648
 42
0.4534141234452937
 10
0.0099669186725819
 20
0.6551030789747525
 42
0.0
 10
0.1135602006291627
 20
0.698012821331909
 42
0.6681786379194373
 10
0.1135602006291643
 20
0.7142001893906956
 42
0.0
 10
0.0099669186725819
 20
0.7571099317478515
 42
0.453414123445235
 10
-0.0018500303154374
 20
0.7512746552109398
 42
0.131112375665509
 97
        6
330
CEB
330
CEE
330
CED
330
CF7
330
CE0
330
CF6
 75
     0
 76
     1
 47
0.0008898326864094
 98
        1
 10
0.0072163161686944
 20
0.6967798033132863
  0
LINE
  5
CFB
102
{ACAD_REACTORS
330
D00
102
}
330
9BC
100
AcDbEntity
  8
0
370
    25
100
AcDbLine
 10
0.17553235958367
 20
0.7599849802864144
 30
0.0
 11
0.2184421019408198
 21
0.8635782622429928
 31
0.0
  0
LINE
  5
CFC
102
{ACAD_REACTORS
330
D00
102
}
330
9BC
100
AcDbEntity
  8
0
370
    25
100
AcDbLine
 10
0.1593449915248826
 20
0.7599849802864144
 30
0.0
 11
0.1164352491677256
 21
0.8635782622429964
 31
0.0
  0
LINE
  5
CFD
102
{ACAD_REACTORS
330
CFF
102
}
330
9BC
100
AcDbEntity
  8
0
370
    25
100
AcDbLine
 10
0.135063939436705
 20
0.7499274392028021
 30
0.0
 11
0.0921541970795481
 21
0.8535207211593837
 31
0.0
  0
LINE
  5
CFE
102
{ACAD_REACTORS
330
CFF
102
}
330
9BC
100
AcDbEntity
  8
0
370
    25
100
AcDbLine
 10
0.1236177417127742
 20
0.7384812414788735
 30
0.0
 11
0.0200244597561934
 21
0.7813909838360282
 31
0.0
  0
HATCH
  5
CFF
330
9BC
100
AcDbEntity
  8
0
370
    25
100
AcDbHatch
 10
0.0
 20
0.0
 30
0.0
210
0.0
220
0.0
230
1.0
  2
SOLID
 70
     1
 71
     1
 91
        1
 92
        7
 72
     1
 73
     1
 93
        6
 10
0.0921541970795481
 20
0.8535207211593837
 42
0.4534141234452572
 10
0.0796721887078359
 20
0.8577504023124024
 42
0.1311123756655111
 10
0.0157947786031773
 20
0.7938729922077438
 42
0.4534141234453858
 10
0.0200244597561934
 20
0.7813909838360282
 42
0.0
 10
0.1236177417127742
 20
0.7384812414788735
 42
0.6681786379193701
 10
0.1350639394367044
 20
0.7499274392028036
 42
0.0
 97
        6
330
CD3
330
CD6
330
CD5
330
CFE
330
CDC
330
CFD
 75
     0
 76
     1
 47
0.0008898326864094
 98
        1
 10
0.0728870624480607
 20
0.8032958727635815
  0
HATCH
  5
D00
330
9BC
100
AcDbEntity
  8
0
370
    25
100
AcDbHatch
 10
0.0
 20
0.0
 30
0.0
210
0.0
220
0.0
230
1.0
  2
SOLID
 70
     1
 71
     1
 91
        1
 92
        7
 72
     1
 73
     1
 93
        6
 10
0.2184421019408198
 20
0.8635782622429928
 42
0.4534141234453663
 10
0.2126068254039114
 20
0.8753952112310166
 42
0.1311123756655056
 10
0.1222705257046388
 20
0.8753952112310173
 42
0.453414123445332
 10
0.1164352491677256
 20
0.8635782622429964
 42
0.0
 10
0.1593449915248826
 20
0.7599849802864144
 42
0.6681786379195766
 10
0.1755323595836706
 20
0.7599849802864159
 42
0.0
 97
        6
330
CD1
330
CD4
330
CD2
330
CFC
330
CDB
330
CFB
 75
     0
 76
     1
 47
0.0008898326864094
 98
        1
 10
0.1735598706448513
 20
0.8416208314419575
  0
ARC
  5
D01
102
{ACAD_REACTORS
330
D05
102
}
330
9BC
100
AcDbEntity
  8
0
370
    25
100
AcDbCircle
 10
0.1674386755542763
 20
0.7061065053613027
 30
0.0
 40
0.1752108093009163
100
AcDbArc
 50
30.06084317667195
 51
59.93915682332806
  0
LINE
  5
D02
102
{ACAD_REACTORS
330
D05
102
}
330
9BC
100
AcDbEntity
  8
0
370
    25
100
AcDbLine
 10
0.2112596093957748
 20
0.7384812414788735
 30
0.0
 11
0.3148528913523592
 21
0.7813909838360282
 31
0.0
  0
ARC
  5
D03
102
{ACAD_REACTORS
330
D06
102
}
330
9BC
100
AcDbEntity
  8
0
370
    25
100
AcDbCircle
 10
0.1674386755542763
 20
0.7061065053613027
 30
0.0
 40
0.1752108093009163
100
AcDbArc
 50
345.0608431766719
 51
14.93915682332806
  0
LINE
  5
D04
102
{ACAD_REACTORS
330
D06
102
}
330
9BC
100
AcDbEntity
  8
0
370
    25
100
AcDbLine
 10
0.2213171504793863
 20
0.714200189390695
 30
0.0
 11
0.3249104324359706
 21
0.7571099317478515
 31
0.0
  0
HATCH
  5
D05
330
9BC
100
AcDbEntity
  8
0
370
    25
100
AcDbHatch
 10
0.0
 20
0.0
 30
0.0
210
0.0
220
0.0
230
1.0
  2
SOLID
 70
     1
 71
     1
 91
        1
 92
        7
 72
     1
 73
     1
 93
        6
 10
0.2552051624007172
 20
0.8577504023124017
 42
0.4534141234454452
 10
0.2427231540290009
 20
0.8535207211593837
 42
0.0
 10
0.1998134116718475
 20
0.7499274392028052
 42
0.6681786379193883
 10
0.2112596093957775
 20
0.7384812414788745
 42
0.0
 10
0.3148528913523592
 20
0.7813909838360282
 42
0.4534141234454195
 10
0.319082572505377
 20
0.7938729922077439
 42
0.1311123756655116
 97
        6
330
CD7
330
CD8
330
CDA
330
D02
330
CCF
330
D01
 75
     0
 76
     1
 47
0.0008898326864094
 98
        1
 10
0.279952187860701
 20
0.8131257841526865
  0
HATCH
  5
D06
330
9BC
100
AcDbEntity
  8
0
370
    25
100
AcDbHatch
 10
0.0
 20
0.0
 30
0.0
210
0.0
220
0.0
230
1.0
  2
SOLID
 70
     1
 71
     1
 91
        1
 92
        7
 72
     1
 73
     1
 93
        6
 10
0.3367273814239907
 20
0.7512746552109406
 42
0.4534141234452553
 10
0.3249104324359706
 20
0.7571099317478515
 42
0.0
 10
0.2213171504793863
 20
0.714200189390695
 42
0.6681786379193465
 10
0.2213171504793864
 20
0.6980128213319091
 42
0.0
 10
0.3249104324359635
 20
0.6551030789747538
 42
0.4534141234455391
 10
0.3367273814239899
 20
0.6609383555116643
 42
0.1311123756655109
 97
        6
330
CD0
330
D04
330
CD9
330
CE6
330
CE1
330
D03
 75
     0
 76
     1
 47
0.0008898326864094
 98
        1
 10
0.3282289821327353
 20
0.7251201696667499
  0
LWPOLYLINE
  5
D07
330
9BC
100
AcDbEntity
  8
0
370
    20
100
AcDbPolyline
 90
       15
 70
     1
 43
0.0
 10
0.4410816041652553
 20
0.544781283679214
 10
0.4907843190205839
 20
0.544781283679214
 10
0.4907843190205839
 20
0.6685490737544201
 10
0.5518040723566032
 20
0.6685490737544201
 10
0.5841282409213378
 20
0.6772918062510912
 10
0.6026938262444546
 20
0.6901425055690852
 10
0.6236396116105781
 20
0.7120363368918988
 10
0.6360166684926583
 20
0.7372618073510681
 10
0.6369687401806417
 20
0.7681987352040239
 10
0.6298281400516217
 20
0.801039446713567
 10
0.6160229548145182
 20
0.8257889889959317
 10
0.5936490410933644
 20
0.8472068566672563
 10
0.5665147272861973
 20
0.8576778086771811
 10
0.5416452538013062
 20
0.8604584552343725
 10
0.4410816041652553
 20
0.8604584552343725
  0
LWPOLYLINE
  5
D08
330
9BC
100
AcDbEntity
  8
0
370
    20
100
AcDbPolyline
 90
       11
 70
     1
 43
0.0
 10
0.4903481593255492
 20
0.8108859381021106
 10
0.4903481593255492
 20
0.7154812466505477
 10
0.543160547461568
 20
0.7154812466505477
 10
0.5641654703018589
 20
0.7232816300052322
 10
0.576768415676817
 20
0.7346821957505015
 10
0.5845702310715737
 20
0.7478828526910563
 10
0.5845702310715737
 20
0.7748841851457017
 10
0.5761682536062338
 20
0.7916849890021568
 10
0.5599644607461372
 20
0.8042856273691684
 10
0.5455611124516651
 20
0.8108859381021106
 10
0.4903481593255492
 20
0.8108859381021106
  0
LWPOLYLINE
  5
D09
330
9BC
100
AcDbEntity
  8
0
370
    20
100
AcDbPolyline
 90
       12
 70
     1
 43
0.0
 10
0.8300649205842063
 20
0.544781283679214
 10
0.8300649205842063
 20
0.5911204265118501
 10
0.7160846022578867
 20
0.5911204265118501
 10
0.7160846022578867
 20
0.678067069695942
 10
0.8248335030102893
 20
0.678067069695942
 10
0.8248335030102893
 20
0.7261832097134972
 10
0.7160846022578867
 20
0.7261832097134972
 10
0.7160846022578867
 20
0.8139740081521653
 10
0.8300649205842063
 20
0.8139740081521653
 10
0.8300649205842063
 20
0.8604584552343725
 10
0.6671152753744423
 20
0.8604584552343725
 10
0.6671152753744423
 20
0.544781283679214
  0
LWPOLYLINE
  5
D0A
330
9BC
100
AcDbEntity
  8
0
370
    20
100
AcDbPolyline
 90
       14
 70
     1
 43
0.0
 10
0.9122478519730705
 20
0.544781283679214
 10
0.9122478519730705
 20
0.8123638128670195
 10
1.004551412435681
 20
0.544781283679214
 10
1.046507576282316
 20
0.544781283679214
 10
1.141328519069553
 20
0.8149255214085171
 10
1.141328519069553
 20
0.544781283679214
 10
1.189158533360888
 20
0.544781283679214
 10
1.189158533360888
 20
0.8604584552343725
 10
1.11783303399855
 20
0.8604584552343725
 10
1.026858312538404
 20
0.5962534142928454
 10
0.9357073131601723
 20
0.8604584552343725
 10
0.8627395827986532
 20
0.8604584552343725
 10
0.8627395827986532
 20
0.544781283679214
 10
0.9122478519730705
 20
0.544781283679214
  0
LWPOLYLINE
  5
D0B
330
9BC
100
AcDbEntity
  8
0
370
    20
100
AcDbPolyline
 90
       12
 70
     1
 43
0.0
 10
1.276080250505422
 20
0.544781283679214
 10
1.276080250505422
 20
0.6999642121828952
 10
1.385458007497206
 20
0.544781283679214
 10
1.444630297811023
 20
0.544781283679214
 10
1.324984291149938
 20
0.7045664362402752
 10
1.445287764926987
 20
0.8604584552343725
 10
1.386772941729141
 20
0.8604584552343725
 10
1.276080250505422
 20
0.7081046680828908
 10
1.276080250505422
 20
0.8604584552343725
 10
1.226769966931136
 20
0.8604584552343725
 10
1.226769966931136
 20
0.544781283679214
 10
1.276080250505422
 20
0.544781283679214
  0
LWPOLYLINE
  5
D0C
330
9BC
100
AcDbEntity
  8
0
370
    20
100
AcDbPolyline
 90
       26
 70
     1
 43
0.0
 10
1.535031838849199
 20
0.8604584552343725
 10
1.607364257824507
 20
0.8604584552343725
 10
1.646917024745668
 20
0.8491345857263043
 10
1.686539548898679
 20
0.8195152580778215
 10
1.71102891835067
 20
0.7914297132746385
 10
1.72903582112734
 20
0.7547024323611497
 10
1.737679137791836
 20
0.7230161730473414
 10
1.737679137791836
 20
0.6762069198838249
 10
1.723273623899714
 20
0.6308379738093565
 10
1.693742285021684
 20
0.5890697067708574
 10
1.655567671125268
 20
0.5609841619676744
 10
1.613791709990401
 20
0.5408201819929489
 10
1.597524864921936
 20
0.5376095824316637
 10
1.554204582789139
 20
0.5376095824316637
 10
1.531124142836127
 20
0.5422248015636769
 10
1.484608146562337
 20
0.5660110291739075
 10
1.448034492371505
 20
0.5986727000224265
 10
1.429570148738321
 20
0.6281392027912319
 10
1.415366785057194
 20
0.6622209601667281
 10
1.41146083818068
 20
0.6771317090640069
 10
1.41146083818068
 20
0.7293193834164812
 10
1.421705406073513
 20
0.7612387822635328
 10
1.439140257902892
 20
0.7941211410360155
 10
1.466084998623855
 20
0.8230417595781675
 10
1.493029739344812
 20
0.844435078777643
 10
1.535031838849199
 20
0.8604584552343725
  0
LWPOLYLINE
  5
D0D
330
9BC
100
AcDbEntity
  8
0
370
    20
100
AcDbPolyline
 90
       25
 70
     1
 43
0.0
 10
1.543323909780262
 20
0.8154584552343726
 10
1.601049410808929
 20
0.8154584552343726
 10
1.626589944841031
 20
0.8081462569468957
 10
1.655765700184065
 20
0.7863362820558423
 10
1.673226506574341
 20
0.7663114193849131
 10
1.686747724687851
 20
0.7387332410548312
 10
1.692679137791836
 20
0.716988776400167
 10
1.692679137791836
 20
0.6831795792627759
 10
1.682497560396084
 20
0.6511135634801981
 10
1.661205352088526
 20
0.6209984831547661
 10
1.632255520422937
 20
0.5996997269579198
 10
1.599422526639932
 20
0.5838522440714459
 10
1.593126448919555
 20
0.5826095824316636
 10
1.558659638480142
 20
0.5826095824316636
 10
1.546061143837986
 20
0.5851288070922599
 10
1.510257893073882
 20
0.603437009432989
 10
1.482774053933662
 20
0.6279811280755429
 10
1.46967691812571
 20
0.6488823199194204
 10
1.458106152380009
 20
0.6766470128222499
 10
1.45646083818068
 20
0.6829279141398864
 10
1.45646083818068
 20
0.7222749480360237
 10
1.463332667985232
 20
0.7436857755726366
 10
1.476114527517097
 20
0.7677925299643213
 10
1.496709322427104
 20
0.7898975564596321
 10
1.515565752853692
 20
0.8048689989112917
  0
ENDBLK
  5
D0E
330
9BC
100
AcDbEntity
  8
0
100
AcDbBlockEnd
  0
BLOCK
  5
D11
330
D0F
100
AcDbEntity
  8
0
100
AcDbBlockBegin
  2
ASSA LOGO
 70
     0
 10
0.0
 20
0.0
 30
0.0
  3
ASSA LOGO
  1

  0
INSERT
  5
D10
330
D0F
100
AcDbEntity
  8
R-ANNO-TEXT
  6
Continuous
100
AcDbBlockReference
  2
PEMKO_ASSA LOGO
 10
0.0504323823128816
 20
-0.0030963513975459
 30
0.0
 41
0.625
 42
0.625
 43
0.625
  0
ENDBLK
  5
D12
330
D0F
100
AcDbEntity
  8
0
100
AcDbBlockEnd
  0
ENDSEC
  0
SECTION
  2
ENTITIES
  0
LEADER
  5
10A
330
A
100
AcDbEntity
  8
R-ANNO-TEXT
  6
Continuous
100
AcDbLeader
  3
SCADMECH
 73
     0
 74
     0
 75
     1
 40
0.4226190476190477
 41
2.809523809523809
 76
     3
 10
0.246898000000001
 20
-0.5750000000000003
 30
0.0
 10
0.4754513905932744
 20
-0.9285533905932741
 30
0.0
 10
0.6004513905932744
 20
-0.9285533905932741
 30
0.0
340
10B
213
0.0
223
-0.0375
233
0.0
1001
ACAD
1000
DSTYLE
1002
{
1070
   147
1040
0.09
1070
    77
1070
     0
1002
}
  0
MTEXT
  5
10B
102
{ACAD_REACTORS
330
10A
102
}
330
A
100
AcDbEntity
  8
R-ANNO-TEXT
  6
Continuous
100
AcDbMText
 10
0.6904513905932744
 20
-0.8910533905932741
 30
0.0
 40
0.125
 41
0.0
 71
     4
 72
     1
  1
No. 4 x 1/2" FHSMS, Phillips\P(Factory Provided)
  7
SWTSTEXT
 73
     1
 44
1.0
1001
ACAD
1000
MTEXTBEGIN
1070
    73
1070
     1
1070
    44
1040
1.0
1070
    74
1070
     0
1000
MTEXTEND
  0
MTEXT
  5
10C
330
A
100
AcDbEntity
  8
R-ANNO-TEXT
  6
Continuous
100
AcDbMText
 10
1.456787398080744
 20
-1.414888790593273
 30
0.0
 40
0.125
 41
2.110199999999999
 71
     5
 72
     5
  1
369_P
  7
SWTSTEXT
 73
     1
 44
1.0
1001
ACAD
1000
MTEXTBEGIN
1070
    73
1070
     1
1070
    44
1040
1.0
1070
    74
1070
     0
1000
MTEXTEND
  0
INSERT
  5
5B9
330
A
100
AcDbEntity
  8
R-SWTS-DET2
100
AcDbBlockReference
  2
4x05FlatheadSMS - Phillips
 10
0.2468980000000009
 20
-0.0750000000000002
 30
0.0
 50
90.0
  0
DIMENSION
  5
5F8
330
A
100
AcDbEntity
  8
R-ANNO-DIMS
  6
Continuous
100
AcDbDimension
  2
*D2
 10
0.4468980000000022
 20
0.4774999999999991
 30
0.0
 11
0.246898000000002
 21
0.4774999999999991
 31
0.0
 70
    32
 71
     5
 42
0.4000000000000004
  3
SCADMECH
100
AcDbAlignedDimension
 13
0.0468980000000018
 23
0.0149999999999997
 33
0.0
 14
0.4468980000000022
 24
0.0149999999999997
 34
0.0
100
AcDbRotatedDimension
1001
ACAD
1000
DSTYLE
1002
{
1070
   174
1070
     1
1070
   271
1070
     5
1002
}
  0
DIMENSION
  5
624
330
A
100
AcDbEntity
  8
R-ANNO-DIMS
  6
Continuous
100
AcDbDimension
  2
*D3
 10
0.7208195534366782
 20
0.0149999999999996
 30
0.0
 11
1.022129077246201
 21
0.477499999999999
 31
0.0
 70
   160
 71
     5
 42
0.1995966805316211
  3
SCADMECH
100
AcDbAlignedDimension
 13
0.250324399037867
 23
0.2145966805316208
 33
0.0
 14
0.4468980000000022
 24
0.0149999999999997
 34
0.0
 50
90.0
100
AcDbRotatedDimension
1001
ACAD
1000
DSTYLE
1002
{
1070
   174
1070
     1
1002
}
  0
DIMENSION
  5
648
330
A
100
AcDbEntity
  8
R-ANNO-DIMS
  6
Continuous
100
AcDbDimension
  2
*D4
 10
-0.203100694286687
 20
-0.1319999999999996
 30
0.0
 11
-0.5192911704771632
 21
-0.3819999999999996
 31
0.0
 70
    32
 71
     5
 42
0.1469999999999993
  3
SCADMECH
100
AcDbAlignedDimension
 13
0.0468980000000018
 23
0.0149999999999997
 33
0.0
 14
0.0468980000000043
 24
-0.1319999999999997
 34
0.0
 50
90.0
100
AcDbRotatedDimension
1001
ACAD
1000
DSTYLE
1002
{
1070
   174
1070
     0
1070
   271
1070
     5
1002
}
  0
INSERT
  5
8D5
330
A
100
AcDbEntity
  8
0
  6
Continuous
100
AcDbBlockReference
  2
P2
 10
0.1263979900133463
 20
-0.0528356163833246
 30
0.0
 41
-1.0
 50
90.0
  0
LWPOLYLINE
  5
9BB
330
A
100
AcDbEntity
  8
R-SWTS-DET1
100
AcDbPolyline
 90
       20
 70
   129
 43
0.0
 10
0.4468979900133469
 20
0.005000003783346
 42
0.4142135623730948
 10
0.4368979900133471
 20
0.0150000037833458
 10
0.362397990013347
 20
0.0150000037833458
 42
0.4142135623730951
 10
0.3523979900133472
 20
0.005000003783346
 10
0.3523979900133472
 20
-0.0249999962166543
 10
0.3923979900133473
 20
-0.0249999962166543
 10
0.3923979900133473
 20
-0.0749999962166541
 10
0.3481077263331517
 20
-0.0749999962166541
 42
0.1263866119002132
 10
0.3432882150798277
 20
-0.0762380152032597
 42
-0.2568764593612663
 10
0.1505077649468661
 20
-0.0762380152032596
 42
0.1263866119002133
 10
0.1456882536935425
 20
-0.0749999962166541
 10
0.1013979900133469
 20
-0.0749999962166541
 10
0.1013979900133469
 20
-0.0249999962166543
 10
0.1413979900133479
 20
-0.0249999962166516
 10
0.141397990013347
 20
0.0050000037833464
 42
0.4142135623730931
 10
0.1313979900133472
 20
0.0150000037833462
 10
0.0568979900133472
 20
0.0150000037833458
 42
0.4142135623730979
 10
0.0468979900133474
 20
0.005000003783346
 10
0.0468979900133492
 20
-0.1319999962166536
 10
0.4468979900133478
 20
-0.1319999962166536
  0
INSERT
  5
D13
330
A
100
AcDbEntity
  8
R-ANNO-DIMS
  6
Continuous
100
AcDbBlockReference
  2
ASSA LOGO
 10
-0.8936282178277561
 20
-1.602647906881366
 30
0.0
  0
VIEWPORT
  5
302
102
{ACAD_XDICTIONARY
360
D5C
102
}
330
B
100
AcDbEntity
 67
     1
  8
0
  6
Continuous
100
AcDbViewport
 10
5.375000360443835
 20
4.124999881729366
 30
0.0
 40
15.13055796641811
 41
8.992999745766947
 68
     1
 69
     1
 12
5.375000360443835
 22
4.124999881729366
 13
0.0
 23
0.0
 14
0.5
 24
0.5
 15
0.5
 25
0.5
 16
0.0
 26
0.0
 36
1.0
 17
0.0
 27
0.0
 37
0.0
 42
50.0
 43
0.0
 44
0.0
 45
8.992999745766947
 50
0.0
 51
0.0
 72
   100
 90
    32800
  1

281
     0
 71
     1
 74
     0
110
0.0
120
0.0
130
0.0
111
1.0
121
0.0
131
0.0
112
0.0
122
1.0
132
0.0
 79
     0
146
0.0
  0
VIEWPORT
  5
304
102
{ACAD_XDICTIONARY
360
D5E
102
}
330
B
100
AcDbEntity
 67
     1
  8
R-ANNO-DIMS
  6
Continuous
100
AcDbViewport
 10
5.375000121086601
 20
4.124999820716737
 30
0.0
 40
8.60000019373856
 41
6.599999713146781
 68
     2
 69
     2
 12
1.073720364628377
 22
-0.4455805483207389
 13
0.0
 23
0.0
 14
1.0
 24
1.0
 15
0.0
 25
0.0
 16
0.0
 26
0.0
 36
1.0
 17
0.0
 27
0.0
 37
0.0
 42
50.0
 43
0.0
 44
0.0
 45
6.599999713146781
 50
0.0
 51
0.0
 72
   100
 90
    32800
  1

281
     0
 71
     1
 74
     0
110
0.0
120
0.0
130
0.0
111
1.0
121
0.0
131
0.0
112
0.0
122
1.0
132
0.0
 79
     0
146
0.0
  0
ENDSEC
  0
SECTION
  2
OBJECTS
  0
DICTIONARY
  5
19
330
0
100
AcDbDictionary
281
     1
  3
ACAD_COLOR
350
7FE
  3
ACAD_GROUP
350
1A
  3
ACAD_LAYOUT
350
C6
  3
ACAD_MATERIAL
350
7FD
  3
ACAD_MLINESTYLE
350
1B
  3
ACAD_PLOTSETTINGS
350
C7
  3
ACAD_PLOTSTYLENAME
350
C4
  3
ACAD_TABLESTYLE
350
7FF
  3
ACAD_VISUALSTYLE
350
80A
  3
AcDbVariableDictionary
350
D0
  3
AcStStandard
350
676
  3
AEC_CLASSIFICATION_SYSTEM_DEFS
350
82D
  3
ASE_INDEX_DICTIONARY
350
8E1
  3
DWGPROPS
350
D57
  0
DICTIONARY
  5
866
330
7
100
AcDbDictionary
280
     1
281
     1
  0
DICTIONARY
  5
825
330
2
100
AcDbDictionary
280
     1
281
     1
  3
ACAD_LAYERSTATES
360
826
  0
DICTIONARY
  5
8FF
330
A
100
AcDbDictionary
280
     1
281
     1
  3
ACAD_SORTENTS
360
900
  0
DICTIONARY
  5
898
330
897
100
AcDbDictionary
280
     1
281
     1
  3
ACAD_SORTENTS
360
899
  0
DICTIONARY
  5
9BD
330
9BC
100
AcDbDictionary
280
     1
281
     1
  3
ACAD_SORTENTS
360
9BE
  0
DICTIONARY
  5
D5C
330
302
100
AcDbDictionary
280
     1
281
     1
  3
ACAD_XREC_ROUNDTRIP
360
D5D
  0
DICTIONARY
  5
D5E
330
304
100
AcDbDictionary
280
     1
281
     1
  3
ACAD_XREC_ROUNDTRIP
360
D5F
  0
DICTIONARY
  5
7FE
102
{ACAD_REACTORS
330
19
102
}
330
19
100
AcDbDictionary
281
     1
  0
DICTIONARY
  5
1A
102
{ACAD_REACTORS
330
19
102
}
330
19
100
AcDbDictionary
281
     1
  0
DICTIONARY
  5
C6
102
{ACAD_REACTORS
330
19
102
}
330
19
100
AcDbDictionary
281
     1
  3
Layout1
350
C9
  3
Model
350
C8
  0
DICTIONARY
  5
7FD
102
{ACAD_REACTORS
330
19
102
}
330
19
100
AcDbDictionary
281
     1
  3
ByBlock
350
808
  3
ByLayer
350
807
  3
Global
350
809
  0
DICTIONARY
  5
1B
102
{ACAD_REACTORS
330
19
102
}
330
19
100
AcDbDictionary
281
     1
  3
STANDARD
350
1C
  0
DICTIONARY
  5
C7
102
{ACAD_REACTORS
330
19
102
}
330
19
100
AcDbDictionary
281
     1
  0
ACDBDICTIONARYWDFLT
  5
C4
102
{ACAD_REACTORS
330
19
102
}
330
19
100
AcDbDictionary
281
     1
  3
Normal
350
C5
100
AcDbDictionaryWithDefault
340
C5
  0
DICTIONARY
  5
7FF
102
{ACAD_REACTORS
330
19
102
}
330
19
100
AcDbDictionary
281
     1
  3
Standard
350
800
  0
DICTIONARY
  5
80A
102
{ACAD_REACTORS
330
19
102
}
330
19
100
AcDbDictionary
281
     1
  3
2dWireframe
350
810
  3
3D Hidden
350
812
  3
3dWireframe
350
811
  3
Basic
350
80F
  3
Brighten
350
816
  3
ColorChange
350
81A
  3
Conceptual
350
813
  3
Dim
350
815
  3
Facepattern
350
819
  3
Flat
350
80B
  3
FlatWithEdges
350
80C
  3
Gouraud
350
80D
  3
GouraudWithEdges
350
80E
  3
Linepattern
350
818
  3
Realistic
350
814
  3
Thicken
350
817
  0
DICTIONARY
  5
D0
102
{ACAD_REACTORS
330
19
102
}
330
19
100
AcDbDictionary
281
     1
  3
CTABLESTYLE
350
804
  3
DIMASSOC
350
D1
  3
INDEXCTL
350
891
  3
SORTENTS
350
890
  0
DICTIONARY
  5
676
102
{ACAD_REACTORS
330
19
102
}
330
19
100
AcDbDictionary
281
     1
  3
0
350
72C
  0
DICTIONARY
  5
82D
102
{ACAD_REACTORS
330
19
102
}
330
19
100
AcDbDictionary
281
     1
  0
DICTIONARY
  5
8E1
102
{ACAD_REACTORS
330
19
102
}
330
19
100
AcDbDictionary
281
     1
  3
ASEBlockHierarchyIndexRecord
350
8E2
1001
DCO15
1040
1622266042.824
  0
XRECORD
  5
D57
102
{ACAD_REACTORS
330
19
102
}
330
19
100
AcDbXrecord
280
     1
  1
DWGPROPS COOKIE
  2

  3

  4

  6

  7

  8
jasonh
  9

300
=
301
=
302
=
303
=
304
=
305
=
306
=
307
=
308
=
309
=
 40
0.103412962962963
 41
2452213.361540382
 42
2454579.439199352
  1

 90
        0
  0
DICTIONARY
  5
826
102
{ACAD_REACTORS
330
825
102
}
330
825
100
AcDbDictionary
281
     1
  0
SORTENTSTABLE
  5
900
102
{ACAD_REACTORS
330
8FF
102
}
330
8FF
100
AcDbSortentsTable
330
A
331
10A
  5
10A
331
624
  5
624
331
10B
  5
10B
331
5B9
  5
5B9
331
8D5
  5
8FE
331
5F8
  5
5F8
331
648
  5
648
331
10C
  5
10C
  0
SORTENTSTABLE
  5
899
102
{ACAD_REACTORS
330
898
102
}
330
898
100
AcDbSortentsTable
330
897
  0
SORTENTSTABLE
  5
9BE
102
{ACAD_REACTORS
330
9BD
102
}
330
9BD
100
AcDbSortentsTable
330
9BC
  0
XRECORD
  5
D5D
102
{ACAD_REACTORS
330
D5C
102
}
330
D5C
100
AcDbXrecord
280
     1
102
SHADEPLOT
 70
     0
  0
XRECORD
  5
D5F
102
{ACAD_REACTORS
330
D5E
102
}
330
D5E
100
AcDbXrecord
280
     1
102
SHADEPLOT
 70
     0
  0
LAYOUT
  5
C9
102
{ACAD_XDICTIONARY
360
D5A
102
}
102
{ACAD_REACTORS
330
C6
102
}
330
C6
100
AcDbPlotSettings
  1

  2
HP LaserJet 8150 PS
  4
Letter
  6

 40
3.174999952316284
 41
3.174999952316284
 42
3.175003051757812
 43
3.17498779296875
 44
215.8999938964844
 45
279.3999938964844
 46
0.0
 47
0.0
 48
0.0
 49
0.0
140
0.0
141
0.0
142
1.0
143
1.0
 70
   688
 72
     0
 73
     1
 74
     5
  7
monochrome.ctb
 75
    16
147
1.0
148
0.0
149
0.0
100
AcDbLayout
  1
Layout1
 70
     0
 71
     1
 10
-0.1249995194082185
 20
-0.1249999981226883
 11
10.87500024029589
 21
8.37499976158142
 12
0.0
 22
0.0
 32
0.0
 14
1.07500002421732
 24
0.8249999641433474
 34
0.0
 15
9.675000217955881
 25
7.424999677290128
 35
0.0
146
0.0
 13
0.0
 23
0.0
 33
0.0
 16
1.0
 26
0.0
 36
0.0
 17
0.0
 27
1.0
 37
0.0
 76
     0
330
B
331
302
  0
LAYOUT
  5
C8
102
{ACAD_XDICTIONARY
360
D58
102
}
102
{ACAD_REACTORS
330
C6
102
}
330
C6
100
AcDbPlotSettings
  1

  2
Adobe PDF
  4
Letter
  6

 40
3.174999952316284
 41
3.174999952316284
 42
3.175003051757812
 43
3.17498779296875
 44
215.8999938964844
 45
279.3999938964844
 46
22.5037869960535
 47
9.970525026927623
 48
-1.227959734732218
 49
-2.012169471292635
140
3.754500030963532
141
1.226854483437744
142
2.0
143
1.0
 70
 11940
 72
     0
 73
     1
 74
     4
  7
monochrome.ctb
 75
     0
147
2.157568901245723
148
31.19017726219835
149
51.10910457083293
100
AcDbLayout
  1
Model
 70
     1
 71
     0
 10
0.0
 20
0.0
 11
12.0
 21
9.0
 12
0.0
 22
0.0
 32
0.0
 14
0.0
 24
0.0
 34
0.0
 15
0.0
 25
0.0
 35
0.0
146
0.0
 13
0.0
 23
0.0
 33
0.0
 16
1.0
 26
0.0
 36
0.0
 17
0.0
 27
1.0
 37
0.0
 76
     0
330
A
331
805
1001
ACAD_PSEXT
1000
Adobe PDF
1000
Adobe PDF Converter
1000
My Documents\*.pdf
1000
Creates Adobe PDF
1070
     0
  0
MATERIAL
  5
808
102
{ACAD_XDICTIONARY
360
D64
102
}
102
{ACAD_REACTORS
330
7FD
102
}
330
7FD
100
AcDbMaterial
  1
ByBlock
  0
MATERIAL
  5
807
102
{ACAD_XDICTIONARY
360
D62
102
}
102
{ACAD_REACTORS
330
7FD
102
}
330
7FD
100
AcDbMaterial
  1
ByLayer
  0
MATERIAL
  5
809
102
{ACAD_XDICTIONARY
360
D66
102
}
102
{ACAD_REACTORS
330
7FD
102
}
330
7FD
100
AcDbMaterial
  1
Global
  0
MLINESTYLE
  5
1C
102
{ACAD_REACTORS
330
1B
102
}
330
1B
100
AcDbMlineStyle
  2
STANDARD
 70
     0
  3

 62
     0
 51
90.0
 52
90.0
 71
     2
 49
0.5
 62
   256
  6
BYLAYER
 49
-0.5
 62
   256
  6
BYLAYER
  0
ACDBPLACEHOLDER
  5
C5
102
{ACAD_REACTORS
330
C4
102
}
330
C4
  0
TABLESTYLE
  5
800
102
{ACAD_XDICTIONARY
360
D60
102
}
102
{ACAD_REACTORS
330
7FF
102
}
330
7FF
100
AcDbTableStyle
  3
Standard
 70
     0
 71
     0
 40
0.06
 41
0.06
280
     0
281
     0
  7
STANDARD
140
0.18
170
     2
 62
     0
 63
     7
283
     0
274
    -2
284
     1
 64
     0
275
    -2
285
     1
 65
     0
276
    -2
286
     1
 66
     0
277
    -2
287
     1
 67
     0
278
    -2
288
     1
 68
     0
279
    -2
289
     1
 69
     0
  7
STANDARD
140
0.25
170
     5
 62
     0
 63
     7
283
     0
274
    -2
284
     1
 64
     0
275
    -2
285
     1
 65
     0
276
    -2
286
     1
 66
     0
277
    -2
287
     1
 67
     0
278
    -2
288
     1
 68
     0
279
    -2
289
     1
 69
     0
  7
STANDARD
140
0.18
170
     5
 62
     0
 63
     7
283
     0
274
    -2
284
     1
 64
     0
275
    -2
285
     1
 65
     0
276
    -2
286
     1
 66
     0
277
    -2
287
     1
 67
     0
278
    -2
288
     1
 68
     0
279
    -2
289
     1
 69
     0
  0
VISUALSTYLE
  5
810
102
{ACAD_REACTORS
330
80A
102
}
330
80A
100
AcDbVisualStyle
  2
2dWireframe
 70
     4
 71
     0
 72
     2
 73
     0
 90
        0
 40
-0.6
 41
-30.0
 62
     5
 63
     7
 74
     1
 91
        4
 64
     7
 65
   257
 75
     1
175
     1
 42
1.0
 92
        0
 66
   257
 43
1.0
 76
     1
 77
     6
 78
     2
 67
     7
 79
     5
170
     0
171
     0
290
     0
174
     0
 93
        1
 44
0.0
173
     0
291
     0
 45
0.0
1001
ACAD
1000
AcDbSavedByObjectVersion
1070
     0
  0
VISUALSTYLE
  5
812
102
{ACAD_REACTORS
330
80A
102
}
330
80A
100
AcDbVisualStyle
  2
3D Hidden
 70
     6
 71
     1
 72
     2
 73
     2
 90
        0
 40
-0.6
 41
-30.0
 62
     5
 63
     7
 74
     2
 91
        2
 64
     7
 65
   257
 75
     2
175
     1
 42
40.0
 92
        0
 66
   257
 43
1.0
 76
     1
 77
     6
 78
     2
 67
     7
 79
     3
170
     0
171
     0
290
     0
174
     0
 93
        1
 44
0.0
173
     0
291
     0
 45
0.0
1001
ACAD
1000
AcDbSavedByObjectVersion
1070
     0
  0
VISUALSTYLE
  5
811
102
{ACAD_REACTORS
330
80A
102
}
330
80A
100
AcDbVisualStyle
  2
3dWireframe
 70
     5
 71
     0
 72
     2
 73
     0
 90
        0
 40
-0.6
 41
-30.0
 62
     5
 63
     7
 74
     1
 91
        4
 64
     7
 65
   257
 75
     1
175
     1
 42
1.0
 92
        0
 66
   257
 43
1.0
 76
     1
 77
     6
 78
     2
 67
     7
 79
     5
170
     0
171
     0
290
     0
174
     0
 93
        1
 44
0.0
173
     0
291
     0
 45
0.0
1001
ACAD
1000
AcDbSavedByObjectVersion
1070
     0
  0
VISUALSTYLE
  5
80F
102
{ACAD_REACTORS
330
80A
102
}
330
80A
100
AcDbVisualStyle
  2
Basic
 70
     7
 71
     1
 72
     0
 73
     1
 90
        0
 40
-0.6
 41
-30.0
 62
     5
 63
     7
 74
     0
 91
        4
 64
     7
 65
   257
 75
     1
175
     1
 42
1.0
 92
        8
 66
     7
 43
1.0
 76
     1
 77
     6
 78
     2
 67
     7
 79
     5
170
     0
171
     0
290
     0
174
     0
 93
        1
 44
0.0
173
     0
291
     1
 45
0.0
1001
ACAD
1000
AcDbSavedByObjectVersion
1070
     0
  0
VISUALSTYLE
  5
816
102
{ACAD_REACTORS
330
80A
102
}
330
80A
100
AcDbVisualStyle
  2
Brighten
 70
    12
 71
     2
 72
     2
 73
     0
 90
        0
 40
-0.6
 41
-30.0
 62
     5
 63
     7
 74
     1
 91
        4
 64
     7
 65
   257
 75
     1
175
     1
 42
1.0
 92
        8
 66
     7
 43
1.0
 76
     1
 77
     6
 78
     2
 67
     7
 79
     5
170
     0
171
     0
290
     0
174
     0
 93
        1
 44
50.0
173
     0
291
     1
 45
0.0
1001
ACAD
1000
AcDbSavedByObjectVersion
1070
     0
  0
VISUALSTYLE
  5
81A
102
{ACAD_REACTORS
330
80A
102
}
330
80A
100
AcDbVisualStyle
  2
ColorChange
 70
    16
 71
     2
 72
     2
 73
     3
 90
        0
 40
-0.6
 41
-30.0
 62
     5
 63
     8
 74
     1
 91
        4
 64
     7
 65
   257
 75
     1
175
     1
 42
1.0
 92
        8
 66
     8
 43
1.0
 76
     1
 77
     6
 78
     2
 67
     7
 79
     5
170
     0
171
     0
290
     0
174
     0
 93
        1
 44
0.0
173
     0
291
     1
 45
0.0
1001
ACAD
1000
AcDbSavedByObjectVersion
1070
     0
  0
VISUALSTYLE
  5
813
102
{ACAD_REACTORS
330
80A
102
}
330
80A
100
AcDbVisualStyle
  2
Conceptual
 70
     9
 71
     3
 72
     2
 73
     0
 90
        0
 40
-0.6
 41
-30.0
 62
     5
 63
     7
 74
     2
 91
        2
 64
     7
 65
   257
 75
     1
175
     1
 42
40.0
 92
        8
 66
     7
 43
1.0
 76
     1
 77
     6
 78
     2
 67
     7
 79
     3
170
     0
171
     0
290
     0
174
     0
 93
        1
 44
0.0
173
     0
291
     0
 45
0.0
1001
ACAD
1000
AcDbSavedByObjectVersion
1070
     0
  0
VISUALSTYLE
  5
815
102
{ACAD_REACTORS
330
80A
102
}
330
80A
100
AcDbVisualStyle
  2
Dim
 70
    11
 71
     2
 72
     2
 73
     0
 90
        0
 40
-0.6
 41
-30.0
 62
     5
 63
     7
 74
     1
 91
        4
 64
     7
 65
   257
 75
     1
175
     1
 42
1.0
 92
        8
 66
     7
 43
1.0
 76
     1
 77
     6
 78
     2
 67
     7
 79
     5
170
     0
171
     0
290
     0
174
     0
 93
        1
 44
-50.0
173
     0
291
     1
 45
0.0
1001
ACAD
1000
AcDbSavedByObjectVersion
1070
     0
  0
VISUALSTYLE
  5
819
102
{ACAD_REACTORS
330
80A
102
}
330
80A
100
AcDbVisualStyle
  2
Facepattern
 70
    15
 71
     2
 72
     2
 73
     0
 90
        0
 40
-0.6
 41
-30.0
 62
     5
 63
     7
 74
     1
 91
        4
 64
     7
 65
   257
 75
     1
175
     1
 42
1.0
 92
        8
 66
     7
 43
1.0
 76
     1
 77
     6
 78
     2
 67
     7
 79
     5
170
     0
171
     0
290
     0
174
     0
 93
        1
 44
0.0
173
     0
291
     1
 45
0.0
1001
ACAD
1000
AcDbSavedByObjectVersion
1070
     0
  0
VISUALSTYLE
  5
80B
102
{ACAD_REACTORS
330
80A
102
}
330
80A
100
AcDbVisualStyle
  2
Flat
 70
     0
 71
     2
 72
     1
 73
     1
 90
        2
 40
-0.6
 41
30.0
 62
     5
 63
     7
 74
     0
 91
        4
 64
     7
 65
   257
 75
     1
175
     1
 42
1.0
 92
        8
 66
     7
 43
1.0
 76
     1
 77
     6
 78
     2
 67
     7
 79
     5
170
     0
171
     0
290
     0
174
     0
 93
       13
 44
0.0
173
     0
291
     1
 45
0.0
1001
ACAD
1000
AcDbSavedByObjectVersion
1070
     0
  0
VISUALSTYLE
  5
80C
102
{ACAD_REACTORS
330
80A
102
}
330
80A
100
AcDbVisualStyle
  2
FlatWithEdges
 70
     1
 71
     2
 72
     1
 73
     1
 90
        2
 40
-0.6
 41
30.0
 62
     5
 63
     7
 74
     1
 91
        4
 64
     7
 65
   257
 75
     1
175
     1
 42
1.0
 92
        0
 66
   257
 43
1.0
 76
     1
 77
     6
 78
     2
 67
     7
 79
     5
170
     0
171
     0
290
     0
174
     0
 93
       13
 44
0.0
173
     0
291
     1
 45
0.0
1001
ACAD
1000
AcDbSavedByObjectVersion
1070
     0
  0
VISUALSTYLE
  5
80D
102
{ACAD_REACTORS
330
80A
102
}
330
80A
100
AcDbVisualStyle
  2
Gouraud
 70
     2
 71
     2
 72
     2
 73
     1
 90
        2
 40
-0.6
 41
30.0
 62
     5
 63
     7
 74
     0
 91
        4
 64
     7
 65
   257
 75
     1
175
     1
 42
1.0
 92
        0
 66
     7
 43
1.0
 76
     1
 77
     6
 78
     2
 67
     7
 79
     5
170
     0
171
     0
290
     0
174
     0
 93
       13
 44
0.0
173
     0
291
     1
 45
0.0
1001
ACAD
1000
AcDbSavedByObjectVersion
1070
     0
  0
VISUALSTYLE
  5
80E
102
{ACAD_REACTORS
330
80A
102
}
330
80A
100
AcDbVisualStyle
  2
GouraudWithEdges
 70
     3
 71
     2
 72
     2
 73
     1
 90
        2
 40
-0.6
 41
30.0
 62
     5
 63
     7
 74
     1
 91
        4
 64
     7
 65
   257
 75
     1
175
     1
 42
1.0
 92
        0
 66
   257
 43
1.0
 76
     1
 77
     6
 78
     2
 67
     7
 79
     5
170
     0
171
     0
290
     0
174
     0
 93
       13
 44
0.0
173
     0
291
     1
 45
0.0
1001
ACAD
1000
AcDbSavedByObjectVersion
1070
     0
  0
VISUALSTYLE
  5
818
102
{ACAD_REACTORS
330
80A
102
}
330
80A
100
AcDbVisualStyle
  2
Linepattern
 70
    14
 71
     2
 72
     2
 73
     0
 90
        0
 40
-0.6
 41
-30.0
 62
     5
 63
     7
 74
     1
 91
        4
 64
     7
 65
   257
 75
     7
175
     7
 42
1.0
 92
        8
 66
     7
 43
1.0
 76
     1
 77
     6
 78
     2
 67
     7
 79
     5
170
     0
171
     0
290
     0
174
     0
 93
        1
 44
0.0
173
     0
291
     1
 45
0.0
1001
ACAD
1000
AcDbSavedByObjectVersion
1070
     0
  0
VISUALSTYLE
  5
814
102
{ACAD_REACTORS
330
80A
102
}
330
80A
100
AcDbVisualStyle
  2
Realistic
 70
     8
 71
     2
 72
     2
 73
     0
 90
        0
 40
-0.6
 41
-30.0
 62
     5
 63
     7
 74
     1
 91
        0
 64
     7
 65
   257
 75
     1
175
     1
 42
1.0
 92
        8
 66
     8
 43
1.0
 76
     1
 77
     6
 78
     2
 67
     7
 79
     5
170
     0
171
     0
290
     0
174
     0
 93
       13
 44
0.0
173
     0
291
     0
 45
0.0
1001
ACAD
1000
AcDbSavedByObjectVersion
1070
     0
  0
VISUALSTYLE
  5
817
102
{ACAD_REACTORS
330
80A
102
}
330
80A
100
AcDbVisualStyle
  2
Thicken
 70
    13
 71
     2
 72
     2
 73
     0
 90
        0
 40
-0.6
 41
-30.0
 62
     5
 63
     7
 74
     1
 91
        4
 64
     7
 65
   257
 75
     1
175
     1
 42
1.0
 92
       12
 66
     7
 43
1.0
 76
     1
 77
     6
 78
     2
 67
     7
 79
     5
170
     0
171
     0
290
     0
174
     0
 93
        1
 44
0.0
173
     0
291
     1
 45
0.0
1001
ACAD
1000
AcDbSavedByObjectVersion
1070
     0
  0
DICTIONARYVAR
  5
804
102
{ACAD_REACTORS
330
D0
102
}
330
D0
100
DictionaryVariables
280
     0
  1
STANDARD
  0
DICTIONARYVAR
  5
D1
102
{ACAD_REACTORS
330
D0
102
}
330
D0
100
DictionaryVariables
280
     0
  1
1
  0
DICTIONARYVAR
  5
891
102
{ACAD_REACTORS
330
D0
102
}
330
D0
100
DictionaryVariables
280
     0
  1
0
  0
DICTIONARYVAR
  5
890
102
{ACAD_REACTORS
330
D0
102
}
330
D0
100
DictionaryVariables
280
     0
  1
127
  0
XRECORD
  5
72C
102
{ACAD_REACTORS
330
676
102
}
330
676
100
AcDbXrecord
280
     1
  1
M:\Cd dwg\Finished for CD Project\Sweets CAD Standard.dws
  0
XRECORD
  5
8E2
102
{ACAD_REACTORS
330
8E1
102
}
330
8E1
100
AcDbXrecord
280
     1
330
D13
330
5B9
330
8D5
  0
DICTIONARY
  5
D5A
330
C9
100
AcDbDictionary
280
     1
281
     1
  3
ACAD_XREC_ROUNDTRIP
360
D5B
  0
DICTIONARY
  5
D58
330
C8
100
AcDbDictionary
280
     1
281
     1
  3
ACAD_XREC_ROUNDTRIP
360
D59
  0
DICTIONARY
  5
D64
330
808
100
AcDbDictionary
280
     1
281
     1
  3
ACAD_XREC_ROUNDTRIP
360
D65
  0
DICTIONARY
  5
D62
330
807
100
AcDbDictionary
280
     1
281
     1
  3
ACAD_XREC_ROUNDTRIP
360
D63
  0
DICTIONARY
  5
D66
330
809
100
AcDbDictionary
280
     1
281
     1
  3
ACAD_XREC_ROUNDTRIP
360
D67
  0
DICTIONARY
  5
D60
330
800
100
AcDbDictionary
280
     1
281
     1
  3
ACAD_XREC_ROUNDTRIP
360
D61
  0
XRECORD
  5
D5B
102
{ACAD_REACTORS
330
D5A
102
}
330
D5A
100
AcDbXrecord
280
     1
102
SHADEPLOT
 70
     0
102
SHADEPLOTRESLEVEL
 70
     2
102
SHADEPLOTCUSTOMDPI
 70
   300
  0
XRECORD
  5
D59
102
{ACAD_REACTORS
330
D58
102
}
330
D58
100
AcDbXrecord
280
     1
102
SHADEPLOT
 70
     0
102
SHADEPLOTRESLEVEL
 70
     2
102
SHADEPLOTCUSTOMDPI
 70
   300
  0
XRECORD
  5
D65
102
{ACAD_REACTORS
330
D64
102
}
330
D64
100
AcDbXrecord
280
     1
102
MATERIAL
148
0.0
149
0.0
149
0.0
 93
        0
 94
       63
282
     0
 72
     1
 77
     1
171
     1
175
     1
179
     1
273
     0
  0
XRECORD
  5
D63
102
{ACAD_REACTORS
330
D62
102
}
330
D62
100
AcDbXrecord
280
     1
102
MATERIAL
148
0.0
149
0.0
149
0.0
 93
        0
 94
       63
282
     0
 72
     1
 77
     1
171
     1
175
     1
179
     1
273
     0
  0
XRECORD
  5
D67
102
{ACAD_REACTORS
330
D66
102
}
330
D66
100
AcDbXrecord
280
     1
102
MATERIAL
148
0.0
149
0.0
149
0.0
 93
        0
 94
       63
282
     0
 72
     1
 77
     1
171
     1
175
     1
179
     1
273
     0
  0
XRECORD
  5
D61
102
{ACAD_REACTORS
330
D60
102
}
330
D60
100
AcDbXrecord
280
     1
102
ACAD_ROUNDTRIP_PRE2007_TABLESTYLE
 90
        4
 91
        0
  1

 92
        4
 93
        0
  2

 94
        4
 95
        0
  3

  0
ENDSEC
  0
EOF
