  0
SECTION
  2
HEADER
  9
$ACADVER
  1
AC1018
  9
$ACADMAINTVER
 70
     0
  9
$DWGCODEPAGE
  3
ANSI_1252
  9
$LASTSAVEDBY
  1
slanke
  9
$INSBASE
 10
0.0
 20
0.0
 30
0.0
  9
$EXTMIN
 10
6.178870030557325
 20
-0.7738766749290864
 30
0.0
  9
$EXTMAX
 10
12.67343666088816
 20
4.630945118599345
 30
0.0
  9
$LIMMIN
 10
0.0
 20
0.0
  9
$LIMMAX
 10
0.0
 20
0.0
  9
$ORTHOMODE
 70
     0
  9
$REGENMODE
 70
     1
  9
$FILLMODE
 70
     1
  9
$QTEXTMODE
 70
     0
  9
$MIRRTEXT
 70
     1
  9
$LTSCALE
 40
0.2
  9
$ATTMODE
 70
     1
  9
$TEXTSIZE
 40
0.1
  9
$TRACEWID
 40
1.0
  9
$TEXTSTYLE
  7
SWTSTEXT
  9
$CLAYER
  8
0
  9
$CELTYPE
  6
CONTINUOUS
  9
$CECOLOR
 62
   256
  9
$CELTSCALE
 40
1.0
  9
$DISPSILH
 70
     0
  9
$DIMSCALE
 40
1.0
  9
$DIMASZ
 40
0.125
  9
$DIMEXO
 40
0.0625
  9
$DIMDLI
 40
0.38
  9
$DIMRND
 40
0.0
  9
$DIMDLE
 40
0.0
  9
$DIMEXE
 40
0.125
  9
$DIMTP
 40
0.0
  9
$DIMTM
 40
0.0
  9
$DIMTXT
 40
0.125
  9
$DIMCEN
 40
0.04
  9
$DIMTSZ
 40
0.0
  9
$DIMTOL
 70
     0
  9
$DIMLIM
 70
     0
  9
$DIMTIH
 70
     1
  9
$DIMTOH
 70
     1
  9
$DIMSE1
 70
     0
  9
$DIMSE2
 70
     0
  9
$DIMTAD
 70
     0
  9
$DIMZIN
 70
     0
  9
$DIMBLK
  1

  9
$DIMASO
 70
     1
  9
$DIMSHO
 70
     1
  9
$DIMPOST
  1

  9
$DIMAPOST
  1

  9
$DIMALT
 70
     0
  9
$DIMALTD
 70
     2
  9
$DIMALTF
 40
25.4
  9
$DIMLFAC
 40
1.0
  9
$DIMTOFL
 70
     0
  9
$DIMTVP
 40
0.0
  9
$DIMTIX
 70
     1
  9
$DIMSOXD
 70
     0
  9
$DIMSAH
 70
     0
  9
$DIMBLK1
  1

  9
$DIMBLK2
  1

  9
$DIMSTYLE
  2
SCADMECH
  9
$DIMCLRD
 70
     0
  9
$DIMCLRE
 70
     0
  9
$DIMCLRT
 70
     0
  9
$DIMTFAC
 40
1.0
  9
$DIMGAP
 40
0.09
  9
$DIMJUST
 70
     0
  9
$DIMSD1
 70
     0
  9
$DIMSD2
 70
     0
  9
$DIMTOLJ
 70
     1
  9
$DIMTZIN
 70
     0
  9
$DIMALTZ
 70
     0
  9
$DIMALTTZ
 70
     0
  9
$DIMUPT
 70
     0
  9
$DIMDEC
 70
     4
  9
$DIMTDEC
 70
     4
  9
$DIMALTU
 70
     2
  9
$DIMALTTD
 70
     2
  9
$DIMTXSTY
  7
SWTSTEXT
  9
$DIMAUNIT
 70
     0
  9
$DIMADEC
 70
     0
  9
$DIMALTRND
 40
0.0
  9
$DIMAZIN
 70
     0
  9
$DIMDSEP
 70
    46
  9
$DIMATFIT
 70
     1
  9
$DIMFRAC
 70
     0
  9
$DIMLDRBLK
  1

  9
$DIMLUNIT
 70
     5
  9
$DIMLWD
 70
    -2
  9
$DIMLWE
 70
    -2
  9
$DIMTMOVE
 70
     0
  9
$LUNITS
 70
     2
  9
$LUPREC
 70
     4
  9
$SKETCHINC
 40
0.1
  9
$FILLETRAD
 40
0.0
  9
$AUNITS
 70
     0
  9
$AUPREC
 70
     0
  9
$MENU
  1
acad
  9
$ELEVATION
 40
0.0
  9
$PELEVATION
 40
0.0
  9
$THICKNESS
 40
0.0
  9
$LIMCHECK
 70
     0
  9
$CHAMFERA
 40
0.0
  9
$CHAMFERB
 40
0.0
  9
$CHAMFERC
 40
0.0
  9
$CHAMFERD
 40
0.0
  9
$SKPOLY
 70
     0
  9
$TDCREATE
 40
2452147.080949074
  9
$TDUCREATE
 40
2452146.851782408
  9
$TDUPDATE
 40
2457863.809486621
  9
$TDUUPDATE
 40
2457863.580319954
  9
$TDINDWG
 40
0.0329711111
  9
$TDUSRTIMER
 40
2457863.580266945
  9
$USRTIMER
 70
     1
  9
$ANGBASE
 50
0.0
  9
$ANGDIR
 70
     0
  9
$PDMODE
 70
     1
  9
$PDSIZE
 40
-2.0
  9
$PLINEWID
 40
0.0
  9
$SPLFRAME
 70
     0
  9
$SPLINETYPE
 70
     6
  9
$SPLINESEGS
 70
     8
  9
$HANDSEED
  5
A87
  9
$SURFTAB1
 70
     6
  9
$SURFTAB2
 70
     6
  9
$SURFTYPE
 70
     6
  9
$SURFU
 70
     6
  9
$SURFV
 70
     6
  9
$UCSBASE
  2

  9
$UCSNAME
  2

  9
$UCSORG
 10
0.0
 20
0.0
 30
0.0
  9
$UCSXDIR
 10
1.0
 20
0.0
 30
0.0
  9
$UCSYDIR
 10
0.0
 20
1.0
 30
0.0
  9
$UCSORTHOREF
  2

  9
$UCSORTHOVIEW
 70
     0
  9
$UCSORGTOP
 10
0.0
 20
0.0
 30
0.0
  9
$UCSORGBOTTOM
 10
0.0
 20
0.0
 30
0.0
  9
$UCSORGLEFT
 10
0.0
 20
0.0
 30
0.0
  9
$UCSORGRIGHT
 10
0.0
 20
0.0
 30
0.0
  9
$UCSORGFRONT
 10
0.0
 20
0.0
 30
0.0
  9
$UCSORGBACK
 10
0.0
 20
0.0
 30
0.0
  9
$PUCSBASE
  2

  9
$PUCSNAME
  2

  9
$PUCSORG
 10
0.0
 20
0.0
 30
0.0
  9
$PUCSXDIR
 10
1.0
 20
0.0
 30
0.0
  9
$PUCSYDIR
 10
0.0
 20
1.0
 30
0.0
  9
$PUCSORTHOREF
  2

  9
$PUCSORTHOVIEW
 70
     0
  9
$PUCSORGTOP
 10
0.0
 20
0.0
 30
0.0
  9
$PUCSORGBOTTOM
 10
0.0
 20
0.0
 30
0.0
  9
$PUCSORGLEFT
 10
0.0
 20
0.0
 30
0.0
  9
$PUCSORGRIGHT
 10
0.0
 20
0.0
 30
0.0
  9
$PUCSORGFRONT
 10
0.0
 20
0.0
 30
0.0
  9
$PUCSORGBACK
 10
0.0
 20
0.0
 30
0.0
  9
$USERI1
 70
     0
  9
$USERI2
 70
     0
  9
$USERI3
 70
     0
  9
$USERI4
 70
     0
  9
$USERI5
 70
     0
  9
$USERR1
 40
0.0
  9
$USERR2
 40
0.0
  9
$USERR3
 40
0.0
  9
$USERR4
 40
0.0
  9
$USERR5
 40
0.0
  9
$WORLDVIEW
 70
     1
  9
$SHADEDGE
 70
     3
  9
$SHADEDIF
 70
    70
  9
$TILEMODE
 70
     1
  9
$MAXACTVP
 70
    16
  9
$PINSBASE
 10
0.0
 20
0.0
 30
0.0
  9
$PLIMCHECK
 70
     0
  9
$PEXTMIN
 10
1.075000024217321
 20
0.8249999641433474
 30
0.0
  9
$PEXTMAX
 10
9.675000217955882
 20
7.424999677290129
 30
0.0
  9
$PLIMMIN
 10
-0.1249995194082185
 20
-0.1249999981226884
  9
$PLIMMAX
 10
10.87500024029589
 20
8.374999761581421
  9
$UNITMODE
 70
     0
  9
$VISRETAIN
 70
     0
  9
$PLINEGEN
 70
     1
  9
$PSLTSCALE
 70
     0
  9
$TREEDEPTH
 70
  3020
  9
$CMLSTYLE
  2
STANDARD
  9
$CMLJUST
 70
     0
  9
$CMLSCALE
 40
1.0
  9
$PROXYGRAPHICS
 70
     0
  9
$MEASUREMENT
 70
     0
  9
$CELWEIGHT
370
    -1
  9
$ENDCAPS
280
     0
  9
$JOINSTYLE
280
     0
  9
$LWDISPLAY
290
     0
  9
$INSUNITS
 70
     0
  9
$HYPERLINKBASE
  1

  9
$STYLESHEET
  1
monochrome.ctb
  9
$XEDIT
290
     1
  9
$CEPSNTYPE
380
     0
  9
$PSTYLEMODE
290
     1
  9
$FINGERPRINTGUID
  2
{D8FA5890-C65F-426E-8F3D-AD5C3B08D6C8}
  9
$VERSIONGUID
  2
{3E887BF0-EEB9-40EA-8471-2484E100C6A3}
  9
$EXTNAMES
290
     1
  9
$PSVPSCALE
 40
0.0
  9
$OLESTARTUP
290
     0
  9
$SORTENTS
280
   127
  9
$INDEXCTL
280
     0
  9
$HIDETEXT
280
     1
  9
$XCLIPFRAME
290
     0
  9
$HALOGAP
280
     0
  9
$OBSCOLOR
 70
   257
  9
$OBSLTYPE
280
     0
  9
$INTERSECTIONDISPLAY
280
     0
  9
$INTERSECTIONCOLOR
 70
   257
  9
$DIMASSOC
280
     1
  9
$PROJECTNAME
  1

  0
ENDSEC
  0
SECTION
  2
CLASSES
  0
CLASS
  1
LWPOLYLINE
  2
AcDbPolyline
  3
ObjectDBX Classes
 90
        0
 91
        1
280
     0
281
     1
  0
CLASS
  1
IMAGE
  2
AcDbRasterImage
  3
ISM
 90
      127
 91
       16
280
     0
281
     1
  0
CLASS
  1
OLE2FRAME
  2
AcDbOle2Frame
  3
ObjectDBX Classes
 90
        0
 91
        1
280
     0
281
     1
  0
CLASS
  1
HATCH
  2
AcDbHatch
  3
ObjectDBX Classes
 90
        0
 91
        1
280
     0
281
     1
  0
CLASS
  1
DICTIONARYVAR
  2
AcDbDictionaryVar
  3
ObjectDBX Classes
 90
        0
 91
       15
280
     0
281
     0
  0
CLASS
  1
RASTERVARIABLES
  2
AcDbRasterVariables
  3
ISM
 90
        0
 91
       15
280
     0
281
     0
  0
CLASS
  1
IMAGEDEF
  2
AcDbRasterImageDef
  3
ISM
 90
        0
 91
       15
280
     0
281
     0
  0
CLASS
  1
IMAGEDEF_REACTOR
  2
AcDbRasterImageDefReactor
  3
ISM
 90
        1
 91
       15
280
     0
281
     0
  0
CLASS
  1
IDBUFFER
  2
AcDbIdBuffer
  3
ObjectDBX Classes
 90
        0
 91
       15
280
     0
281
     0
  0
CLASS
  1
SPATIAL_FILTER
  2
AcDbSpatialFilter
  3
ObjectDBX Classes
 90
        0
 91
       15
280
     0
281
     0
  0
CLASS
  1
XRECORD
  2
AcDbXrecord
  3
ObjectDBX Classes
 90
        0
 91
        1
280
     0
281
     0
  0
CLASS
  1
SORTENTSTABLE
  2
AcDbSortentsTable
  3
ObjectDBX Classes
 90
        0
 91
       15
280
     0
281
     0
  0
CLASS
  1
LAYER_INDEX
  2
AcDbLayerIndex
  3
ObjectDBX Classes
 90
        0
 91
       15
280
     0
281
     0
  0
CLASS
  1
SPATIAL_INDEX
  2
AcDbSpatialIndex
  3
AutoCAD 2000
 90
        0
 91
       15
280
     0
281
     0
  0
CLASS
  1
OBJECT_PTR
  2
CAseDLPNTableRecord
  3
ASE-LPNTableRecord
 90
        1
 91
       15
280
     0
281
     0
  0
CLASS
  1
LAYOUT
  2
AcDbLayout
  3
ObjectDBX Classes
 90
        0
 91
        1
280
     0
281
     0
  0
CLASS
  1
PLOTSETTINGS
  2
AcDbPlotSettings
  3
ObjectDBX Classes
 90
        0
 91
       15
280
     0
281
     0
  0
CLASS
  1
ACDBDICTIONARYWDFLT
  2
AcDbDictionaryWithDefault
  3
ObjectDBX Classes
 90
        0
 91
       15
280
     0
281
     0
  0
CLASS
  1
ACDBPLACEHOLDER
  2
AcDbPlaceHolder
  3
ObjectDBX Classes
 90
        0
 91
        1
280
     0
281
     0
  0
CLASS
  1
TABLESTYLE
  2
AcDbTableStyle
  3
ObjectDBX Classes
 90
     4095
 91
       15
280
     0
281
     0
  0
CLASS
  1
MATERIAL
  2
AcDbMaterial
  3
ObjectDBX Classes
 90
     1153
 91
       15
280
     0
281
     0
  0
CLASS
  1
VISUALSTYLE
  2
AcDbVisualStyle
  3
ObjectDBX Classes
 90
     4095
 91
       15
280
     0
281
     0
  0
CLASS
  1
SCALE
  2
AcDbScale
  3
ObjectDBX Classes
 90
     1153
 91
       15
280
     0
281
     0
  0
CLASS
  1
MLEADERSTYLE
  2
AcDbMLeaderStyle
  3
ACDB_MLEADERSTYLE_CLASS
 90
     4095
 91
       15
280
     0
281
     0
  0
CLASS
  1
SUN
  2
AcDbSun
  3
SCENEOE
 90
     1153
 91
       15
280
     0
281
     0
  0
CLASS
  1
CELLSTYLEMAP
  2
AcDbCellStyleMap
  3
ObjectDBX Classes
 90
     1152
 91
        6
280
     0
281
     0
  0
ENDSEC
  0
SECTION
  2
TABLES
  0
TABLE
  2
VPORT
  5
7
330
0
100
AcDbSymbolTable
 70
     1
  0
VPORT
  5
599
330
7
100
AcDbSymbolTableRecord
100
AcDbViewportTableRecord
  2
*Active
 70
     0
 10
0.0
 20
0.0
 11
1.0
 21
1.0
 12
9.42615334572274
 22
1.928534221835129
 13
0.0
 23
0.0
 14
1.0
 24
1.0
 15
0.0
 25
0.0
 16
0.0
 26
0.0
 36
1.0
 17
0.0
 27
0.0
 37
0.0
 40
5.512918229399
 41
1.852348993288591
 42
50.0
 43
0.0
 44
0.0
 50
0.0
 51
0.0
 71
    16
 72
   100
 73
     1
 74
     1
 75
     0
 76
     0
 77
     0
 78
     0
281
     0
 65
     1
110
0.0
120
0.0
130
0.0
111
1.0
121
0.0
131
0.0
112
0.0
122
1.0
132
0.0
 79
     0
146
0.0
  0
ENDTAB
  0
TABLE
  2
LTYPE
  5
4
330
0
100
AcDbSymbolTable
 70
     2
  0
LTYPE
  5
11
330
4
100
AcDbSymbolTableRecord
100
AcDbLinetypeTableRecord
  2
BYBLOCK
 70
     0
  3

 72
    65
 73
     0
 40
0.0
  0
LTYPE
  5
12
330
4
100
AcDbSymbolTableRecord
100
AcDbLinetypeTableRecord
  2
BYLAYER
 70
     0
  3

 72
    65
 73
     0
 40
0.0
  0
LTYPE
  5
13
330
4
100
AcDbSymbolTableRecord
100
AcDbLinetypeTableRecord
  2
CONTINUOUS
 70
     0
  3
Solid line
 72
    65
 73
     0
 40
0.0
  0
LTYPE
  5
4E4
330
4
100
AcDbSymbolTableRecord
100
AcDbLinetypeTableRecord
  2
PHANTOM
 70
     0
  3
Phantom ______  __  __  ______  __  __  ______
 72
    65
 73
     6
 40
2.5
 49
1.25
 74
     0
 49
-0.25
 74
     0
 49
0.25
 74
     0
 49
-0.25
 74
     0
 49
0.25
 74
     0
 49
-0.25
 74
     0
  0
ENDTAB
  0
TABLE
  2
LAYER
  5
2
102
{ACAD_XDICTIONARY
360
909
102
}
330
0
100
AcDbSymbolTable
 70
    12
  0
LAYER
  5
14
330
2
100
AcDbSymbolTableRecord
100
AcDbLayerTableRecord
  2
0
 70
     0
 62
     7
  6
CONTINUOUS
370
    -3
390
C5
  0
LAYER
  5
2E
330
2
100
AcDbSymbolTableRecord
100
AcDbLayerTableRecord
  2
R-SWTS-DET1
 70
     0
 62
     1
  6
CONTINUOUS
370
    -3
390
C5
  0
LAYER
  5
2F
330
2
100
AcDbSymbolTableRecord
100
AcDbLayerTableRecord
  2
R-ANNO-DIMS
 70
     0
 62
     3
  6
CONTINUOUS
370
    -3
390
C5
  0
LAYER
  5
32
330
2
100
AcDbSymbolTableRecord
100
AcDbLayerTableRecord
  2
R-ANNO-TEXT
 70
     0
 62
     6
  6
CONTINUOUS
370
    -3
390
C5
  0
LAYER
  5
33
330
2
100
AcDbSymbolTableRecord
100
AcDbLayerTableRecord
  2
R-SWTS-PAT3
 70
     0
 62
     4
  6
CONTINUOUS
370
    -3
390
C5
  0
LAYER
  5
34
330
2
100
AcDbSymbolTableRecord
100
AcDbLayerTableRecord
  2
R-SWTS-PAT2
 70
     0
 62
     1
  6
CONTINUOUS
370
    -3
390
C5
  0
LAYER
  5
35
330
2
100
AcDbSymbolTableRecord
100
AcDbLayerTableRecord
  2
R-SWTS-PAT1
 70
     0
 62
     5
  6
PHANTOM
370
    -3
390
C5
  0
LAYER
  5
36
330
2
100
AcDbSymbolTableRecord
100
AcDbLayerTableRecord
  2
R-SWTS-DET3
 70
     0
 62
     5
  6
CONTINUOUS
370
    -3
390
C5
  0
LAYER
  5
37
330
2
100
AcDbSymbolTableRecord
100
AcDbLayerTableRecord
  2
R-SWTS-DET2
 70
     0
 62
     4
  6
CONTINUOUS
370
    -3
390
C5
  0
LAYER
  5
D8
330
2
100
AcDbSymbolTableRecord
100
AcDbLayerTableRecord
  2
Defpoints
 70
     0
 62
     7
  6
CONTINUOUS
290
     0
370
    -3
390
C5
  0
LAYER
  5
48F
330
2
100
AcDbSymbolTableRecord
100
AcDbLayerTableRecord
  2
R-SWTS-OTLN
 70
     0
 62
     2
  6
CONTINUOUS
370
    -3
390
C5
  0
LAYER
  5
9EB
102
{ACAD_XDICTIONARY
360
9EC
102
}
330
2
100
AcDbSymbolTableRecord
100
AcDbLayerTableRecord
  2
Layer 1
 70
     0
 62
     7
  6
CONTINUOUS
370
    -3
390
C5
  0
ENDTAB
  0
TABLE
  2
STYLE
  5
3
330
0
100
AcDbSymbolTable
 70
     2
  0
STYLE
  5
17
330
3
100
AcDbSymbolTableRecord
100
AcDbTextStyleTableRecord
  2
STANDARD
 70
     0
 40
0.0
 41
1.0
 50
0.0
 71
     0
 42
0.0
  3
txt
  4

  0
STYLE
  5
4CF
330
3
100
AcDbSymbolTableRecord
100
AcDbTextStyleTableRecord
  2
SWTSTEXT
 70
     0
 40
0.125
 41
1.0
 50
0.0
 71
     0
 42
0.1
  3
simplex.shx
  4

  0
ENDTAB
  0
TABLE
  2
VIEW
  5
5
330
0
100
AcDbSymbolTable
 70
     0
  0
ENDTAB
  0
TABLE
  2
UCS
  5
6
330
0
100
AcDbSymbolTable
 70
     0
  0
ENDTAB
  0
TABLE
  2
APPID
  5
8
330
0
100
AcDbSymbolTable
 70
     8
  0
APPID
  5
16
330
8
100
AcDbSymbolTableRecord
100
AcDbRegAppTableRecord
  2
ACAD
 70
     0
  0
APPID
  5
257
330
8
100
AcDbSymbolTableRecord
100
AcDbRegAppTableRecord
  2
DCO15
 70
     0
  0
APPID
  5
988
330
8
100
AcDbSymbolTableRecord
100
AcDbRegAppTableRecord
  2
ACAD_PSEXT
 70
     0
  0
APPID
  5
9F5
330
8
100
AcDbSymbolTableRecord
100
AcDbRegAppTableRecord
  2
ACAD_NAV_VCDISPLAY
 70
     0
  0
APPID
  5
9F6
330
8
100
AcDbSymbolTableRecord
100
AcDbRegAppTableRecord
  2
GradientColor1ACI
 70
     0
  0
APPID
  5
9F7
330
8
100
AcDbSymbolTableRecord
100
AcDbRegAppTableRecord
  2
GradientColor2ACI
 70
     0
  0
APPID
  5
9F8
330
8
100
AcDbSymbolTableRecord
100
AcDbRegAppTableRecord
  2
ACAD_EXEMPT_FROM_CAD_STANDARDS
 70
     0
  0
APPID
  5
A80
330
8
100
AcDbSymbolTableRecord
100
AcDbRegAppTableRecord
  2
ACAD_MLEADERVER
 70
     0
  0
ENDTAB
  0
TABLE
  2
DIMSTYLE
  5
9
330
0
100
AcDbSymbolTable
 70
     2
100
AcDbDimStyleTable
  0
DIMSTYLE
105
18
102
{ACAD_REACTORS
330
468
330
45A
330
10A
330
93E
102
}
330
9
100
AcDbSymbolTableRecord
100
AcDbDimStyleTableRecord
  2
SCADMECH
 70
     0
 41
0.125
 44
0.125
140
0.125
141
0.04
174
     1
178
     0
277
     5
289
     1
340
4CF
  0
DIMSTYLE
105
9F1
330
9
100
AcDbSymbolTableRecord
100
AcDbDimStyleTableRecord
  2
Standard
 70
     0
 40
0.25
 41
0.125
 44
0.125
140
0.125
141
0.0
178
     0
271
     3
272
     3
340
17
  0
ENDTAB
  0
TABLE
  2
BLOCK_RECORD
  5
1
330
0
100
AcDbSymbolTable
 70
     9
  0
BLOCK_RECORD
  5
A
330
1
100
AcDbSymbolTableRecord
100
AcDbBlockTableRecord
  2
*MODEL_SPACE
340
C8
  0
BLOCK_RECORD
  5
B
330
1
100
AcDbSymbolTableRecord
100
AcDbBlockTableRecord
  2
*PAPER_SPACE
340
C9
  0
BLOCK_RECORD
  5
2A8
330
1
100
AcDbSymbolTableRecord
100
AcDbBlockTableRecord
  2
10x250CountersunkSMS-Phillips
340
0
102
{BLKREFS
331
459
102
}
1001
ACAD
1000
DesignCenter Data
1002
{
1070
     1
1070
     1
1002
}
  0
BLOCK_RECORD
  5
45B
330
1
100
AcDbSymbolTableRecord
100
AcDbBlockTableRecord
  2
*D1
340
0
  0
BLOCK_RECORD
  5
469
330
1
100
AcDbSymbolTableRecord
100
AcDbBlockTableRecord
  2
*D2
340
0
  0
BLOCK_RECORD
  5
490
330
1
100
AcDbSymbolTableRecord
100
AcDbBlockTableRecord
  2
Logo
340
0
  0
BLOCK_RECORD
  5
517
102
{ACAD_XDICTIONARY
360
518
102
}
330
1
100
AcDbSymbolTableRecord
100
AcDbBlockTableRecord
  2
NL1678
340
0
102
{BLKREFS
331
53A
102
}
  0
BLOCK_RECORD
  5
5B6
102
{ACAD_XDICTIONARY
360
5B7
102
}
330
1
100
AcDbSymbolTableRecord
100
AcDbBlockTableRecord
  2
PEMKO_ASSA LOGO
340
0
102
{BLKREFS
331
90C
102
}
1001
ACAD
1000
DesignCenter Data
1002
{
1070
     1
1070
     1
1002
}
  0
BLOCK_RECORD
  5
90B
330
1
100
AcDbSymbolTableRecord
100
AcDbBlockTableRecord
  2
ASSA LOGO
340
0
102
{BLKREFS
331
90F
102
}
  0
BLOCK_RECORD
  5
93F
330
1
100
AcDbSymbolTableRecord
100
AcDbBlockTableRecord
  2
*D7
340
0
  0
BLOCK_RECORD
  5
A2B
330
1
100
AcDbSymbolTableRecord
100
AcDbBlockTableRecord
  2
ASSA_ABLOY
340
0
310
28000000200000002000000001002000000000000010000001000000010000000000000000000000302821FF302821FF302821FF302821FF302821FF302821FF302821FF302821FF302821FF302821FF302821FF302821FF302821FF302821FF302821FF302821FF302821FF302821FF302821FF302821FF302821FF302821
310
FF302821FF302821FF302821FF302821FF302821FF302821FF302821FF302821FF302821FF302821FF302821FF302821FF302821FF302821FF302821FF302821FF302821FF302821FF302821FF302821FF302821FF302821FF302821FF302821FF302821FF302821FF302821FF302821FF302821FF302821FF302821FF3028
310
21FF302821FF302821FF302821FF302821FF302821FF302821FF302821FF302821FF302821FF302821FF302821FF302821FF302821FF302821FF302821FF302821FF302821FF302821FF302821FF302821FF302821FF302821FF302821FF302821FF302821FF302821FF302821FF302821FF302821FF302821FF302821FF30
310
2821FF302821FF302821FF302821FF302821FF302821FF302821FF302821FF302821FF302821FF302821FF302821FF302821FF302821FF302821FF302821FF302821FF302821FF302821FF302821FF302821FF302821FF302821FF302821FF302821FF302821FF302821FF302821FF302821FF302821FF302821FF302821FF
310
302821FF302821FF302821FF302821FF302821FF302821FF302821FF302821FF302821FF302821FF302821FF302821FF302821FF302821FF302821FF302821FF302821FF302821FF302821FF302821FF302821FF302821FF302821FF302821FF302821FF302821FF302821FF302821FF302821FF302821FF302821FF302821
310
FF302821FF302821FF302821FF302821FF302821FF302821FF302821FF302821FF302821FF302821FF302821FF302821FF302821FF302821FF302821FF302821FF302821FF302821FF302821FF302821FF302821FF302821FF302821FF302821FF302821FF302821FF302821FF302821FF302821FF302821FF302821FF3028
310
21FF302821FF302821FF302821FF302821FF302821FF302821FF302821FF302821FF302821FF302821FF302821FF302821FF302821FF302821FF302821FF302821FF302821FF302821FF302821FF302821FF302821FF302821FF302821FF302821FF302821FF302821FF302821FF302821FF302821FF302821FF302821FF30
310
2821FF302821FF302821FF302821FF302821FF302821FF302821FF302821FF302821FF302821FF302821FF302821FF302821FF302821FF302821FF302821FF302821FF302821FF302821FF302821FF302821FF302821FF302821FF302821FF302821FF302821FF302821FF302821FF302821FF302821FF302821FF302821FF
310
302821FF302821FF302821FF302821FF302821FF302821FF302821FF302821FF302821FF302821FF302821FF302821FF302821FF302821FF302821FF302821FF302821FF302821FF302821FF302821FF302821FF302821FF302821FF302821FF302821FF302821FF302821FF302821FF302821FF302821FF302821FF302821
310
FF302821FF302821FF302821FF302821FF302821FF302821FF302821FF302821FF302821FF302821FF302821FF302821FF302821FF302821FF302821FF302821FF302821FF302821FF302821FF302821FF302821FF302821FF302821FF302821FF302821FF302821FF302821FF302821FF302821FF302821FF302821FF3028
310
21FF302821FF302821FF302821FF302821FF302821FF302821FF302821FF302821FF302821FF302821FF302821FF302821FF302821FF302821FF302821FF302821FF302821FF302821FF302821FF302821FF302821FF302821FF302821FF302821FF302821FF302821FF302821FF302821FF302821FF302821FF302821FF30
310
2821FF302821FF302821FF302821FF302821FF302821FF302821FF302821FF302821FF302821FF302821FF302821FF302821FF302821FF302821FF302821FF302821FF302821FF302821FF302821FF302821FF302821FF302821FF302821FF302821FF302821FF302821FF302821FF302821FF302821FF302821FF302821FF
310
302821FF302821FF302821FF302821FF302821FF302821FF302821FF302821FF302821FF302821FF302821FF302821FF302821FF302821FF302821FF302821FF302821FF302821FF302821FF302821FF302821FF302821FF302821FF302821FF302821FF302821FF302821FF302821FF302821FF302821FF302821FF302821
310
FF302821FF302821FF302821FF302821FF302821FF302821FF302821FF302821FF302821FF302821FF302821FF302821FF302821FF302821FF302821FF302821FF302821FF302821FF302821FF302821FF302821FF302821FF302821FF302821FF302821FF302821FF302821FF302821FF302821FF302821FF302821FF3028
310
21FF302821FF302821FF302821FF302821FF302821FF302821FF302821FF302821FF302821FF302821FF302821FF302821FF302821FF302821FF302821FFFFFFFFFFFFFFFFFFFFFFFFFFFFFFFFFFFFFFFFFFFFFFFFFFFFFFFFFFFFFFFFFFFFFFFFFFFFFFFFFF302821FFFFFFFFFFFFFFFFFFFFFFFFFFFFFFFFFFFFFFFFFFFF
310
FFFFFFFFFFFFFFFFFFFFFFFFFFFFFFFFFFFFFFFFFFFFFFFFFFFFFFFFFFFFFFFFFFFFFFFFFFFFFFFFFFFFFF302821FF302821FF302821FF302821FF302821FFFFFFFFFFFFFFFFFFFFFFFFFFFFFFFFFFFFFFFFFFFFFFFFFFFFFFFFFFFFFFFFFFFFFFFFFFFFFFFFFFFFFFFFFFFFFFFFFFFFFFFFFFFFFFFFFFFFFFFFFFFFFFFFFF
310
FFFFFFFFFFFFFFFFFFFFFFFFFFFFFFFFFFFFFFFFFFFFFFFFFFFFFFFFFFFFFFFFFFFFFFFFFFFFFFFFFFFFFFFF302821FF302821FF302821FF302821FF302821FFFFFFFFFFFFFFFFFFFFFFFFFFFFFFFFFFFFFFFFFFFFFFFFFFFFFFFFFFFFFFFFFFFFFFFFFFFFFFFFFFFFFFFFFFFFFFFFFF302821FFFFFFFFFFFFFFFFFFFFFFFF
310
FFFFFFFFFFFFFFFFFFFFFFFFFFFFFFFFFFFFFFFFFFFFFFFFFFFFFFFFFF302821FFFFFFFFFFFFFFFFFFFFFFFFFFFFFFFFFF302821FF302821FF302821FF302821FF302821FFFFFFFFFFFFFFFFFFFFFFFFFFFFFFFFFFFFFFFFFFFFFFFFFFFFFFFFFFFFFFFFFFFFFFFFFFFFFFFFFFFFFFFFFF302821FFFFFFFFFFFFFFFFFFFFFF
310
FFFFFFFFFFFFFFFFFFFFFFFFFFFFFFFFFFFFFFFFFFFFFFFFFFFFFFFFFFFFFFFFFFFFFFFFFFFFFFFFFFFF302821FFFFFFFFFFFFFFFFFF302821FF302821FF302821FF302821FF302821FF302821FF302821FFFFFFFFFFFFFFFFFF302821FFFFFFFFFFFFFFFFFF302821FF302821FF302821FF302821FF302821FF302821FF30
310
2821FF302821FF302821FF302821FF302821FF302821FF302821FFFFFFFFFFFFFFFFFF302821FF302821FF302821FF302821FF302821FF302821FF302821FF302821FF302821FF302821FF302821FF302821FF302821FF302821FF302821FF302821FF302821FF302821FF302821FF302821FF302821FF302821FF302821FF
310
302821FF302821FF302821FF302821FF302821FF302821FF302821FF302821FF302821FF302821FF302821FF302821FF302821FF302821FF302821FF302821FF302821FF302821FF302821FF302821FF302821FF302821FF302821FF302821FF302821FF302821FF302821FF302821FF302821FF302821FF302821FF302821
310
FF302821FF302821FF302821FF302821FF302821FF302821FF302821FF302821FF302821FF302821FF302821FF302821FF302821FF302821FF302821FF302821FF302821FF302821FF302821FF302821FF302821FF302821FF302821FF302821FF302821FF302821FF302821FF302821FF302821FF302821FF302821FF3028
310
21FF302821FF302821FF302821FF302821FF302821FF302821FF302821FF302821FF302821FF302821FF302821FF302821FF302821FF302821FF302821FF302821FF302821FF302821FF302821FF302821FF302821FF302821FF302821FF302821FF302821FF302821FF302821FF302821FF302821FF302821FF302821FF30
310
2821FF302821FF302821FF302821FF302821FF302821FF302821FF302821FF302821FF302821FF302821FF302821FF302821FF302821FF302821FF302821FF302821FF302821FF302821FF302821FF302821FF302821FF302821FF302821FF302821FF302821FF302821FF302821FF302821FF302821FF302821FF302821FF
310
302821FF302821FF302821FF302821FF302821FF302821FF302821FF302821FF302821FF302821FF302821FF302821FF302821FF302821FF302821FF302821FF302821FF302821FF302821FF302821FF302821FF302821FF302821FF302821FF302821FF302821FF302821FF302821FF302821FF302821FF302821FF302821
310
FF302821FF302821FF302821FF302821FF302821FF302821FF302821FF302821FF302821FF302821FF302821FF302821FF302821FF302821FF302821FF302821FF302821FF302821FF302821FF302821FF302821FF302821FF302821FF302821FF302821FF302821FF302821FF302821FF302821FF302821FF302821FF3028
310
21FF302821FF302821FF302821FF302821FF302821FF302821FF302821FF302821FF302821FF302821FF302821FF302821FF302821FF302821FF302821FF302821FF302821FF302821FF302821FF302821FF302821FF302821FF302821FF302821FF302821FF302821FF302821FF302821FF302821FF302821FF302821FF30
310
2821FF302821FF302821FF302821FF302821FF302821FF302821FF302821FF302821FF302821FF302821FF302821FF302821FF302821FF302821FF302821FF302821FF302821FF302821FF302821FF302821FF302821FF302821FF302821FF302821FF302821FF302821FF302821FF302821FF302821FF302821FF302821FF
310
302821FF302821FF302821FF302821FF302821FF302821FF302821FF302821FF302821FF302821FF302821FF302821FF302821FF302821FF302821FF302821FF302821FF302821FF302821FF302821FF302821FF302821FF302821FF302821FF302821FF302821FF302821FF302821FF302821FF302821FF302821FF302821
310
FF302821FF302821FF302821FF302821FF302821FF302821FF302821FF302821FF302821FF302821FF302821FF302821FF302821FF302821FF302821FF302821FF302821FF302821FF302821FF302821FF302821FF302821FF302821FF302821FF302821FF302821FF302821FF302821FF302821FF302821FF302821FF3028
310
21FF302821FF302821FF302821FF302821FF302821FF302821FF302821FF302821FF302821FF302821FF302821FF302821FF302821FF302821FF302821FF302821FF302821FF302821FF302821FF302821FF302821FF302821FF302821FF302821FF302821FF302821FF302821FF302821FF302821FF302821FF302821FF30
310
2821FF302821FF302821FF302821FF302821FF302821FF302821FF302821FF302821FF302821FF302821FF302821FF302821FF302821FF302821FF302821FF302821FF302821FF302821FF302821FF302821FF302821FF302821FF302821FF302821FF302821FF302821FF302821FF302821FF302821FF302821FF302821FF
310
302821FF302821FF302821FF302821FF302821FF302821FF302821FF302821FF302821FF302821FF302821FF302821FF302821FF302821FF302821FF302821FF302821FF302821FF
102
{BLKREFS
331
A2A
102
}
  0
ENDTAB
  0
ENDSEC
  0
SECTION
  2
BLOCKS
  0
BLOCK
  5
D
330
A
100
AcDbEntity
  8
0
370
    -1
100
AcDbBlockBegin
  2
*MODEL_SPACE
 70
     0
 10
0.0
 20
0.0
 30
0.0
  3
*MODEL_SPACE
  1

  0
ENDBLK
  5
E
330
A
100
AcDbEntity
  8
0
370
    -1
100
AcDbBlockEnd
  0
BLOCK
  5
F
330
B
100
AcDbEntity
 67
     1
  8
0
370
    -1
100
AcDbBlockBegin
  2
*PAPER_SPACE
 70
     0
 10
0.0
 20
0.0
 30
0.0
  3
*PAPER_SPACE
  1

  0
ENDBLK
  5
10
330
B
100
AcDbEntity
 67
     1
  8
0
370
    -1
100
AcDbBlockEnd
  0
BLOCK
  5
457
330
2A8
100
AcDbEntity
  8
0
100
AcDbBlockBegin
  2
10x250CountersunkSMS-Phillips
 70
     0
 10
0.0
 20
0.0
 30
0.0
  3
10x250CountersunkSMS-Phillips
  1

  0
LINE
  5
2A9
330
2A8
100
AcDbEntity
  8
0
100
AcDbLine
 10
-1.098895081595152
 20
0.0705000000000124
 30
0.0
 11
-1.132104918404861
 21
0.0705000000000124
 31
0.0
  0
LINE
  5
2AA
330
2A8
100
AcDbEntity
  8
0
100
AcDbLine
 10
-1.115000000000001
 20
-0.0950000000000086
 30
0.0
 11
-1.100854918404855
 21
-0.0705000000000089
 31
0.0
  0
LINE
  5
2AB
330
2A8
100
AcDbEntity
  8
0
100
AcDbLine
 10
-1.100854918404857
 20
-0.0705000000000124
 30
0.0
 11
-1.132104918404855
 21
0.0704999999999876
 31
0.0
  0
LINE
  5
2AC
330
2A8
100
AcDbEntity
  8
0
100
AcDbLine
 10
-2.036395081595146
 20
0.0704999999999991
 30
0.0
 11
-2.069604918404855
 21
0.0704999999999982
 31
0.0
  0
LINE
  5
2AD
330
2A8
100
AcDbEntity
  8
0
100
AcDbLine
 10
-2.052500000000001
 20
-0.0949999999999971
 30
0.0
 11
-2.038354918404855
 21
-0.0704999999999973
 31
0.0
  0
LINE
  5
2AE
330
2A8
100
AcDbEntity
  8
0
100
AcDbLine
 10
-2.038354918404857
 20
-0.0705000000000009
 30
0.0
 11
-2.069604918404855
 21
0.0704999999999991
 31
0.0
  0
LINE
  5
2AF
330
2A8
100
AcDbEntity
  8
0
100
AcDbLine
 10
-2.396355995636887
 20
0.0707520836101994
 30
0.0
 11
-2.371749344122554
 21
-0.0788563575969414
 31
0.0
  0
LINE
  5
2B0
330
2A8
100
AcDbEntity
  8
0
100
AcDbLine
 10
-2.395355995636887
 20
0.0707520836101985
 30
0.0
 11
-2.370749344122554
 21
-0.0788563575969414
 31
0.0
  0
LINE
  5
2B1
330
2A8
100
AcDbEntity
  8
0
100
AcDbLine
 10
-2.100854918404857
 20
-0.0705000000000027
 30
0.0
 11
-2.132104918404855
 21
0.0704999999999973
 31
0.0
  0
LINE
  5
2B2
330
2A8
100
AcDbEntity
  8
0
100
AcDbLine
 10
-2.098895081595146
 20
0.0704999999999991
 30
0.0
 11
-2.067645081595146
 21
-0.0704999999999973
 31
0.0
  0
LINE
  5
2B3
330
2A8
100
AcDbEntity
  8
0
100
AcDbLine
 10
-2.163354918404857
 20
-0.0705000000000018
 30
0.0
 11
-2.194604918404855
 21
0.0704999999999982
 31
0.0
  0
LINE
  5
2B4
330
2A8
100
AcDbEntity
  8
0
100
AcDbLine
 10
-2.223895081595146
 20
0.0704999999999982
 30
0.0
 11
-2.192645081595146
 21
-0.0704999999999982
 31
0.0
  0
LINE
  5
2B5
330
2A8
100
AcDbEntity
  8
0
100
AcDbLine
 10
-2.225854918404857
 20
-0.0705000000000009
 30
0.0
 11
-2.257104918404855
 21
0.0704999999999991
 31
0.0
  0
LINE
  5
2B6
330
2A8
100
AcDbEntity
  8
0
100
AcDbLine
 10
-2.161395081595146
 20
0.0704999999999973
 30
0.0
 11
-2.130145081595146
 21
-0.0704999999999991
 31
0.0
  0
LINE
  5
2B7
330
2A8
100
AcDbEntity
  8
0
100
AcDbLine
 10
-2.288354918404858
 20
-0.0705000000000009
 30
0.0
 11
-2.319604918404856
 21
0.0704999999999991
 31
0.0
  0
LINE
  5
2B8
330
2A8
100
AcDbEntity
  8
0
100
AcDbLine
 10
-2.352362429541557
 20
0.0644943771892965
 30
0.0
 11
-2.317645081595147
 21
-0.0704999999999973
 31
0.0
  0
LINE
  5
2B9
330
2A8
100
AcDbEntity
  8
0
100
AcDbLine
 10
-2.286395081595146
 20
0.0704999999999991
 30
0.0
 11
-2.255145081595146
 21
-0.0704999999999973
 31
0.0
  0
LINE
  5
2BA
330
2A8
100
AcDbEntity
  8
0
100
AcDbLine
 10
-2.084750000000001
 20
0.0949999999999989
 30
0.0
 11
-2.053500000000001
 21
-0.0949999999999971
 31
0.0
  0
LINE
  5
2BB
330
2A8
100
AcDbEntity
  8
0
100
AcDbLine
 10
-2.083750000000001
 20
0.0949999999999989
 30
0.0
 11
-2.052500000000001
 21
-0.0949999999999971
 31
0.0
  0
LINE
  5
2BC
330
2A8
100
AcDbEntity
  8
0
100
AcDbLine
 10
-2.147250000000001
 20
0.0949999999999971
 30
0.0
 11
-2.116000000000001
 21
-0.0949999999999989
 31
0.0
  0
LINE
  5
2BD
330
2A8
100
AcDbEntity
  8
0
100
AcDbLine
 10
-2.146250000000001
 20
0.0949999999999971
 30
0.0
 11
-2.115000000000001
 21
-0.0949999999999989
 31
0.0
  0
LINE
  5
2BE
330
2A8
100
AcDbEntity
  8
0
100
AcDbLine
 10
-2.209750000000001
 20
0.094999999999998
 30
0.0
 11
-2.178500000000001
 21
-0.094999999999998
 31
0.0
  0
LINE
  5
2BF
330
2A8
100
AcDbEntity
  8
0
100
AcDbLine
 10
-2.208750000000001
 20
0.094999999999998
 30
0.0
 11
-2.177500000000001
 21
-0.094999999999998
 31
0.0
  0
LINE
  5
2C0
330
2A8
100
AcDbEntity
  8
0
100
AcDbLine
 10
-2.271250000000001
 20
0.0949999999999989
 30
0.0
 11
-2.240000000000001
 21
-0.0949999999999971
 31
0.0
  0
LINE
  5
2C1
330
2A8
100
AcDbEntity
  8
0
100
AcDbLine
 10
-2.272250000000001
 20
0.0949999999999989
 30
0.0
 11
-2.241000000000001
 21
-0.0949999999999971
 31
0.0
  0
LINE
  5
2C2
330
2A8
100
AcDbEntity
  8
0
100
AcDbLine
 10
-2.334750000000001
 20
0.0949999999999989
 30
0.0
 11
-2.303500000000001
 21
-0.0949999999999971
 31
0.0
  0
LINE
  5
2C3
330
2A8
100
AcDbEntity
  8
0
100
AcDbLine
 10
-2.333750000000002
 20
0.0949999999999989
 30
0.0
 11
-2.302500000000002
 21
-0.0949999999999971
 31
0.0
  0
LINE
  5
2C4
330
2A8
100
AcDbEntity
  8
0
100
AcDbLine
 10
-2.396355995636887
 20
0.0707520836101994
 30
0.0
 11
-2.414932218341164
 21
0.0385771220736784
 31
0.0
  0
LINE
  5
2C5
330
2A8
100
AcDbEntity
  8
0
100
AcDbLine
 10
-2.395355995636887
 20
0.0707520836101985
 30
0.0
 11
-2.38386530882029
 21
0.051445457338243
 31
0.0
  0
LINE
  5
2C6
330
2A8
100
AcDbEntity
  8
0
100
AcDbLine
 10
-2.38386530882029
 20
0.051445457338243
 30
0.0
 11
-2.352362429541558
 21
0.0644943771892974
 31
0.0
  0
LINE
  5
2C7
330
2A8
100
AcDbEntity
  8
0
100
AcDbLine
 10
-2.255145081595144
 20
-0.0705
 30
0.0
 11
-2.288354918404858
 21
-0.0705
 31
0.0
  0
LINE
  5
2C8
330
2A8
100
AcDbEntity
  8
0
100
AcDbLine
 10
-2.414932218341164
 20
0.0385771220736784
 30
0.0
 11
-2.389278198355834
 21
-0.0492033650809942
 31
0.0
  0
LINE
  5
2C9
330
2A8
100
AcDbEntity
  8
0
100
AcDbLine
 10
-2.432385302811058
 20
-0.0313478177810032
 30
0.0
 11
-2.389278198355834
 21
-0.0492033650809942
 31
0.0
  0
LINE
  5
2CA
330
2A8
100
AcDbEntity
  8
0
100
AcDbLine
 10
-2.442453114782015
 20
-0.0487857796357467
 30
0.0
 11
-2.443453114782013
 21
-0.0487857796357467
 31
0.0
  0
LINE
  5
2CB
330
2A8
100
AcDbEntity
  8
0
100
AcDbLine
 10
-2.452038078991836
 20
0.0094908027599647
 30
0.0
 11
-2.442453114782018
 21
-0.0487857796357467
 31
0.0
  0
LINE
  5
2CC
330
2A8
100
AcDbEntity
  8
0
100
AcDbLine
 10
-2.453110140423989
 20
0.0099289362674533
 30
0.0
 11
-2.443453114782018
 21
-0.0487857796357458
 31
0.0
  0
LINE
  5
2CD
330
2A8
100
AcDbEntity
  8
0
100
AcDbLine
 10
-2.443453114782015
 20
-0.0487857796357467
 30
0.0
 11
-2.461154316693391
 21
-0.0194313020548424
 31
0.0
  0
LINE
  5
2CE
330
2A8
100
AcDbEntity
  8
0
100
AcDbLine
 10
-2.452797700646284
 20
0.0110693024190134
 30
0.0
 11
-2.461154316693391
 21
-0.0194313020548424
 31
0.0
  0
ARC
  5
2CF
330
2A8
100
AcDbEntity
  8
0
100
AcDbCircle
 10
-2.495
 20
-0.0000000000000009
 30
0.0
 40
0.005
100
AcDbArc
 50
112.499999999994
 51
247.4999999999982
  0
LINE
  5
2D0
330
2A8
100
AcDbEntity
  8
0
100
AcDbLine
 10
-2.496913417161823
 20
-0.0046193976625499
 30
0.0
 11
-2.46115431669339
 21
-0.0194313020548398
 31
0.0
  0
LINE
  5
2D1
330
2A8
100
AcDbEntity
  8
0
100
AcDbLine
 10
-2.452797700646284
 20
0.0110693024190134
 30
0.0
 11
-2.432385302811061
 21
-0.0313478177810023
 31
0.0
  0
LINE
  5
2D2
330
2A8
100
AcDbEntity
  8
0
100
AcDbLine
 10
-2.496913417161827
 20
0.0046193976625597
 30
0.0
 11
-2.414932218341165
 21
0.0385771220736784
 31
0.0
  0
LINE
  5
2D3
330
2A8
100
AcDbEntity
  8
0
100
AcDbLine
 10
-2.442453114782015
 20
-0.0487857796357467
 30
0.0
 11
-2.432385302811061
 21
-0.0313478177810023
 31
0.0
  0
LINE
  5
2D4
330
2A8
100
AcDbEntity
  8
0
100
AcDbLine
 10
-2.302500000000002
 20
-0.0949999999999971
 30
0.0
 11
-2.288354918404856
 21
-0.0704999999999973
 31
0.0
  0
LINE
  5
2D5
330
2A8
100
AcDbEntity
  8
0
100
AcDbLine
 10
-2.302500000000003
 20
-0.0949999999999989
 30
0.0
 11
-2.303500000000001
 21
-0.0949999999999989
 31
0.0
  0
LINE
  5
2D6
330
2A8
100
AcDbEntity
  8
0
100
AcDbLine
 10
-2.360509184473499
 20
-0.0611198808071594
 30
0.0
 11
-2.383865308820287
 21
0.0514454573382404
 31
0.0
  0
LINE
  5
2D7
330
2A8
100
AcDbEntity
  8
0
100
AcDbLine
 10
-2.317645081595145
 20
-0.0705000000000009
 30
0.0
 11
-2.337863573501457
 21
-0.0705
 31
0.0
  0
LINE
  5
2D8
330
2A8
100
AcDbEntity
  8
0
100
AcDbLine
 10
-2.371749344122554
 20
-0.0788563575969414
 30
0.0
 11
-2.389278198355833
 21
-0.0492033650809942
 31
0.0
  0
LINE
  5
2D9
330
2A8
100
AcDbEntity
  8
0
100
AcDbLine
 10
-2.370749344122556
 20
-0.0788563575969414
 30
0.0
 11
-2.371749344122554
 21
-0.0788563575969414
 31
0.0
  0
LINE
  5
2DA
330
2A8
100
AcDbEntity
  8
0
100
AcDbLine
 10
-2.370749344122555
 20
-0.0788563575969414
 30
0.0
 11
-2.360509184473499
 21
-0.0611198808071585
 31
0.0
  0
LINE
  5
2DB
330
2A8
100
AcDbEntity
  8
0
100
AcDbLine
 10
-2.360509184473498
 20
-0.0611198808071567
 30
0.0
 11
-2.337863573501457
 21
-0.0705
 31
0.0
  0
LINE
  5
2DC
330
2A8
100
AcDbEntity
  8
0
100
AcDbLine
 10
-2.303500000000001
 20
-0.0949999999999971
 30
0.0
 11
-2.317645081595147
 21
-0.0704999999999973
 31
0.0
  0
LINE
  5
2DD
330
2A8
100
AcDbEntity
  8
0
100
AcDbLine
 10
-2.177500000000001
 20
-0.094999999999998
 30
0.0
 11
-2.163354918404855
 21
-0.0704999999999982
 31
0.0
  0
LINE
  5
2DE
330
2A8
100
AcDbEntity
  8
0
100
AcDbLine
 10
-2.177500000000002
 20
-0.0949999999999998
 30
0.0
 11
-2.178499999999999
 21
-0.0950000000000006
 31
0.0
  0
LINE
  5
2DF
330
2A8
100
AcDbEntity
  8
0
100
AcDbLine
 10
-2.178500000000001
 20
-0.094999999999998
 30
0.0
 11
-2.192645081595146
 21
-0.0704999999999982
 31
0.0
  0
LINE
  5
2E0
330
2A8
100
AcDbEntity
  8
0
100
AcDbLine
 10
-2.240000000000001
 20
-0.0949999999999971
 30
0.0
 11
-2.225854918404855
 21
-0.0704999999999973
 31
0.0
  0
LINE
  5
2E1
330
2A8
100
AcDbEntity
  8
0
100
AcDbLine
 10
-2.241000000000001
 20
-0.0949999999999971
 30
0.0
 11
-2.255145081595146
 21
-0.0704999999999973
 31
0.0
  0
LINE
  5
2E2
330
2A8
100
AcDbEntity
  8
0
100
AcDbLine
 10
-2.240000000000002
 20
-0.0949999999999998
 30
0.0
 11
-2.240999999999999
 21
-0.0949999999999989
 31
0.0
  0
LINE
  5
2E3
330
2A8
100
AcDbEntity
  8
0
100
AcDbLine
 10
-2.192645081595145
 20
-0.0705
 30
0.0
 11
-2.225854918404857
 21
-0.0705000000000009
 31
0.0
  0
LINE
  5
2E4
330
2A8
100
AcDbEntity
  8
0
100
AcDbLine
 10
-2.053500000000001
 20
-0.0949999999999971
 30
0.0
 11
-2.067645081595146
 21
-0.0704999999999973
 31
0.0
  0
LINE
  5
2E5
330
2A8
100
AcDbEntity
  8
0
100
AcDbLine
 10
-2.052500000000001
 20
-0.0949999999999989
 30
0.0
 11
-2.0535
 21
-0.0949999999999998
 31
0.0
  0
LINE
  5
2E6
330
2A8
100
AcDbEntity
  8
0
100
AcDbLine
 10
-2.115000000000001
 20
-0.0949999999999998
 30
0.0
 11
-2.116000000000001
 21
-0.0949999999999998
 31
0.0
  0
LINE
  5
2E7
330
2A8
100
AcDbEntity
  8
0
100
AcDbLine
 10
-2.115000000000001
 20
-0.0949999999999989
 30
0.0
 11
-2.100854918404855
 21
-0.0704999999999991
 31
0.0
  0
LINE
  5
2E8
330
2A8
100
AcDbEntity
  8
0
100
AcDbLine
 10
-2.130145081595145
 20
-0.0705
 30
0.0
 11
-2.163354918404857
 21
-0.0705000000000009
 31
0.0
  0
LINE
  5
2E9
330
2A8
100
AcDbEntity
  8
0
100
AcDbLine
 10
-2.116000000000001
 20
-0.0949999999999989
 30
0.0
 11
-2.130145081595146
 21
-0.0704999999999991
 31
0.0
  0
LINE
  5
2EA
330
2A8
100
AcDbEntity
  8
0
100
AcDbLine
 10
-2.067645081595144
 20
-0.0705
 30
0.0
 11
-2.100854918404856
 21
-0.0705
 31
0.0
  0
LINE
  5
2EB
330
2A8
100
AcDbEntity
  8
0
100
AcDbLine
 10
-2.272250000000001
 20
0.0949999999999989
 30
0.0
 11
-2.286395081595146
 21
0.0704999999999991
 31
0.0
  0
LINE
  5
2EC
330
2A8
100
AcDbEntity
  8
0
100
AcDbLine
 10
-2.333750000000002
 20
0.0949999999999989
 30
0.0
 11
-2.319604918404856
 21
0.0704999999999991
 31
0.0
  0
LINE
  5
2ED
330
2A8
100
AcDbEntity
  8
0
100
AcDbLine
 10
-2.333750000000002
 20
0.0949999999999989
 30
0.0
 11
-2.334750000000001
 21
0.0949999999999998
 31
0.0
  0
LINE
  5
2EE
330
2A8
100
AcDbEntity
  8
0
100
AcDbLine
 10
-2.334750000000001
 20
0.0949999999999989
 30
0.0
 11
-2.352362429541557
 21
0.0644943771892974
 31
0.0
  0
LINE
  5
2EF
330
2A8
100
AcDbEntity
  8
0
100
AcDbLine
 10
-2.395355995636889
 20
0.0707520836101985
 30
0.0
 11
-2.396355995636887
 21
0.0707520836101994
 31
0.0
  0
LINE
  5
2F0
330
2A8
100
AcDbEntity
  8
0
100
AcDbLine
 10
-2.286395081595146
 20
0.0704999999999991
 30
0.0
 11
-2.319604918404856
 21
0.0704999999999991
 31
0.0
  0
LINE
  5
2F1
330
2A8
100
AcDbEntity
  8
0
100
AcDbLine
 10
-2.161395081595146
 20
0.0704999999999982
 30
0.0
 11
-2.194604918404855
 21
0.0704999999999991
 31
0.0
  0
LINE
  5
2F2
330
2A8
100
AcDbEntity
  8
0
100
AcDbLine
 10
-2.208750000000002
 20
0.094999999999998
 30
0.0
 11
-2.20975
 21
0.0949999999999998
 31
0.0
  0
LINE
  5
2F3
330
2A8
100
AcDbEntity
  8
0
100
AcDbLine
 10
-2.209750000000001
 20
0.094999999999998
 30
0.0
 11
-2.223895081595146
 21
0.0704999999999982
 31
0.0
  0
LINE
  5
2F4
330
2A8
100
AcDbEntity
  8
0
100
AcDbLine
 10
-2.271250000000001
 20
0.0949999999999989
 30
0.0
 11
-2.257104918404855
 21
0.0704999999999991
 31
0.0
  0
LINE
  5
2F5
330
2A8
100
AcDbEntity
  8
0
100
AcDbLine
 10
-2.271250000000001
 20
0.0949999999999998
 30
0.0
 11
-2.272250000000001
 21
0.0949999999999989
 31
0.0
  0
LINE
  5
2F6
330
2A8
100
AcDbEntity
  8
0
100
AcDbLine
 10
-2.223895081595145
 20
0.0704999999999991
 30
0.0
 11
-2.257104918404855
 21
0.0704999999999991
 31
0.0
  0
LINE
  5
2F7
330
2A8
100
AcDbEntity
  8
0
100
AcDbLine
 10
-2.208750000000001
 20
0.094999999999998
 30
0.0
 11
-2.194604918404855
 21
0.0704999999999982
 31
0.0
  0
LINE
  5
2F8
330
2A8
100
AcDbEntity
  8
0
100
AcDbLine
 10
-2.084750000000001
 20
0.0949999999999989
 30
0.0
 11
-2.098895081595146
 21
0.0704999999999991
 31
0.0
  0
LINE
  5
2F9
330
2A8
100
AcDbEntity
  8
0
100
AcDbLine
 10
-2.146250000000001
 20
0.0949999999999971
 30
0.0
 11
-2.132104918404855
 21
0.0704999999999973
 31
0.0
  0
LINE
  5
2FA
330
2A8
100
AcDbEntity
  8
0
100
AcDbLine
 10
-2.146250000000001
 20
0.0949999999999989
 30
0.0
 11
-2.14725
 21
0.0949999999999989
 31
0.0
  0
LINE
  5
2FB
330
2A8
100
AcDbEntity
  8
0
100
AcDbLine
 10
-2.147250000000001
 20
0.0949999999999971
 30
0.0
 11
-2.161395081595146
 21
0.0704999999999973
 31
0.0
  0
LINE
  5
2FC
330
2A8
100
AcDbEntity
  8
0
100
AcDbLine
 10
-2.098895081595146
 20
0.0704999999999973
 30
0.0
 11
-2.132104918404855
 21
0.0704999999999982
 31
0.0
  0
LINE
  5
2FD
330
2A8
100
AcDbEntity
  8
0
100
AcDbLine
 10
-2.08375
 20
0.0949999999999989
 30
0.0
 11
-2.084750000000001
 21
0.0949999999999989
 31
0.0
  0
LINE
  5
2FE
330
2A8
100
AcDbEntity
  8
0
100
AcDbLine
 10
-2.083750000000001
 20
0.0949999999999989
 30
0.0
 11
-2.069604918404855
 21
0.0704999999999991
 31
0.0
  0
LINE
  5
2FF
330
2A8
100
AcDbEntity
  8
0
100
AcDbLine
 10
-1.536395081595146
 20
0.0704999999999929
 30
0.0
 11
-1.505145081595146
 21
-0.0705000000000036
 31
0.0
  0
LINE
  5
300
330
2A8
100
AcDbEntity
  8
0
100
AcDbLine
 10
-1.475854918404857
 20
-0.0705000000000071
 30
0.0
 11
-1.507104918404855
 21
0.0704999999999929
 31
0.0
  0
LINE
  5
301
330
2A8
100
AcDbEntity
  8
0
100
AcDbLine
 10
-1.522250000000001
 20
0.0949999999999926
 30
0.0
 11
-1.491000000000001
 21
-0.0950000000000033
 31
0.0
  0
LINE
  5
302
330
2A8
100
AcDbEntity
  8
0
100
AcDbLine
 10
-1.521250000000001
 20
0.0949999999999926
 30
0.0
 11
-1.490000000000001
 21
-0.0950000000000033
 31
0.0
  0
LINE
  5
303
330
2A8
100
AcDbEntity
  8
0
100
AcDbLine
 10
-1.538354918404857
 20
-0.0705000000000062
 30
0.0
 11
-1.569604918404855
 21
0.0704999999999938
 31
0.0
  0
LINE
  5
304
330
2A8
100
AcDbEntity
  8
0
100
AcDbLine
 10
-1.598895081595146
 20
0.0704999999999938
 30
0.0
 11
-1.567645081595146
 21
-0.0705000000000027
 31
0.0
  0
LINE
  5
305
330
2A8
100
AcDbEntity
  8
0
100
AcDbLine
 10
-1.584750000000001
 20
0.0949999999999935
 30
0.0
 11
-1.553500000000001
 21
-0.0950000000000024
 31
0.0
  0
LINE
  5
306
330
2A8
100
AcDbEntity
  8
0
100
AcDbLine
 10
-1.583750000000001
 20
0.0949999999999935
 30
0.0
 11
-1.552500000000001
 21
-0.0950000000000024
 31
0.0
  0
LINE
  5
307
330
2A8
100
AcDbEntity
  8
0
100
AcDbLine
 10
-1.161395081595146
 20
0.0704999999999876
 30
0.0
 11
-1.130145081595146
 21
-0.0705000000000089
 31
0.0
  0
LINE
  5
308
330
2A8
100
AcDbEntity
  8
0
100
AcDbLine
 10
-1.147250000000001
 20
0.0949999999999873
 30
0.0
 11
-1.116000000000001
 21
-0.0950000000000086
 31
0.0
  0
LINE
  5
309
330
2A8
100
AcDbEntity
  8
0
100
AcDbLine
 10
-1.146250000000001
 20
0.0949999999999873
 30
0.0
 11
-1.115000000000001
 21
-0.0950000000000086
 31
0.0
  0
LINE
  5
30A
330
2A8
100
AcDbEntity
  8
0
100
AcDbLine
 10
-1.223895081595146
 20
0.0704999999999885
 30
0.0
 11
-1.192645081595146
 21
-0.070500000000008
 31
0.0
  0
LINE
  5
30B
330
2A8
100
AcDbEntity
  8
0
100
AcDbLine
 10
-1.163354918404857
 20
-0.0705000000000116
 30
0.0
 11
-1.194604918404855
 21
0.0704999999999885
 31
0.0
  0
LINE
  5
30C
330
2A8
100
AcDbEntity
  8
0
100
AcDbLine
 10
-1.209750000000001
 20
0.0949999999999882
 30
0.0
 11
-1.178500000000001
 21
-0.0950000000000077
 31
0.0
  0
LINE
  5
30D
330
2A8
100
AcDbEntity
  8
0
100
AcDbLine
 10
-1.208750000000001
 20
0.0949999999999882
 30
0.0
 11
-1.177500000000001
 21
-0.0950000000000077
 31
0.0
  0
LINE
  5
30E
330
2A8
100
AcDbEntity
  8
0
100
AcDbLine
 10
-1.286395081595146
 20
0.0704999999999893
 30
0.0
 11
-1.255145081595146
 21
-0.0705000000000071
 31
0.0
  0
LINE
  5
30F
330
2A8
100
AcDbEntity
  8
0
100
AcDbLine
 10
-1.225854918404857
 20
-0.0705000000000107
 30
0.0
 11
-1.257104918404855
 21
0.0704999999999893
 31
0.0
  0
LINE
  5
310
330
2A8
100
AcDbEntity
  8
0
100
AcDbLine
 10
-1.272250000000001
 20
0.0949999999999891
 30
0.0
 11
-1.241000000000001
 21
-0.0950000000000069
 31
0.0
  0
LINE
  5
311
330
2A8
100
AcDbEntity
  8
0
100
AcDbLine
 10
-1.271250000000001
 20
0.0949999999999891
 30
0.0
 11
-1.240000000000001
 21
-0.0950000000000069
 31
0.0
  0
LINE
  5
312
330
2A8
100
AcDbEntity
  8
0
100
AcDbLine
 10
-1.413354918404857
 20
-0.070500000000008
 30
0.0
 11
-1.444604918404855
 21
0.070499999999992
 31
0.0
  0
LINE
  5
313
330
2A8
100
AcDbEntity
  8
0
100
AcDbLine
 10
-1.459750000000001
 20
0.0949999999999918
 30
0.0
 11
-1.428500000000001
 21
-0.0950000000000042
 31
0.0
  0
LINE
  5
314
330
2A8
100
AcDbEntity
  8
0
100
AcDbLine
 10
-1.458750000000001
 20
0.0949999999999918
 30
0.0
 11
-1.427500000000001
 21
-0.0950000000000042
 31
0.0
  0
LINE
  5
315
330
2A8
100
AcDbEntity
  8
0
100
AcDbLine
 10
-1.473895081595146
 20
0.070499999999992
 30
0.0
 11
-1.442645081595146
 21
-0.0705000000000044
 31
0.0
  0
LINE
  5
316
330
2A8
100
AcDbEntity
  8
0
100
AcDbLine
 10
-1.288354918404857
 20
-0.0705000000000098
 30
0.0
 11
-1.319604918404855
 21
0.0704999999999902
 31
0.0
  0
LINE
  5
317
330
2A8
100
AcDbEntity
  8
0
100
AcDbLine
 10
-1.350854918404857
 20
-0.0705000000000089
 30
0.0
 11
-1.382104918404855
 21
0.0704999999999911
 31
0.0
  0
LINE
  5
318
330
2A8
100
AcDbEntity
  8
0
100
AcDbLine
 10
-1.411395081595146
 20
0.0704999999999911
 30
0.0
 11
-1.380145081595146
 21
-0.0705000000000053
 31
0.0
  0
LINE
  5
319
330
2A8
100
AcDbEntity
  8
0
100
AcDbLine
 10
-1.348895081595146
 20
0.0704999999999902
 30
0.0
 11
-1.317645081595146
 21
-0.0705000000000062
 31
0.0
  0
LINE
  5
31A
330
2A8
100
AcDbEntity
  8
0
100
AcDbLine
 10
-1.333750000000001
 20
0.09499999999999
 30
0.0
 11
-1.302500000000001
 21
-0.095000000000006
 31
0.0
  0
LINE
  5
31B
330
2A8
100
AcDbEntity
  8
0
100
AcDbLine
 10
-1.334750000000001
 20
0.09499999999999
 30
0.0
 11
-1.303500000000001
 21
-0.095000000000006
 31
0.0
  0
LINE
  5
31C
330
2A8
100
AcDbEntity
  8
0
100
AcDbLine
 10
-1.397250000000001
 20
0.0949999999999909
 30
0.0
 11
-1.366000000000001
 21
-0.0950000000000051
 31
0.0
  0
LINE
  5
31D
330
2A8
100
AcDbEntity
  8
0
100
AcDbLine
 10
-1.396250000000001
 20
0.0949999999999909
 30
0.0
 11
-1.365000000000001
 21
-0.0950000000000051
 31
0.0
  0
LINE
  5
31E
330
2A8
100
AcDbEntity
  8
0
100
AcDbLine
 10
-2.036395081595146
 20
0.0704999999999991
 30
0.0
 11
-2.005145081595146
 21
-0.0704999999999973
 31
0.0
  0
LINE
  5
31F
330
2A8
100
AcDbEntity
  8
0
100
AcDbLine
 10
-1.975854918404857
 20
-0.0705000000000009
 30
0.0
 11
-2.007104918404855
 21
0.0704999999999991
 31
0.0
  0
LINE
  5
320
330
2A8
100
AcDbEntity
  8
0
100
AcDbLine
 10
-2.022250000000001
 20
0.0949999999999989
 30
0.0
 11
-1.991000000000001
 21
-0.0949999999999971
 31
0.0
  0
LINE
  5
321
330
2A8
100
AcDbEntity
  8
0
100
AcDbLine
 10
-2.021250000000001
 20
0.0949999999999989
 30
0.0
 11
-1.990000000000001
 21
-0.0949999999999971
 31
0.0
  0
LINE
  5
322
330
2A8
100
AcDbEntity
  8
0
100
AcDbLine
 10
-1.911395081595146
 20
0.0704999999999982
 30
0.0
 11
-1.880145081595146
 21
-0.0704999999999982
 31
0.0
  0
LINE
  5
323
330
2A8
100
AcDbEntity
  8
0
100
AcDbLine
 10
-1.973895081595146
 20
0.0704999999999991
 30
0.0
 11
-1.942645081595146
 21
-0.0704999999999973
 31
0.0
  0
LINE
  5
324
330
2A8
100
AcDbEntity
  8
0
100
AcDbLine
 10
-1.913354918404857
 20
-0.0705000000000009
 30
0.0
 11
-1.944604918404855
 21
0.0704999999999991
 31
0.0
  0
LINE
  5
325
330
2A8
100
AcDbEntity
  8
0
100
AcDbLine
 10
-1.959750000000001
 20
0.0949999999999989
 30
0.0
 11
-1.928500000000001
 21
-0.0949999999999971
 31
0.0
  0
LINE
  5
326
330
2A8
100
AcDbEntity
  8
0
100
AcDbLine
 10
-1.958750000000001
 20
0.0949999999999989
 30
0.0
 11
-1.927500000000001
 21
-0.0949999999999971
 31
0.0
  0
LINE
  5
327
330
2A8
100
AcDbEntity
  8
0
100
AcDbLine
 10
-1.661395081595146
 20
0.0704999999999947
 30
0.0
 11
-1.630145081595146
 21
-0.0705000000000018
 31
0.0
  0
LINE
  5
328
330
2A8
100
AcDbEntity
  8
0
100
AcDbLine
 10
-1.723895081595146
 20
0.0704999999999956
 30
0.0
 11
-1.692645081595146
 21
-0.0705000000000009
 31
0.0
  0
LINE
  5
329
330
2A8
100
AcDbEntity
  8
0
100
AcDbLine
 10
-1.725854918404857
 20
-0.0705000000000036
 30
0.0
 11
-1.757104918404855
 21
0.0704999999999965
 31
0.0
  0
LINE
  5
32A
330
2A8
100
AcDbEntity
  8
0
100
AcDbLine
 10
-1.786395081595146
 20
0.0704999999999965
 30
0.0
 11
-1.755145081595146
 21
-0.0705
 31
0.0
  0
LINE
  5
32B
330
2A8
100
AcDbEntity
  8
0
100
AcDbLine
 10
-1.663354918404857
 20
-0.0705000000000044
 30
0.0
 11
-1.694604918404855
 21
0.0704999999999956
 31
0.0
  0
LINE
  5
32C
330
2A8
100
AcDbEntity
  8
0
100
AcDbLine
 10
-1.848895081595146
 20
0.0704999999999973
 30
0.0
 11
-1.817645081595146
 21
-0.0704999999999991
 31
0.0
  0
LINE
  5
32D
330
2A8
100
AcDbEntity
  8
0
100
AcDbLine
 10
-1.850854918404857
 20
-0.0705000000000018
 30
0.0
 11
-1.882104918404855
 21
0.0704999999999982
 31
0.0
  0
LINE
  5
32E
330
2A8
100
AcDbEntity
  8
0
100
AcDbLine
 10
-1.788354918404857
 20
-0.0705000000000027
 30
0.0
 11
-1.819604918404855
 21
0.0704999999999973
 31
0.0
  0
LINE
  5
32F
330
2A8
100
AcDbEntity
  8
0
100
AcDbLine
 10
-1.771250000000001
 20
0.0949999999999962
 30
0.0
 11
-1.740000000000001
 21
-0.0949999999999998
 31
0.0
  0
LINE
  5
330
330
2A8
100
AcDbEntity
  8
0
100
AcDbLine
 10
-1.772250000000001
 20
0.0949999999999962
 30
0.0
 11
-1.741000000000001
 21
-0.0949999999999998
 31
0.0
  0
LINE
  5
331
330
2A8
100
AcDbEntity
  8
0
100
AcDbLine
 10
-1.834750000000001
 20
0.0949999999999971
 30
0.0
 11
-1.803500000000001
 21
-0.0949999999999989
 31
0.0
  0
LINE
  5
332
330
2A8
100
AcDbEntity
  8
0
100
AcDbLine
 10
-1.833750000000001
 20
0.0949999999999971
 30
0.0
 11
-1.802500000000001
 21
-0.0949999999999989
 31
0.0
  0
LINE
  5
333
330
2A8
100
AcDbEntity
  8
0
100
AcDbLine
 10
-1.897250000000001
 20
0.094999999999998
 30
0.0
 11
-1.866000000000001
 21
-0.094999999999998
 31
0.0
  0
LINE
  5
334
330
2A8
100
AcDbEntity
  8
0
100
AcDbLine
 10
-1.896250000000001
 20
0.094999999999998
 30
0.0
 11
-1.865000000000001
 21
-0.094999999999998
 31
0.0
  0
LINE
  5
335
330
2A8
100
AcDbEntity
  8
0
100
AcDbLine
 10
-1.709750000000001
 20
0.0949999999999953
 30
0.0
 11
-1.678500000000001
 21
-0.0950000000000006
 31
0.0
  0
LINE
  5
336
330
2A8
100
AcDbEntity
  8
0
100
AcDbLine
 10
-1.708750000000001
 20
0.0949999999999953
 30
0.0
 11
-1.677500000000001
 21
-0.0950000000000006
 31
0.0
  0
LINE
  5
337
330
2A8
100
AcDbEntity
  8
0
100
AcDbLine
 10
-1.647250000000001
 20
0.0949999999999944
 30
0.0
 11
-1.616000000000001
 21
-0.0950000000000015
 31
0.0
  0
LINE
  5
338
330
2A8
100
AcDbEntity
  8
0
100
AcDbLine
 10
-1.646250000000001
 20
0.0949999999999944
 30
0.0
 11
-1.615000000000001
 21
-0.0950000000000015
 31
0.0
  0
LINE
  5
339
330
2A8
100
AcDbEntity
  8
0
100
AcDbLine
 10
-1.600854918404857
 20
-0.0705000000000053
 30
0.0
 11
-1.632104918404855
 21
0.0704999999999947
 31
0.0
  0
LINE
  5
33A
330
2A8
100
AcDbEntity
  8
0
100
AcDbLine
 10
-1.567645081595146
 20
-0.0705000000000018
 30
0.0
 11
-1.600854918404853
 21
-0.0705
 31
0.0
  0
LINE
  5
33B
330
2A8
100
AcDbEntity
  8
0
100
AcDbLine
 10
-1.803500000000001
 20
-0.0949999999999989
 30
0.0
 11
-1.817645081595146
 21
-0.0704999999999991
 31
0.0
  0
LINE
  5
33C
330
2A8
100
AcDbEntity
  8
0
100
AcDbLine
 10
-1.928500000000001
 20
-0.0949999999999971
 30
0.0
 11
-1.942645081595146
 21
-0.0704999999999973
 31
0.0
  0
LINE
  5
33D
330
2A8
100
AcDbEntity
  8
0
100
AcDbLine
 10
-1.991000000000001
 20
-0.0949999999999971
 30
0.0
 11
-2.005145081595146
 21
-0.0704999999999973
 31
0.0
  0
LINE
  5
33E
330
2A8
100
AcDbEntity
  8
0
100
AcDbLine
 10
-1.990000000000001
 20
-0.0949999999999989
 30
0.0
 11
-1.991
 21
-0.0949999999999989
 31
0.0
  0
LINE
  5
33F
330
2A8
100
AcDbEntity
  8
0
100
AcDbLine
 10
-1.990000000000001
 20
-0.0949999999999971
 30
0.0
 11
-1.975854918404855
 21
-0.0704999999999973
 31
0.0
  0
LINE
  5
340
330
2A8
100
AcDbEntity
  8
0
100
AcDbLine
 10
-2.005145081595143
 20
-0.0705000000000009
 30
0.0
 11
-2.038354918404856
 21
-0.0705
 31
0.0
  0
LINE
  5
341
330
2A8
100
AcDbEntity
  8
0
100
AcDbLine
 10
-1.942645081595143
 20
-0.0705000000000018
 30
0.0
 11
-1.975854918404856
 21
-0.0705
 31
0.0
  0
LINE
  5
342
330
2A8
100
AcDbEntity
  8
0
100
AcDbLine
 10
-1.865000000000001
 20
-0.094999999999998
 30
0.0
 11
-1.850854918404855
 21
-0.0704999999999982
 31
0.0
  0
LINE
  5
343
330
2A8
100
AcDbEntity
  8
0
100
AcDbLine
 10
-1.866000000000001
 20
-0.094999999999998
 30
0.0
 11
-1.880145081595146
 21
-0.0704999999999982
 31
0.0
  0
LINE
  5
344
330
2A8
100
AcDbEntity
  8
0
100
AcDbLine
 10
-1.865000000000001
 20
-0.094999999999998
 30
0.0
 11
-1.866
 21
-0.0949999999999989
 31
0.0
  0
LINE
  5
345
330
2A8
100
AcDbEntity
  8
0
100
AcDbLine
 10
-1.927500000000002
 20
-0.0949999999999989
 30
0.0
 11
-1.928499999999999
 21
-0.0949999999999989
 31
0.0
  0
LINE
  5
346
330
2A8
100
AcDbEntity
  8
0
100
AcDbLine
 10
-1.927500000000001
 20
-0.0949999999999971
 30
0.0
 11
-1.913354918404855
 21
-0.0704999999999973
 31
0.0
  0
LINE
  5
347
330
2A8
100
AcDbEntity
  8
0
100
AcDbLine
 10
-1.880145081595145
 20
-0.0705000000000018
 30
0.0
 11
-1.913354918404857
 21
-0.0705000000000009
 31
0.0
  0
LINE
  5
348
330
2A8
100
AcDbEntity
  8
0
100
AcDbLine
 10
-1.817645081595146
 20
-0.0705000000000018
 30
0.0
 11
-1.850854918404858
 21
-0.0705000000000018
 31
0.0
  0
LINE
  5
349
330
2A8
100
AcDbEntity
  8
0
100
AcDbLine
 10
-1.692645081595147
 20
-0.0705000000000009
 30
0.0
 11
-1.725854918404858
 21
-0.0705
 31
0.0
  0
LINE
  5
34A
330
2A8
100
AcDbEntity
  8
0
100
AcDbLine
 10
-1.740000000000001
 20
-0.0949999999999998
 30
0.0
 11
-1.741
 21
-0.0950000000000006
 31
0.0
  0
LINE
  5
34B
330
2A8
100
AcDbEntity
  8
0
100
AcDbLine
 10
-1.741000000000001
 20
-0.0949999999999998
 30
0.0
 11
-1.755145081595146
 21
-0.0705
 31
0.0
  0
LINE
  5
34C
330
2A8
100
AcDbEntity
  8
0
100
AcDbLine
 10
-1.802500000000001
 20
-0.0949999999999989
 30
0.0
 11
-1.788354918404855
 21
-0.0704999999999991
 31
0.0
  0
LINE
  5
34D
330
2A8
100
AcDbEntity
  8
0
100
AcDbLine
 10
-1.802500000000001
 20
-0.0949999999999989
 30
0.0
 11
-1.8035
 21
-0.0949999999999998
 31
0.0
  0
LINE
  5
34E
330
2A8
100
AcDbEntity
  8
0
100
AcDbLine
 10
-1.755145081595147
 20
-0.0705000000000009
 30
0.0
 11
-1.788354918404858
 21
-0.0705000000000018
 31
0.0
  0
LINE
  5
34F
330
2A8
100
AcDbEntity
  8
0
100
AcDbLine
 10
-1.740000000000001
 20
-0.0949999999999998
 30
0.0
 11
-1.725854918404855
 21
-0.0705
 31
0.0
  0
LINE
  5
350
330
2A8
100
AcDbEntity
  8
0
100
AcDbLine
 10
-1.616000000000001
 20
-0.0950000000000015
 30
0.0
 11
-1.630145081595146
 21
-0.0705000000000018
 31
0.0
  0
LINE
  5
351
330
2A8
100
AcDbEntity
  8
0
100
AcDbLine
 10
-1.677500000000001
 20
-0.0950000000000006
 30
0.0
 11
-1.663354918404855
 21
-0.0705000000000009
 31
0.0
  0
LINE
  5
352
330
2A8
100
AcDbEntity
  8
0
100
AcDbLine
 10
-1.677500000000001
 20
-0.0950000000000006
 30
0.0
 11
-1.6785
 21
-0.0950000000000015
 31
0.0
  0
LINE
  5
353
330
2A8
100
AcDbEntity
  8
0
100
AcDbLine
 10
-1.678500000000001
 20
-0.0950000000000006
 30
0.0
 11
-1.692645081595146
 21
-0.0705000000000009
 31
0.0
  0
LINE
  5
354
330
2A8
100
AcDbEntity
  8
0
100
AcDbLine
 10
-1.630145081595146
 20
-0.0705000000000009
 30
0.0
 11
-1.663354918404854
 21
-0.0705
 31
0.0
  0
LINE
  5
355
330
2A8
100
AcDbEntity
  8
0
100
AcDbLine
 10
-1.615000000000001
 20
-0.0950000000000015
 30
0.0
 11
-1.616
 21
-0.0950000000000024
 31
0.0
  0
LINE
  5
356
330
2A8
100
AcDbEntity
  8
0
100
AcDbLine
 10
-1.615000000000001
 20
-0.0950000000000015
 30
0.0
 11
-1.600854918404855
 21
-0.0705000000000018
 31
0.0
  0
LINE
  5
357
330
2A8
100
AcDbEntity
  8
0
100
AcDbLine
 10
-1.317645081595147
 20
-0.0705000000000027
 30
0.0
 11
-1.350854918404859
 21
-0.0705000000000036
 31
0.0
  0
LINE
  5
358
330
2A8
100
AcDbEntity
  8
0
100
AcDbLine
 10
-1.442645081595148
 20
-0.0705000000000018
 30
0.0
 11
-1.475854918404853
 21
-0.0705000000000009
 31
0.0
  0
LINE
  5
359
330
2A8
100
AcDbEntity
  8
0
100
AcDbLine
 10
-1.490000000000001
 20
-0.0950000000000033
 30
0.0
 11
-1.475854918404855
 21
-0.0705000000000036
 31
0.0
  0
LINE
  5
35A
330
2A8
100
AcDbEntity
  8
0
100
AcDbLine
 10
-1.490000000000001
 20
-0.0950000000000033
 30
0.0
 11
-1.491
 21
-0.0950000000000042
 31
0.0
  0
LINE
  5
35B
330
2A8
100
AcDbEntity
  8
0
100
AcDbLine
 10
-1.505145081595146
 20
-0.0705000000000009
 30
0.0
 11
-1.538354918404854
 21
-0.0705000000000009
 31
0.0
  0
LINE
  5
35C
330
2A8
100
AcDbEntity
  8
0
100
AcDbLine
 10
-1.553500000000001
 20
-0.0950000000000024
 30
0.0
 11
-1.567645081595146
 21
-0.0705000000000027
 31
0.0
  0
LINE
  5
35D
330
2A8
100
AcDbEntity
  8
0
100
AcDbLine
 10
-1.552500000000001
 20
-0.0950000000000024
 30
0.0
 11
-1.538354918404855
 21
-0.0705000000000027
 31
0.0
  0
LINE
  5
35E
330
2A8
100
AcDbEntity
  8
0
100
AcDbLine
 10
-1.552500000000001
 20
-0.0950000000000024
 30
0.0
 11
-1.5535
 21
-0.0950000000000033
 31
0.0
  0
LINE
  5
35F
330
2A8
100
AcDbEntity
  8
0
100
AcDbLine
 10
-1.491000000000001
 20
-0.0950000000000033
 30
0.0
 11
-1.505145081595146
 21
-0.0705000000000036
 31
0.0
  0
LINE
  5
360
330
2A8
100
AcDbEntity
  8
0
100
AcDbLine
 10
-1.365000000000001
 20
-0.0950000000000051
 30
0.0
 11
-1.350854918404855
 21
-0.0705000000000053
 31
0.0
  0
LINE
  5
361
330
2A8
100
AcDbEntity
  8
0
100
AcDbLine
 10
-1.365000000000001
 20
-0.0950000000000051
 30
0.0
 11
-1.366
 21
-0.095000000000006
 31
0.0
  0
LINE
  5
362
330
2A8
100
AcDbEntity
  8
0
100
AcDbLine
 10
-1.380145081595148
 20
-0.0705000000000027
 30
0.0
 11
-1.413354918404853
 21
-0.0705000000000018
 31
0.0
  0
LINE
  5
363
330
2A8
100
AcDbEntity
  8
0
100
AcDbLine
 10
-1.428500000000001
 20
-0.0950000000000042
 30
0.0
 11
-1.442645081595146
 21
-0.0705000000000044
 31
0.0
  0
LINE
  5
364
330
2A8
100
AcDbEntity
  8
0
100
AcDbLine
 10
-1.427500000000001
 20
-0.0950000000000042
 30
0.0
 11
-1.4285
 21
-0.0950000000000051
 31
0.0
  0
LINE
  5
365
330
2A8
100
AcDbEntity
  8
0
100
AcDbLine
 10
-1.427500000000001
 20
-0.0950000000000042
 30
0.0
 11
-1.413354918404855
 21
-0.0705000000000044
 31
0.0
  0
LINE
  5
366
330
2A8
100
AcDbEntity
  8
0
100
AcDbLine
 10
-1.366000000000001
 20
-0.0950000000000051
 30
0.0
 11
-1.380145081595146
 21
-0.0705000000000053
 31
0.0
  0
LINE
  5
367
330
2A8
100
AcDbEntity
  8
0
100
AcDbLine
 10
-1.240000000000001
 20
-0.0950000000000069
 30
0.0
 11
-1.225854918404855
 21
-0.0705000000000071
 31
0.0
  0
LINE
  5
368
330
2A8
100
AcDbEntity
  8
0
100
AcDbLine
 10
-1.240000000000001
 20
-0.0950000000000069
 30
0.0
 11
-1.241
 21
-0.0950000000000077
 31
0.0
  0
LINE
  5
369
330
2A8
100
AcDbEntity
  8
0
100
AcDbLine
 10
-1.241000000000001
 20
-0.0950000000000069
 30
0.0
 11
-1.255145081595146
 21
-0.0705000000000071
 31
0.0
  0
LINE
  5
36A
330
2A8
100
AcDbEntity
  8
0
100
AcDbLine
 10
-1.302500000000001
 20
-0.095000000000006
 30
0.0
 11
-1.288354918404855
 21
-0.0705000000000062
 31
0.0
  0
LINE
  5
36B
330
2A8
100
AcDbEntity
  8
0
100
AcDbLine
 10
-1.303500000000001
 20
-0.095000000000006
 30
0.0
 11
-1.317645081595146
 21
-0.0705000000000062
 31
0.0
  0
LINE
  5
36C
330
2A8
100
AcDbEntity
  8
0
100
AcDbLine
 10
-1.302500000000001
 20
-0.095000000000006
 30
0.0
 11
-1.3035
 21
-0.0950000000000069
 31
0.0
  0
LINE
  5
36D
330
2A8
100
AcDbEntity
  8
0
100
AcDbLine
 10
-1.255145081595147
 20
-0.0704999999999991
 30
0.0
 11
-1.28835491840486
 21
-0.0705000000000009
 31
0.0
  0
LINE
  5
36E
330
2A8
100
AcDbEntity
  8
0
100
AcDbLine
 10
-1.115000000000001
 20
-0.0950000000000086
 30
0.0
 11
-1.116
 21
-0.0950000000000095
 31
0.0
  0
LINE
  5
36F
330
2A8
100
AcDbEntity
  8
0
100
AcDbLine
 10
-1.116000000000001
 20
-0.0950000000000086
 30
0.0
 11
-1.130145081595146
 21
-0.0705000000000089
 31
0.0
  0
LINE
  5
370
330
2A8
100
AcDbEntity
  8
0
100
AcDbLine
 10
-1.192645081595149
 20
-0.0704999999999965
 30
0.0
 11
-1.225854918404861
 21
-0.0704999999999973
 31
0.0
  0
LINE
  5
371
330
2A8
100
AcDbEntity
  8
0
100
AcDbLine
 10
-1.177500000000001
 20
-0.0950000000000077
 30
0.0
 11
-1.1785
 21
-0.0950000000000086
 31
0.0
  0
LINE
  5
372
330
2A8
100
AcDbEntity
  8
0
100
AcDbLine
 10
-1.178500000000001
 20
-0.0950000000000077
 30
0.0
 11
-1.192645081595146
 21
-0.070500000000008
 31
0.0
  0
LINE
  5
373
330
2A8
100
AcDbEntity
  8
0
100
AcDbLine
 10
-1.177500000000001
 20
-0.0950000000000077
 30
0.0
 11
-1.163354918404855
 21
-0.070500000000008
 31
0.0
  0
LINE
  5
374
330
2A8
100
AcDbEntity
  8
0
100
AcDbLine
 10
-1.130145081595149
 20
-0.0704999999999929
 30
0.0
 11
-1.163354918404861
 21
-0.0704999999999947
 31
0.0
  0
LINE
  5
375
330
2A8
100
AcDbEntity
  8
0
100
AcDbLine
 10
-1.583750000000001
 20
0.0949999999999935
 30
0.0
 11
-1.569604918404855
 21
0.0704999999999938
 31
0.0
  0
LINE
  5
376
330
2A8
100
AcDbEntity
  8
0
100
AcDbLine
 10
-1.786395081595147
 20
0.0704999999999991
 30
0.0
 11
-1.819604918404857
 21
0.0704999999999991
 31
0.0
  0
LINE
  5
377
330
2A8
100
AcDbEntity
  8
0
100
AcDbLine
 10
-1.911395081595145
 20
0.0704999999999973
 30
0.0
 11
-1.944604918404856
 21
0.0704999999999982
 31
0.0
  0
LINE
  5
378
330
2A8
100
AcDbEntity
  8
0
100
AcDbLine
 10
-1.958750000000002
 20
0.0950000000000006
 30
0.0
 11
-1.95975
 21
0.0949999999999998
 31
0.0
  0
LINE
  5
379
330
2A8
100
AcDbEntity
  8
0
100
AcDbLine
 10
-1.958750000000001
 20
0.0949999999999989
 30
0.0
 11
-1.944604918404855
 21
0.0704999999999991
 31
0.0
  0
LINE
  5
37A
330
2A8
100
AcDbEntity
  8
0
100
AcDbLine
 10
-1.973895081595146
 20
0.0704999999999982
 30
0.0
 11
-2.007104918404855
 21
0.0704999999999991
 31
0.0
  0
LINE
  5
37B
330
2A8
100
AcDbEntity
  8
0
100
AcDbLine
 10
-2.022250000000001
 20
0.0949999999999989
 30
0.0
 11
-2.036395081595146
 21
0.0704999999999991
 31
0.0
  0
LINE
  5
37C
330
2A8
100
AcDbEntity
  8
0
100
AcDbLine
 10
-2.021250000000002
 20
0.0949999999999998
 30
0.0
 11
-2.022250000000001
 21
0.0949999999999989
 31
0.0
  0
LINE
  5
37D
330
2A8
100
AcDbEntity
  8
0
100
AcDbLine
 10
-2.021250000000001
 20
0.0949999999999989
 30
0.0
 11
-2.007104918404855
 21
0.0704999999999991
 31
0.0
  0
LINE
  5
37E
330
2A8
100
AcDbEntity
  8
0
100
AcDbLine
 10
-1.959750000000001
 20
0.0949999999999989
 30
0.0
 11
-1.973895081595146
 21
0.0704999999999991
 31
0.0
  0
LINE
  5
37F
330
2A8
100
AcDbEntity
  8
0
100
AcDbLine
 10
-1.833750000000001
 20
0.0949999999999998
 30
0.0
 11
-1.834749999999999
 21
0.0949999999999998
 31
0.0
  0
LINE
  5
380
330
2A8
100
AcDbEntity
  8
0
100
AcDbLine
 10
-1.833750000000001
 20
0.0949999999999971
 30
0.0
 11
-1.819604918404855
 21
0.0704999999999973
 31
0.0
  0
LINE
  5
381
330
2A8
100
AcDbEntity
  8
0
100
AcDbLine
 10
-1.848895081595147
 20
0.0704999999999982
 30
0.0
 11
-1.882104918404853
 21
0.0704999999999982
 31
0.0
  0
LINE
  5
382
330
2A8
100
AcDbEntity
  8
0
100
AcDbLine
 10
-1.897250000000001
 20
0.094999999999998
 30
0.0
 11
-1.911395081595146
 21
0.0704999999999982
 31
0.0
  0
LINE
  5
383
330
2A8
100
AcDbEntity
  8
0
100
AcDbLine
 10
-1.896250000000001
 20
0.0950000000000006
 30
0.0
 11
-1.897249999999999
 21
0.0950000000000006
 31
0.0
  0
LINE
  5
384
330
2A8
100
AcDbEntity
  8
0
100
AcDbLine
 10
-1.896250000000001
 20
0.094999999999998
 30
0.0
 11
-1.882104918404855
 21
0.0704999999999982
 31
0.0
  0
LINE
  5
385
330
2A8
100
AcDbEntity
  8
0
100
AcDbLine
 10
-1.834750000000001
 20
0.0949999999999971
 30
0.0
 11
-1.848895081595146
 21
0.0704999999999973
 31
0.0
  0
LINE
  5
386
330
2A8
100
AcDbEntity
  8
0
100
AcDbLine
 10
-1.708750000000001
 20
0.0949999999999953
 30
0.0
 11
-1.694604918404855
 21
0.0704999999999956
 31
0.0
  0
LINE
  5
387
330
2A8
100
AcDbEntity
  8
0
100
AcDbLine
 10
-1.708750000000001
 20
0.094999999999998
 30
0.0
 11
-1.709749999999999
 21
0.094999999999998
 31
0.0
  0
LINE
  5
388
330
2A8
100
AcDbEntity
  8
0
100
AcDbLine
 10
-1.709750000000001
 20
0.0949999999999953
 30
0.0
 11
-1.723895081595146
 21
0.0704999999999956
 31
0.0
  0
LINE
  5
389
330
2A8
100
AcDbEntity
  8
0
100
AcDbLine
 10
-1.771250000000001
 20
0.0949999999999962
 30
0.0
 11
-1.757104918404855
 21
0.0704999999999965
 31
0.0
  0
LINE
  5
38A
330
2A8
100
AcDbEntity
  8
0
100
AcDbLine
 10
-1.772250000000001
 20
0.0949999999999962
 30
0.0
 11
-1.786395081595146
 21
0.0704999999999965
 31
0.0
  0
LINE
  5
38B
330
2A8
100
AcDbEntity
  8
0
100
AcDbLine
 10
-1.771250000000001
 20
0.0949999999999989
 30
0.0
 11
-1.772249999999999
 21
0.0949999999999989
 31
0.0
  0
LINE
  5
38C
330
2A8
100
AcDbEntity
  8
0
100
AcDbLine
 10
-1.723895081595144
 20
0.0704999999999991
 30
0.0
 11
-1.757104918404855
 21
0.0705
 31
0.0
  0
LINE
  5
38D
330
2A8
100
AcDbEntity
  8
0
100
AcDbLine
 10
-1.583750000000001
 20
0.0949999999999962
 30
0.0
 11
-1.584749999999999
 21
0.0949999999999962
 31
0.0
  0
LINE
  5
38E
330
2A8
100
AcDbEntity
  8
0
100
AcDbLine
 10
-1.584750000000001
 20
0.0949999999999935
 30
0.0
 11
-1.598895081595146
 21
0.0704999999999938
 31
0.0
  0
LINE
  5
38F
330
2A8
100
AcDbEntity
  8
0
100
AcDbLine
 10
-1.646250000000001
 20
0.0949999999999971
 30
0.0
 11
-1.647249999999999
 21
0.0949999999999971
 31
0.0
  0
LINE
  5
390
330
2A8
100
AcDbEntity
  8
0
100
AcDbLine
 10
-1.646250000000001
 20
0.0949999999999944
 30
0.0
 11
-1.632104918404855
 21
0.0704999999999947
 31
0.0
  0
LINE
  5
391
330
2A8
100
AcDbEntity
  8
0
100
AcDbLine
 10
-1.661395081595143
 20
0.0705000000000009
 30
0.0
 11
-1.694604918404857
 21
0.0705
 31
0.0
  0
LINE
  5
392
330
2A8
100
AcDbEntity
  8
0
100
AcDbLine
 10
-1.647250000000001
 20
0.0949999999999944
 30
0.0
 11
-1.661395081595146
 21
0.0704999999999947
 31
0.0
  0
LINE
  5
393
330
2A8
100
AcDbEntity
  8
0
100
AcDbLine
 10
-1.598895081595142
 20
0.0705000000000018
 30
0.0
 11
-1.632104918404858
 21
0.0705000000000018
 31
0.0
  0
LINE
  5
394
330
2A8
100
AcDbEntity
  8
0
100
AcDbLine
 10
-1.334750000000001
 20
0.09499999999999
 30
0.0
 11
-1.348895081595146
 21
0.0704999999999902
 31
0.0
  0
LINE
  5
395
330
2A8
100
AcDbEntity
  8
0
100
AcDbLine
 10
-1.459750000000001
 20
0.0949999999999918
 30
0.0
 11
-1.473895081595146
 21
0.070499999999992
 31
0.0
  0
LINE
  5
396
330
2A8
100
AcDbEntity
  8
0
100
AcDbLine
 10
-1.521250000000001
 20
0.0949999999999953
 30
0.0
 11
-1.522249999999999
 21
0.0949999999999953
 31
0.0
  0
LINE
  5
397
330
2A8
100
AcDbEntity
  8
0
100
AcDbLine
 10
-1.522250000000001
 20
0.0949999999999926
 30
0.0
 11
-1.536395081595146
 21
0.0704999999999929
 31
0.0
  0
LINE
  5
398
330
2A8
100
AcDbEntity
  8
0
100
AcDbLine
 10
-1.521250000000001
 20
0.0949999999999926
 30
0.0
 11
-1.507104918404855
 21
0.0704999999999929
 31
0.0
  0
LINE
  5
399
330
2A8
100
AcDbEntity
  8
0
100
AcDbLine
 10
-1.53639508159514
 20
0.0705000000000027
 30
0.0
 11
-1.569604918404859
 21
0.0705000000000027
 31
0.0
  0
LINE
  5
39A
330
2A8
100
AcDbEntity
  8
0
100
AcDbLine
 10
-1.47389508159514
 20
0.0705000000000036
 30
0.0
 11
-1.50710491840486
 21
0.0705000000000027
 31
0.0
  0
LINE
  5
39B
330
2A8
100
AcDbEntity
  8
0
100
AcDbLine
 10
-1.396250000000001
 20
0.0949999999999909
 30
0.0
 11
-1.382104918404855
 21
0.0704999999999911
 31
0.0
  0
LINE
  5
39C
330
2A8
100
AcDbEntity
  8
0
100
AcDbLine
 10
-1.396250000000001
 20
0.0949999999999935
 30
0.0
 11
-1.397249999999999
 21
0.0949999999999935
 31
0.0
  0
LINE
  5
39D
330
2A8
100
AcDbEntity
  8
0
100
AcDbLine
 10
-1.397250000000001
 20
0.0949999999999909
 30
0.0
 11
-1.411395081595146
 21
0.0704999999999911
 31
0.0
  0
LINE
  5
39E
330
2A8
100
AcDbEntity
  8
0
100
AcDbLine
 10
-1.458750000000001
 20
0.0949999999999944
 30
0.0
 11
-1.459749999999999
 21
0.0949999999999944
 31
0.0
  0
LINE
  5
39F
330
2A8
100
AcDbEntity
  8
0
100
AcDbLine
 10
-1.458750000000001
 20
0.0949999999999918
 30
0.0
 11
-1.444604918404855
 21
0.070499999999992
 31
0.0
  0
LINE
  5
3A0
330
2A8
100
AcDbEntity
  8
0
100
AcDbLine
 10
-1.411395081595138
 20
0.0705000000000044
 30
0.0
 11
-1.444604918404862
 21
0.0705000000000053
 31
0.0
  0
LINE
  5
3A1
330
2A8
100
AcDbEntity
  8
0
100
AcDbLine
 10
-1.348895081595149
 20
0.0705000000000053
 30
0.0
 11
-1.382104918404858
 21
0.0705000000000044
 31
0.0
  0
LINE
  5
3A2
330
2A8
100
AcDbEntity
  8
0
100
AcDbLine
 10
-1.223895081595151
 20
0.0705000000000098
 30
0.0
 11
-1.25710491840486
 21
0.0705000000000089
 31
0.0
  0
LINE
  5
3A3
330
2A8
100
AcDbEntity
  8
0
100
AcDbLine
 10
-1.271250000000001
 20
0.0949999999999918
 30
0.0
 11
-1.272249999999999
 21
0.0949999999999918
 31
0.0
  0
LINE
  5
3A4
330
2A8
100
AcDbEntity
  8
0
100
AcDbLine
 10
-1.286395081595152
 20
0.0705000000000071
 30
0.0
 11
-1.319604918404859
 21
0.0705000000000062
 31
0.0
  0
LINE
  5
3A5
330
2A8
100
AcDbEntity
  8
0
100
AcDbLine
 10
-1.272250000000001
 20
0.0949999999999891
 30
0.0
 11
-1.286395081595146
 21
0.0704999999999893
 31
0.0
  0
LINE
  5
3A6
330
2A8
100
AcDbEntity
  8
0
100
AcDbLine
 10
-1.333750000000001
 20
0.09499999999999
 30
0.0
 11
-1.319604918404855
 21
0.0704999999999902
 31
0.0
  0
LINE
  5
3A7
330
2A8
100
AcDbEntity
  8
0
100
AcDbLine
 10
-1.333750000000001
 20
0.0949999999999926
 30
0.0
 11
-1.334749999999999
 21
0.0949999999999926
 31
0.0
  0
LINE
  5
3A8
330
2A8
100
AcDbEntity
  8
0
100
AcDbLine
 10
-1.271250000000001
 20
0.0949999999999891
 30
0.0
 11
-1.257104918404855
 21
0.0704999999999893
 31
0.0
  0
LINE
  5
3A9
330
2A8
100
AcDbEntity
  8
0
100
AcDbLine
 10
-1.147250000000001
 20
0.0949999999999873
 30
0.0
 11
-1.161395081595146
 21
0.0704999999999876
 31
0.0
  0
LINE
  5
3AA
330
2A8
100
AcDbEntity
  8
0
100
AcDbLine
 10
-1.161395081595153
 20
0.0705000000000116
 30
0.0
 11
-1.194604918404861
 21
0.0705000000000107
 31
0.0
  0
LINE
  5
3AB
330
2A8
100
AcDbEntity
  8
0
100
AcDbLine
 10
-1.209750000000001
 20
0.0949999999999882
 30
0.0
 11
-1.223895081595146
 21
0.0704999999999885
 31
0.0
  0
LINE
  5
3AC
330
2A8
100
AcDbEntity
  8
0
100
AcDbLine
 10
-1.208750000000001
 20
0.0949999999999909
 30
0.0
 11
-1.209749999999999
 21
0.0949999999999909
 31
0.0
  0
LINE
  5
3AD
330
2A8
100
AcDbEntity
  8
0
100
AcDbLine
 10
-1.208750000000001
 20
0.0949999999999882
 30
0.0
 11
-1.194604918404855
 21
0.0704999999999885
 31
0.0
  0
LINE
  5
3AE
330
2A8
100
AcDbEntity
  8
0
100
AcDbLine
 10
-1.146250000000001
 20
0.09499999999999
 30
0.0
 11
-1.147249999999999
 21
0.09499999999999
 31
0.0
  0
LINE
  5
3AF
330
2A8
100
AcDbEntity
  8
0
100
AcDbLine
 10
-1.146250000000001
 20
0.0949999999999873
 30
0.0
 11
-1.132104918404855
 21
0.0704999999999876
 31
0.0
  0
LINE
  5
3B0
330
2A8
100
AcDbEntity
  8
0
100
AcDbLine
 10
-0.1160000000000014
 20
0.0949999999999998
 30
0.0
 11
-0.2722499999999997
 21
0.0949999999999909
 31
0.0
  0
LINE
  5
3B1
330
2A8
100
AcDbEntity
  8
0
100
AcDbLine
 10
-0.1160000000000014
 20
-0.0949999999999998
 30
0.0
 11
-0.2410000000000032
 21
-0.0949999999999971
 31
0.0
  0
LINE
  5
3B2
330
2A8
100
AcDbEntity
  8
0
100
AcDbLine
 10
-0.333750000000002
 20
0.094999999999982
 30
0.0
 11
-0.302500000000002
 21
-0.095000000000014
 31
0.0
  0
LINE
  5
3B3
330
2A8
100
AcDbEntity
  8
0
100
AcDbLine
 10
-0.3347500000000014
 20
0.094999999999982
 30
0.0
 11
-0.3035000000000014
 21
-0.095000000000014
 31
0.0
  0
LINE
  5
3B4
330
2A8
100
AcDbEntity
  8
0
100
AcDbLine
 10
-0.2883549184048579
 20
-0.0705000000000178
 30
0.0
 11
-0.3196049184048562
 21
0.0704999999999822
 31
0.0
  0
LINE
  5
3B5
330
2A8
100
AcDbEntity
  8
0
100
AcDbLine
 10
-0.3488950815951473
 20
0.0704999999999822
 30
0.0
 11
-0.3176450815951473
 21
-0.0705000000000142
 31
0.0
  0
LINE
  5
3B6
330
2A8
100
AcDbEntity
  8
0
100
AcDbLine
 10
-0.396250000000002
 20
0.0949999999999829
 30
0.0
 11
-0.365000000000002
 21
-0.0950000000000131
 31
0.0
  0
LINE
  5
3B7
330
2A8
100
AcDbEntity
  8
0
100
AcDbLine
 10
-0.3972500000000014
 20
0.0949999999999829
 30
0.0
 11
-0.3660000000000014
 21
-0.0950000000000131
 31
0.0
  0
LINE
  5
3B8
330
2A8
100
AcDbEntity
  8
0
100
AcDbLine
 10
-0.3508549184048579
 20
-0.0705000000000169
 30
0.0
 11
-0.3821049184048562
 21
0.0704999999999831
 31
0.0
  0
LINE
  5
3B9
330
2A8
100
AcDbEntity
  8
0
100
AcDbLine
 10
-0.4113950815951473
 20
0.0704999999999831
 30
0.0
 11
-0.3801450815951473
 21
-0.0705000000000133
 31
0.0
  0
LINE
  5
3BA
330
2A8
100
AcDbEntity
  8
0
100
AcDbLine
 10
-0.458750000000002
 20
0.0949999999999838
 30
0.0
 11
-0.427500000000002
 21
-0.0950000000000122
 31
0.0
  0
LINE
  5
3BB
330
2A8
100
AcDbEntity
  8
0
100
AcDbLine
 10
-0.4597500000000014
 20
0.0949999999999838
 30
0.0
 11
-0.4285000000000014
 21
-0.0950000000000122
 31
0.0
  0
LINE
  5
3BC
330
2A8
100
AcDbEntity
  8
0
100
AcDbLine
 10
-0.4133549184048579
 20
-0.070500000000016
 30
0.0
 11
-0.4446049184048562
 21
0.070499999999984
 31
0.0
  0
LINE
  5
3BD
330
2A8
100
AcDbEntity
  8
0
100
AcDbLine
 10
-0.4738950815951473
 20
0.070499999999984
 30
0.0
 11
-0.4426450815951473
 21
-0.0705000000000124
 31
0.0
  0
LINE
  5
3BE
330
2A8
100
AcDbEntity
  8
0
100
AcDbLine
 10
-0.521250000000002
 20
0.0949999999999847
 30
0.0
 11
-0.490000000000002
 21
-0.0950000000000113
 31
0.0
  0
LINE
  5
3BF
330
2A8
100
AcDbEntity
  8
0
100
AcDbLine
 10
-0.5222500000000014
 20
0.0949999999999847
 30
0.0
 11
-0.4910000000000014
 21
-0.0950000000000113
 31
0.0
  0
LINE
  5
3C0
330
2A8
100
AcDbEntity
  8
0
100
AcDbLine
 10
-0.4758549184048579
 20
-0.0705000000000151
 30
0.0
 11
-0.5071049184048562
 21
0.0704999999999849
 31
0.0
  0
LINE
  5
3C1
330
2A8
100
AcDbEntity
  8
0
100
AcDbLine
 10
-0.5363950815951473
 20
0.0704999999999849
 30
0.0
 11
-0.5051450815951473
 21
-0.0705000000000116
 31
0.0
  0
LINE
  5
3C2
330
2A8
100
AcDbEntity
  8
0
100
AcDbLine
 10
-0.583750000000002
 20
0.0949999999999855
 30
0.0
 11
-0.552500000000002
 21
-0.0950000000000104
 31
0.0
  0
LINE
  5
3C3
330
2A8
100
AcDbEntity
  8
0
100
AcDbLine
 10
-0.5847500000000014
 20
0.0949999999999855
 30
0.0
 11
-0.5535000000000014
 21
-0.0950000000000104
 31
0.0
  0
LINE
  5
3C4
330
2A8
100
AcDbEntity
  8
0
100
AcDbLine
 10
-0.5383549184048579
 20
-0.0705000000000142
 30
0.0
 11
-0.5696049184048562
 21
0.0704999999999858
 31
0.0
  0
LINE
  5
3C5
330
2A8
100
AcDbEntity
  8
0
100
AcDbLine
 10
-0.5988950815951473
 20
0.0704999999999858
 30
0.0
 11
-0.5676450815951473
 21
-0.0705000000000107
 31
0.0
  0
LINE
  5
3C6
330
2A8
100
AcDbEntity
  8
0
100
AcDbLine
 10
-0.646250000000002
 20
0.0949999999999864
 30
0.0
 11
-0.615000000000002
 21
-0.0950000000000095
 31
0.0
  0
LINE
  5
3C7
330
2A8
100
AcDbEntity
  8
0
100
AcDbLine
 10
-0.6472500000000014
 20
0.0949999999999864
 30
0.0
 11
-0.6160000000000014
 21
-0.0950000000000095
 31
0.0
  0
LINE
  5
3C8
330
2A8
100
AcDbEntity
  8
0
100
AcDbLine
 10
-0.6008549184048579
 20
-0.0705000000000133
 30
0.0
 11
-0.6321049184048562
 21
0.0704999999999867
 31
0.0
  0
LINE
  5
3C9
330
2A8
100
AcDbEntity
  8
0
100
AcDbLine
 10
-0.6613950815951473
 20
0.0704999999999867
 30
0.0
 11
-0.6301450815951473
 21
-0.0705000000000098
 31
0.0
  0
LINE
  5
3CA
330
2A8
100
AcDbEntity
  8
0
100
AcDbLine
 10
-0.708750000000002
 20
0.0949999999999873
 30
0.0
 11
-0.677500000000002
 21
-0.0950000000000086
 31
0.0
  0
LINE
  5
3CB
330
2A8
100
AcDbEntity
  8
0
100
AcDbLine
 10
-0.7097500000000014
 20
0.0949999999999873
 30
0.0
 11
-0.6785000000000014
 21
-0.0950000000000086
 31
0.0
  0
LINE
  5
3CC
330
2A8
100
AcDbEntity
  8
0
100
AcDbLine
 10
-0.6633549184048579
 20
-0.0705000000000124
 30
0.0
 11
-0.6946049184048562
 21
0.0704999999999876
 31
0.0
  0
LINE
  5
3CD
330
2A8
100
AcDbEntity
  8
0
100
AcDbLine
 10
-0.7238950815951473
 20
0.0704999999999876
 30
0.0
 11
-0.6926450815951473
 21
-0.0705000000000089
 31
0.0
  0
LINE
  5
3CE
330
2A8
100
AcDbEntity
  8
0
100
AcDbLine
 10
-0.771250000000002
 20
0.0949999999999882
 30
0.0
 11
-0.740000000000002
 21
-0.0950000000000077
 31
0.0
  0
LINE
  5
3CF
330
2A8
100
AcDbEntity
  8
0
100
AcDbLine
 10
-0.7722500000000014
 20
0.0949999999999882
 30
0.0
 11
-0.7410000000000014
 21
-0.0950000000000077
 31
0.0
  0
LINE
  5
3D0
330
2A8
100
AcDbEntity
  8
0
100
AcDbLine
 10
-0.7258549184048579
 20
-0.0705000000000116
 30
0.0
 11
-0.7571049184048562
 21
0.0704999999999885
 31
0.0
  0
LINE
  5
3D1
330
2A8
100
AcDbEntity
  8
0
100
AcDbLine
 10
-0.7863950815951473
 20
0.0704999999999885
 30
0.0
 11
-0.7551450815951473
 21
-0.070500000000008
 31
0.0
  0
LINE
  5
3D2
330
2A8
100
AcDbEntity
  8
0
100
AcDbLine
 10
-0.2863950815951455
 20
0.0704999999999911
 30
0.0
 11
-0.2551450815951455
 21
-0.0705000000000053
 31
0.0
  0
LINE
  5
3D3
330
2A8
100
AcDbEntity
  8
0
100
AcDbLine
 10
-0.2722499999999997
 20
0.0949999999999909
 30
0.0
 11
-0.2409999999999997
 21
-0.0950000000000051
 31
0.0
  0
LINE
  5
3D4
330
2A8
100
AcDbEntity
  8
0
100
AcDbLine
 10
-0.8488950815951473
 20
0.0704999999999893
 30
0.0
 11
-0.8176450815951473
 21
-0.0705000000000071
 31
0.0
  0
LINE
  5
3D5
330
2A8
100
AcDbEntity
  8
0
100
AcDbLine
 10
-0.7883549184048579
 20
-0.0705000000000107
 30
0.0
 11
-0.8196049184048562
 21
0.0704999999999893
 31
0.0
  0
LINE
  5
3D6
330
2A8
100
AcDbEntity
  8
0
100
AcDbLine
 10
-0.8347500000000014
 20
0.0949999999999891
 30
0.0
 11
-0.8035000000000014
 21
-0.0950000000000069
 31
0.0
  0
LINE
  5
3D7
330
2A8
100
AcDbEntity
  8
0
100
AcDbLine
 10
-0.833750000000002
 20
0.0949999999999891
 30
0.0
 11
-0.802500000000002
 21
-0.0950000000000069
 31
0.0
  0
LINE
  5
3D8
330
2A8
100
AcDbEntity
  8
0
100
AcDbLine
 10
-0.9113950815951473
 20
0.0704999999999902
 30
0.0
 11
-0.8801450815951473
 21
-0.0705000000000062
 31
0.0
  0
LINE
  5
3D9
330
2A8
100
AcDbEntity
  8
0
100
AcDbLine
 10
-0.8508549184048579
 20
-0.0705000000000098
 30
0.0
 11
-0.8821049184048562
 21
0.0704999999999902
 31
0.0
  0
LINE
  5
3DA
330
2A8
100
AcDbEntity
  8
0
100
AcDbLine
 10
-0.8972500000000014
 20
0.09499999999999
 30
0.0
 11
-0.8660000000000014
 21
-0.095000000000006
 31
0.0
  0
LINE
  5
3DB
330
2A8
100
AcDbEntity
  8
0
100
AcDbLine
 10
-0.896250000000002
 20
0.09499999999999
 30
0.0
 11
-0.865000000000002
 21
-0.095000000000006
 31
0.0
  0
LINE
  5
3DC
330
2A8
100
AcDbEntity
  8
0
100
AcDbLine
 10
-0.9738950815951473
 20
0.0704999999999893
 30
0.0
 11
-0.9426450815951473
 21
-0.0705000000000071
 31
0.0
  0
LINE
  5
3DD
330
2A8
100
AcDbEntity
  8
0
100
AcDbLine
 10
-0.9133549184048579
 20
-0.0705000000000107
 30
0.0
 11
-0.9446049184048562
 21
0.0704999999999893
 31
0.0
  0
LINE
  5
3DE
330
2A8
100
AcDbEntity
  8
0
100
AcDbLine
 10
-0.9597500000000014
 20
0.0949999999999891
 30
0.0
 11
-0.9285000000000014
 21
-0.0950000000000069
 31
0.0
  0
LINE
  5
3DF
330
2A8
100
AcDbEntity
  8
0
100
AcDbLine
 10
-0.958750000000002
 20
0.0949999999999891
 30
0.0
 11
-0.927500000000002
 21
-0.0950000000000069
 31
0.0
  0
LINE
  5
3E0
330
2A8
100
AcDbEntity
  8
0
100
AcDbLine
 10
-1.036395081595147
 20
0.0704999999999902
 30
0.0
 11
-1.005145081595147
 21
-0.0705000000000062
 31
0.0
  0
LINE
  5
3E1
330
2A8
100
AcDbEntity
  8
0
100
AcDbLine
 10
-0.9758549184048579
 20
-0.0705000000000098
 30
0.0
 11
-1.007104918404856
 21
0.0704999999999902
 31
0.0
  0
LINE
  5
3E2
330
2A8
100
AcDbEntity
  8
0
100
AcDbLine
 10
-1.022250000000001
 20
0.09499999999999
 30
0.0
 11
-0.9910000000000014
 21
-0.095000000000006
 31
0.0
  0
LINE
  5
3E3
330
2A8
100
AcDbEntity
  8
0
100
AcDbLine
 10
-1.021250000000002
 20
0.09499999999999
 30
0.0
 11
-0.990000000000002
 21
-0.095000000000006
 31
0.0
  0
LINE
  5
3E4
330
2A8
100
AcDbEntity
  8
0
100
AcDbLine
 10
-1.098895081595146
 20
0.0704999999999867
 30
0.0
 11
-1.067645081595146
 21
-0.0705000000000098
 31
0.0
  0
LINE
  5
3E5
330
2A8
100
AcDbEntity
  8
0
100
AcDbLine
 10
-1.038354918404857
 20
-0.0705000000000133
 30
0.0
 11
-1.069604918404855
 21
0.0704999999999867
 31
0.0
  0
LINE
  5
3E6
330
2A8
100
AcDbEntity
  8
0
100
AcDbLine
 10
-1.084750000000001
 20
0.0949999999999864
 30
0.0
 11
-1.053500000000001
 21
-0.0950000000000095
 31
0.0
  0
LINE
  5
3E7
330
2A8
100
AcDbEntity
  8
0
100
AcDbLine
 10
-1.083750000000001
 20
0.0949999999999864
 30
0.0
 11
-1.052500000000001
 21
-0.0950000000000095
 31
0.0
  0
LINE
  5
3E8
330
2A8
100
AcDbEntity
  8
0
100
AcDbLine
 10
-0.6301450815951544
 20
-0.0704999999999778
 30
0.0
 11
-0.663354918404865
 21
-0.0704999999999796
 31
0.0
  0
LINE
  5
3E9
330
2A8
100
AcDbEntity
  8
0
100
AcDbLine
 10
-0.8660000000000014
 20
-0.095000000000006
 30
0.0
 11
-0.8801450815951473
 21
-0.0705000000000062
 31
0.0
  0
LINE
  5
3EA
330
2A8
100
AcDbEntity
  8
0
100
AcDbLine
 10
-0.9910000000000014
 20
-0.095000000000006
 30
0.0
 11
-1.005145081595147
 21
-0.0705000000000062
 31
0.0
  0
LINE
  5
3EB
330
2A8
100
AcDbEntity
  8
0
100
AcDbLine
 10
-1.067645081595152
 20
-0.0704999999999893
 30
0.0
 11
-1.100854918404861
 21
-0.0704999999999911
 31
0.0
  0
LINE
  5
3EC
330
2A8
100
AcDbEntity
  8
0
100
AcDbLine
 10
-1.052500000000001
 20
-0.0950000000000095
 30
0.0
 11
-1.0535
 21
-0.0950000000000104
 31
0.0
  0
LINE
  5
3ED
330
2A8
100
AcDbEntity
  8
0
100
AcDbLine
 10
-1.053500000000001
 20
-0.0950000000000095
 30
0.0
 11
-1.067645081595146
 21
-0.0705000000000098
 31
0.0
  0
LINE
  5
3EE
330
2A8
100
AcDbEntity
  8
0
100
AcDbLine
 10
-1.052500000000001
 20
-0.0950000000000095
 30
0.0
 11
-1.038354918404855
 21
-0.0705000000000098
 31
0.0
  0
LINE
  5
3EF
330
2A8
100
AcDbEntity
  8
0
100
AcDbLine
 10
-1.005145081595152
 20
-0.0704999999999867
 30
0.0
 11
-1.038354918404864
 21
-0.0704999999999876
 31
0.0
  0
LINE
  5
3F0
330
2A8
100
AcDbEntity
  8
0
100
AcDbLine
 10
-0.927500000000002
 20
-0.0950000000000069
 30
0.0
 11
-0.9133549184048562
 21
-0.0705000000000071
 31
0.0
  0
LINE
  5
3F1
330
2A8
100
AcDbEntity
  8
0
100
AcDbLine
 10
-0.9426450815951526
 20
-0.0704999999999831
 30
0.0
 11
-0.9758549184048624
 21
-0.0704999999999849
 31
0.0
  0
LINE
  5
3F2
330
2A8
100
AcDbEntity
  8
0
100
AcDbLine
 10
-0.927500000000002
 20
-0.0950000000000069
 30
0.0
 11
-0.9285000000000005
 21
-0.0950000000000077
 31
0.0
  0
LINE
  5
3F3
330
2A8
100
AcDbEntity
  8
0
100
AcDbLine
 10
-0.9285000000000014
 20
-0.0950000000000069
 30
0.0
 11
-0.9426450815951473
 21
-0.0705000000000071
 31
0.0
  0
LINE
  5
3F4
330
2A8
100
AcDbEntity
  8
0
100
AcDbLine
 10
-0.990000000000002
 20
-0.095000000000006
 30
0.0
 11
-0.9910000000000005
 21
-0.0950000000000069
 31
0.0
  0
LINE
  5
3F5
330
2A8
100
AcDbEntity
  8
0
100
AcDbLine
 10
-0.990000000000002
 20
-0.095000000000006
 30
0.0
 11
-0.9758549184048562
 21
-0.0705000000000062
 31
0.0
  0
LINE
  5
3F6
330
2A8
100
AcDbEntity
  8
0
100
AcDbLine
 10
-0.8801450815951544
 20
-0.0704999999999787
 30
0.0
 11
-0.9133549184048642
 21
-0.0704999999999814
 31
0.0
  0
LINE
  5
3F7
330
2A8
100
AcDbEntity
  8
0
100
AcDbLine
 10
-0.7551450815951544
 20
-0.070499999999976
 30
0.0
 11
-0.788354918404865
 21
-0.0704999999999778
 31
0.0
  0
LINE
  5
3F8
330
2A8
100
AcDbEntity
  8
0
100
AcDbLine
 10
-0.802500000000002
 20
-0.0950000000000069
 30
0.0
 11
-0.8035000000000005
 21
-0.0950000000000077
 31
0.0
  0
LINE
  5
3F9
330
2A8
100
AcDbEntity
  8
0
100
AcDbLine
 10
-0.8176450815951544
 20
-0.0704999999999751
 30
0.0
 11
-0.850854918404865
 21
-0.0704999999999769
 31
0.0
  0
LINE
  5
3FA
330
2A8
100
AcDbEntity
  8
0
100
AcDbLine
 10
-0.8035000000000014
 20
-0.0950000000000069
 30
0.0
 11
-0.8176450815951473
 21
-0.0705000000000071
 31
0.0
  0
LINE
  5
3FB
330
2A8
100
AcDbEntity
  8
0
100
AcDbLine
 10
-0.865000000000002
 20
-0.095000000000006
 30
0.0
 11
-0.8660000000000005
 21
-0.0950000000000069
 31
0.0
  0
LINE
  5
3FC
330
2A8
100
AcDbEntity
  8
0
100
AcDbLine
 10
-0.865000000000002
 20
-0.095000000000006
 30
0.0
 11
-0.8508549184048562
 21
-0.0705000000000062
 31
0.0
  0
LINE
  5
3FD
330
2A8
100
AcDbEntity
  8
0
100
AcDbLine
 10
-0.802500000000002
 20
-0.0950000000000069
 30
0.0
 11
-0.7883549184048562
 21
-0.0705000000000071
 31
0.0
  0
LINE
  5
3FE
330
2A8
100
AcDbEntity
  8
0
100
AcDbLine
 10
-0.677500000000002
 20
-0.0950000000000086
 30
0.0
 11
-0.6633549184048562
 21
-0.0705000000000089
 31
0.0
  0
LINE
  5
3FF
330
2A8
100
AcDbEntity
  8
0
100
AcDbLine
 10
-0.6785000000000014
 20
-0.0950000000000086
 30
0.0
 11
-0.6926450815951473
 21
-0.0705000000000089
 31
0.0
  0
LINE
  5
400
330
2A8
100
AcDbEntity
  8
0
100
AcDbLine
 10
-0.6926450815951544
 20
-0.0704999999999769
 30
0.0
 11
-0.725854918404865
 21
-0.0704999999999787
 31
0.0
  0
LINE
  5
401
330
2A8
100
AcDbEntity
  8
0
100
AcDbLine
 10
-0.677500000000002
 20
-0.0950000000000086
 30
0.0
 11
-0.6785000000000005
 21
-0.0950000000000095
 31
0.0
  0
LINE
  5
402
330
2A8
100
AcDbEntity
  8
0
100
AcDbLine
 10
-0.740000000000002
 20
-0.0950000000000077
 30
0.0
 11
-0.7258549184048562
 21
-0.070500000000008
 31
0.0
  0
LINE
  5
403
330
2A8
100
AcDbEntity
  8
0
100
AcDbLine
 10
-0.7410000000000014
 20
-0.0950000000000077
 30
0.0
 11
-0.7551450815951473
 21
-0.070500000000008
 31
0.0
  0
LINE
  5
404
330
2A8
100
AcDbEntity
  8
0
100
AcDbLine
 10
-0.740000000000002
 20
-0.0950000000000077
 30
0.0
 11
-0.7410000000000005
 21
-0.0950000000000086
 31
0.0
  0
LINE
  5
405
330
2A8
100
AcDbEntity
  8
0
100
AcDbLine
 10
-0.3801450815951544
 20
-0.0704999999999814
 30
0.0
 11
-0.413354918404865
 21
-0.0704999999999831
 31
0.0
  0
LINE
  5
406
330
2A8
100
AcDbEntity
  8
0
100
AcDbLine
 10
-0.5051450815951544
 20
-0.0704999999999796
 30
0.0
 11
-0.538354918404865
 21
-0.0704999999999814
 31
0.0
  0
LINE
  5
407
330
2A8
100
AcDbEntity
  8
0
100
AcDbLine
 10
-0.552500000000002
 20
-0.0950000000000104
 30
0.0
 11
-0.5383549184048562
 21
-0.0705000000000107
 31
0.0
  0
LINE
  5
408
330
2A8
100
AcDbEntity
  8
0
100
AcDbLine
 10
-0.5535000000000014
 20
-0.0950000000000104
 30
0.0
 11
-0.5676450815951473
 21
-0.0705000000000107
 31
0.0
  0
LINE
  5
409
330
2A8
100
AcDbEntity
  8
0
100
AcDbLine
 10
-0.5676450815951544
 20
-0.0704999999999787
 30
0.0
 11
-0.600854918404865
 21
-0.0704999999999805
 31
0.0
  0
LINE
  5
40A
330
2A8
100
AcDbEntity
  8
0
100
AcDbLine
 10
-0.552500000000002
 20
-0.0950000000000104
 30
0.0
 11
-0.5535000000000005
 21
-0.0950000000000113
 31
0.0
  0
LINE
  5
40B
330
2A8
100
AcDbEntity
  8
0
100
AcDbLine
 10
-0.615000000000002
 20
-0.0950000000000095
 30
0.0
 11
-0.6008549184048562
 21
-0.0705000000000098
 31
0.0
  0
LINE
  5
40C
330
2A8
100
AcDbEntity
  8
0
100
AcDbLine
 10
-0.6160000000000014
 20
-0.0950000000000095
 30
0.0
 11
-0.6301450815951473
 21
-0.0705000000000098
 31
0.0
  0
LINE
  5
40D
330
2A8
100
AcDbEntity
  8
0
100
AcDbLine
 10
-0.615000000000002
 20
-0.0950000000000095
 30
0.0
 11
-0.6160000000000005
 21
-0.0950000000000104
 31
0.0
  0
LINE
  5
40E
330
2A8
100
AcDbEntity
  8
0
100
AcDbLine
 10
-0.427500000000002
 20
-0.0950000000000122
 30
0.0
 11
-0.4133549184048562
 21
-0.0705000000000124
 31
0.0
  0
LINE
  5
40F
330
2A8
100
AcDbEntity
  8
0
100
AcDbLine
 10
-0.4285000000000014
 20
-0.0950000000000122
 30
0.0
 11
-0.4426450815951473
 21
-0.0705000000000124
 31
0.0
  0
LINE
  5
410
330
2A8
100
AcDbEntity
  8
0
100
AcDbLine
 10
-0.4426450815951544
 20
-0.0704999999999805
 30
0.0
 11
-0.475854918404865
 21
-0.0704999999999822
 31
0.0
  0
LINE
  5
411
330
2A8
100
AcDbEntity
  8
0
100
AcDbLine
 10
-0.427500000000002
 20
-0.0950000000000122
 30
0.0
 11
-0.4285000000000005
 21
-0.0950000000000131
 31
0.0
  0
LINE
  5
412
330
2A8
100
AcDbEntity
  8
0
100
AcDbLine
 10
-0.490000000000002
 20
-0.0950000000000113
 30
0.0
 11
-0.4758549184048562
 21
-0.0705000000000116
 31
0.0
  0
LINE
  5
413
330
2A8
100
AcDbEntity
  8
0
100
AcDbLine
 10
-0.4910000000000014
 20
-0.0950000000000113
 30
0.0
 11
-0.5051450815951473
 21
-0.0705000000000116
 31
0.0
  0
LINE
  5
414
330
2A8
100
AcDbEntity
  8
0
100
AcDbLine
 10
-0.490000000000002
 20
-0.0950000000000113
 30
0.0
 11
-0.4910000000000005
 21
-0.0950000000000122
 31
0.0
  0
LINE
  5
415
330
2A8
100
AcDbEntity
  8
0
100
AcDbLine
 10
-0.302500000000002
 20
-0.095000000000014
 30
0.0
 11
-0.2883549184048562
 21
-0.0705000000000142
 31
0.0
  0
LINE
  5
416
330
2A8
100
AcDbEntity
  8
0
100
AcDbLine
 10
-0.3035000000000014
 20
-0.095000000000014
 30
0.0
 11
-0.3176450815951473
 21
-0.0705000000000142
 31
0.0
  0
LINE
  5
417
330
2A8
100
AcDbEntity
  8
0
100
AcDbLine
 10
-0.3176450815951544
 20
-0.0704999999999822
 30
0.0
 11
-0.350854918404865
 21
-0.070499999999984
 31
0.0
  0
LINE
  5
418
330
2A8
100
AcDbEntity
  8
0
100
AcDbLine
 10
-0.302500000000002
 20
-0.095000000000014
 30
0.0
 11
-0.3035000000000005
 21
-0.0950000000000149
 31
0.0
  0
LINE
  5
419
330
2A8
100
AcDbEntity
  8
0
100
AcDbLine
 10
-0.365000000000002
 20
-0.0950000000000131
 30
0.0
 11
-0.3508549184048562
 21
-0.0705000000000133
 31
0.0
  0
LINE
  5
41A
330
2A8
100
AcDbEntity
  8
0
100
AcDbLine
 10
-0.3660000000000014
 20
-0.0950000000000131
 30
0.0
 11
-0.3801450815951473
 21
-0.0705000000000133
 31
0.0
  0
LINE
  5
41B
330
2A8
100
AcDbEntity
  8
0
100
AcDbLine
 10
-0.365000000000002
 20
-0.0950000000000131
 30
0.0
 11
-0.3660000000000005
 21
-0.095000000000014
 31
0.0
  0
LINE
  5
41C
330
2A8
100
AcDbEntity
  8
0
100
AcDbLine
 10
-0.2551450815951606
 20
-0.0705000000000009
 30
0.0
 11
-0.2883549184048659
 21
-0.0705
 31
0.0
  0
LINE
  5
41D
330
2A8
100
AcDbEntity
  8
0
100
AcDbLine
 10
-0.2409999999999997
 20
-0.0950000000000051
 30
0.0
 11
-0.2551450815951455
 21
-0.0705000000000053
 31
0.0
  0
LINE
  5
41E
330
2A8
100
AcDbEntity
  8
0
100
AcDbLine
 10
-0.646250000000002
 20
0.0949999999999864
 30
0.0
 11
-0.6321049184048562
 21
0.0704999999999867
 31
0.0
  0
LINE
  5
41F
330
2A8
100
AcDbEntity
  8
0
100
AcDbLine
 10
-0.8488950815951544
 20
0.0705000000000195
 30
0.0
 11
-0.8821049184048615
 21
0.0705000000000187
 31
0.0
  0
LINE
  5
420
330
2A8
100
AcDbEntity
  8
0
100
AcDbLine
 10
-0.9738950815951535
 20
0.070500000000016
 30
0.0
 11
-1.007104918404861
 21
0.0705000000000151
 31
0.0
  0
LINE
  5
421
330
2A8
100
AcDbEntity
  8
0
100
AcDbLine
 10
-1.021250000000002
 20
0.0949999999999926
 30
0.0
 11
-1.02225
 21
0.0949999999999926
 31
0.0
  0
LINE
  5
422
330
2A8
100
AcDbEntity
  8
0
100
AcDbLine
 10
-1.021250000000002
 20
0.09499999999999
 30
0.0
 11
-1.007104918404856
 21
0.0704999999999902
 31
0.0
  0
LINE
  5
423
330
2A8
100
AcDbEntity
  8
0
100
AcDbLine
 10
-1.084750000000001
 20
0.0949999999999864
 30
0.0
 11
-1.098895081595146
 21
0.0704999999999867
 31
0.0
  0
LINE
  5
424
330
2A8
100
AcDbEntity
  8
0
100
AcDbLine
 10
-1.083750000000001
 20
0.0949999999999891
 30
0.0
 11
-1.084749999999999
 21
0.0949999999999891
 31
0.0
  0
LINE
  5
425
330
2A8
100
AcDbEntity
  8
0
100
AcDbLine
 10
-1.083750000000001
 20
0.0949999999999864
 30
0.0
 11
-1.069604918404855
 21
0.0704999999999867
 31
0.0
  0
LINE
  5
426
330
2A8
100
AcDbEntity
  8
0
100
AcDbLine
 10
-1.036395081595151
 20
0.0705000000000142
 30
0.0
 11
-1.069604918404862
 21
0.0705000000000133
 31
0.0
  0
LINE
  5
427
330
2A8
100
AcDbEntity
  8
0
100
AcDbLine
 10
-1.022250000000001
 20
0.09499999999999
 30
0.0
 11
-1.036395081595147
 21
0.0704999999999902
 31
0.0
  0
LINE
  5
428
330
2A8
100
AcDbEntity
  8
0
100
AcDbLine
 10
-0.896250000000002
 20
0.0949999999999926
 30
0.0
 11
-0.8972499999999997
 21
0.0949999999999926
 31
0.0
  0
LINE
  5
429
330
2A8
100
AcDbEntity
  8
0
100
AcDbLine
 10
-0.896250000000002
 20
0.09499999999999
 30
0.0
 11
-0.8821049184048562
 21
0.0704999999999902
 31
0.0
  0
LINE
  5
42A
330
2A8
100
AcDbEntity
  8
0
100
AcDbLine
 10
-0.9113950815951535
 20
0.0705000000000178
 30
0.0
 11
-0.9446049184048624
 21
0.0705000000000169
 31
0.0
  0
LINE
  5
42B
330
2A8
100
AcDbEntity
  8
0
100
AcDbLine
 10
-0.9597500000000014
 20
0.0949999999999891
 30
0.0
 11
-0.9738950815951473
 21
0.0704999999999893
 31
0.0
  0
LINE
  5
42C
330
2A8
100
AcDbEntity
  8
0
100
AcDbLine
 10
-0.958750000000002
 20
0.0949999999999918
 30
0.0
 11
-0.9597499999999997
 21
0.0949999999999918
 31
0.0
  0
LINE
  5
42D
330
2A8
100
AcDbEntity
  8
0
100
AcDbLine
 10
-0.958750000000002
 20
0.0949999999999891
 30
0.0
 11
-0.9446049184048562
 21
0.0704999999999893
 31
0.0
  0
LINE
  5
42E
330
2A8
100
AcDbEntity
  8
0
100
AcDbLine
 10
-0.8972500000000014
 20
0.09499999999999
 30
0.0
 11
-0.9113950815951473
 21
0.0704999999999902
 31
0.0
  0
LINE
  5
42F
330
2A8
100
AcDbEntity
  8
0
100
AcDbLine
 10
-0.771250000000002
 20
0.0949999999999882
 30
0.0
 11
-0.7571049184048562
 21
0.0704999999999885
 31
0.0
  0
LINE
  5
430
330
2A8
100
AcDbEntity
  8
0
100
AcDbLine
 10
-0.771250000000002
 20
0.0949999999999909
 30
0.0
 11
-0.7722499999999997
 21
0.0949999999999909
 31
0.0
  0
LINE
  5
431
330
2A8
100
AcDbEntity
  8
0
100
AcDbLine
 10
-0.7722500000000014
 20
0.0949999999999882
 30
0.0
 11
-0.7863950815951473
 21
0.0704999999999885
 31
0.0
  0
LINE
  5
432
330
2A8
100
AcDbEntity
  8
0
100
AcDbLine
 10
-0.7863950815951544
 20
0.0705000000000187
 30
0.0
 11
-0.8196049184048615
 21
0.0705000000000178
 31
0.0
  0
LINE
  5
433
330
2A8
100
AcDbEntity
  8
0
100
AcDbLine
 10
-0.8347500000000014
 20
0.0949999999999891
 30
0.0
 11
-0.8488950815951473
 21
0.0704999999999893
 31
0.0
  0
LINE
  5
434
330
2A8
100
AcDbEntity
  8
0
100
AcDbLine
 10
-0.833750000000002
 20
0.0949999999999918
 30
0.0
 11
-0.8347499999999997
 21
0.0949999999999918
 31
0.0
  0
LINE
  5
435
330
2A8
100
AcDbEntity
  8
0
100
AcDbLine
 10
-0.833750000000002
 20
0.0949999999999891
 30
0.0
 11
-0.8196049184048562
 21
0.0704999999999893
 31
0.0
  0
LINE
  5
436
330
2A8
100
AcDbEntity
  8
0
100
AcDbLine
 10
-0.646250000000002
 20
0.0949999999999891
 30
0.0
 11
-0.6472499999999997
 21
0.0949999999999891
 31
0.0
  0
LINE
  5
437
330
2A8
100
AcDbEntity
  8
0
100
AcDbLine
 10
-0.6472500000000014
 20
0.0949999999999864
 30
0.0
 11
-0.6613950815951473
 21
0.0704999999999867
 31
0.0
  0
LINE
  5
438
330
2A8
100
AcDbEntity
  8
0
100
AcDbLine
 10
-0.6613950815951544
 20
0.0705000000000169
 30
0.0
 11
-0.6946049184048615
 21
0.070500000000016
 31
0.0
  0
LINE
  5
439
330
2A8
100
AcDbEntity
  8
0
100
AcDbLine
 10
-0.708750000000002
 20
0.0949999999999873
 30
0.0
 11
-0.6946049184048562
 21
0.0704999999999876
 31
0.0
  0
LINE
  5
43A
330
2A8
100
AcDbEntity
  8
0
100
AcDbLine
 10
-0.708750000000002
 20
0.09499999999999
 30
0.0
 11
-0.7097499999999997
 21
0.09499999999999
 31
0.0
  0
LINE
  5
43B
330
2A8
100
AcDbEntity
  8
0
100
AcDbLine
 10
-0.7097500000000014
 20
0.0949999999999873
 30
0.0
 11
-0.7238950815951473
 21
0.0704999999999876
 31
0.0
  0
LINE
  5
43C
330
2A8
100
AcDbEntity
  8
0
100
AcDbLine
 10
-0.7238950815951544
 20
0.0705000000000178
 30
0.0
 11
-0.7571049184048615
 21
0.0705000000000169
 31
0.0
  0
LINE
  5
43D
330
2A8
100
AcDbEntity
  8
0
100
AcDbLine
 10
-0.3972500000000014
 20
0.0949999999999829
 30
0.0
 11
-0.4113950815951473
 21
0.0704999999999831
 31
0.0
  0
LINE
  5
43E
330
2A8
100
AcDbEntity
  8
0
100
AcDbLine
 10
-0.5222500000000014
 20
0.0949999999999847
 30
0.0
 11
-0.5363950815951473
 21
0.0704999999999849
 31
0.0
  0
LINE
  5
43F
330
2A8
100
AcDbEntity
  8
0
100
AcDbLine
 10
-0.5363950815951544
 20
0.0705000000000151
 30
0.0
 11
-0.5696049184048615
 21
0.0705000000000142
 31
0.0
  0
LINE
  5
440
330
2A8
100
AcDbEntity
  8
0
100
AcDbLine
 10
-0.583750000000002
 20
0.0949999999999855
 30
0.0
 11
-0.5696049184048562
 21
0.0704999999999858
 31
0.0
  0
LINE
  5
441
330
2A8
100
AcDbEntity
  8
0
100
AcDbLine
 10
-0.583750000000002
 20
0.0949999999999882
 30
0.0
 11
-0.5847499999999997
 21
0.0949999999999882
 31
0.0
  0
LINE
  5
442
330
2A8
100
AcDbEntity
  8
0
100
AcDbLine
 10
-0.5847500000000014
 20
0.0949999999999855
 30
0.0
 11
-0.5988950815951473
 21
0.0704999999999858
 31
0.0
  0
LINE
  5
443
330
2A8
100
AcDbEntity
  8
0
100
AcDbLine
 10
-0.5988950815951544
 20
0.070500000000016
 30
0.0
 11
-0.6321049184048615
 21
0.0705000000000151
 31
0.0
  0
LINE
  5
444
330
2A8
100
AcDbEntity
  8
0
100
AcDbLine
 10
-0.4113950815951544
 20
0.0705000000000133
 30
0.0
 11
-0.4446049184048615
 21
0.0705000000000124
 31
0.0
  0
LINE
  5
445
330
2A8
100
AcDbEntity
  8
0
100
AcDbLine
 10
-0.458750000000002
 20
0.0949999999999838
 30
0.0
 11
-0.4446049184048562
 21
0.070499999999984
 31
0.0
  0
LINE
  5
446
330
2A8
100
AcDbEntity
  8
0
100
AcDbLine
 10
-0.458750000000002
 20
0.0949999999999864
 30
0.0
 11
-0.4597499999999997
 21
0.0949999999999864
 31
0.0
  0
LINE
  5
447
330
2A8
100
AcDbEntity
  8
0
100
AcDbLine
 10
-0.4597500000000014
 20
0.0949999999999838
 30
0.0
 11
-0.4738950815951473
 21
0.070499999999984
 31
0.0
  0
LINE
  5
448
330
2A8
100
AcDbEntity
  8
0
100
AcDbLine
 10
-0.4738950815951544
 20
0.0705000000000142
 30
0.0
 11
-0.5071049184048615
 21
0.0705000000000133
 31
0.0
  0
LINE
  5
449
330
2A8
100
AcDbEntity
  8
0
100
AcDbLine
 10
-0.521250000000002
 20
0.0949999999999847
 30
0.0
 11
-0.5071049184048562
 21
0.0704999999999849
 31
0.0
  0
LINE
  5
44A
330
2A8
100
AcDbEntity
  8
0
100
AcDbLine
 10
-0.521250000000002
 20
0.0949999999999873
 30
0.0
 11
-0.5222499999999997
 21
0.0949999999999873
 31
0.0
  0
LINE
  5
44B
330
2A8
100
AcDbEntity
  8
0
100
AcDbLine
 10
-0.286395081595149
 20
0.070500000000008
 30
0.0
 11
-0.3196049184048766
 21
0.070500000000008
 31
0.0
  0
LINE
  5
44C
330
2A8
100
AcDbEntity
  8
0
100
AcDbLine
 10
-0.333750000000002
 20
0.094999999999982
 30
0.0
 11
-0.3196049184048562
 21
0.0704999999999822
 31
0.0
  0
LINE
  5
44D
330
2A8
100
AcDbEntity
  8
0
100
AcDbLine
 10
-0.333750000000002
 20
0.0949999999999847
 30
0.0
 11
-0.3347499999999997
 21
0.0949999999999847
 31
0.0
  0
LINE
  5
44E
330
2A8
100
AcDbEntity
  8
0
100
AcDbLine
 10
-0.3347500000000014
 20
0.094999999999982
 30
0.0
 11
-0.3488950815951473
 21
0.0704999999999822
 31
0.0
  0
LINE
  5
44F
330
2A8
100
AcDbEntity
  8
0
100
AcDbLine
 10
-0.3488950815951544
 20
0.0705000000000124
 30
0.0
 11
-0.3821049184048615
 21
0.0705000000000116
 31
0.0
  0
LINE
  5
450
330
2A8
100
AcDbEntity
  8
0
100
AcDbLine
 10
-0.396250000000002
 20
0.0949999999999829
 30
0.0
 11
-0.3821049184048562
 21
0.0704999999999831
 31
0.0
  0
LINE
  5
451
330
2A8
100
AcDbEntity
  8
0
100
AcDbLine
 10
-0.396250000000002
 20
0.0949999999999855
 30
0.0
 11
-0.3972499999999997
 21
0.0949999999999855
 31
0.0
  0
LINE
  5
452
330
2A8
100
AcDbEntity
  8
0
100
AcDbLine
 10
-0.2722499999999997
 20
0.0949999999999909
 30
0.0
 11
-0.2863950815951455
 21
0.0704999999999911
 31
0.0
  0
LINE
  5
453
330
2A8
100
AcDbEntity
  8
0
100
AcDbLine
 10
0.0000000000000009
 20
0.1925000000000008
 30
0.0
 11
-0.0000000000000009
 21
-0.1925000000000008
 31
0.0
  0
LINE
  5
454
330
2A8
100
AcDbEntity
  8
0
100
AcDbLine
 10
-0.1160000000000014
 20
0.0949999999999998
 30
0.0
 11
-0.1160000000000014
 21
-0.0949999999999998
 31
0.0
  0
LINE
  5
455
330
2A8
100
AcDbEntity
  8
0
100
AcDbLine
 10
-0.0000000000000009
 20
-0.1925000000000008
 30
0.0
 11
-0.1160000000000014
 21
-0.0949999999999998
 31
0.0
  0
LINE
  5
456
330
2A8
100
AcDbEntity
  8
0
100
AcDbLine
 10
-0.1160000000000014
 20
0.0949999999999998
 30
0.0
 11
-0.0000000000000009
 21
0.192499999999999
 31
0.0
  0
ENDBLK
  5
458
330
2A8
100
AcDbEntity
  8
0
100
AcDbBlockEnd
  0
BLOCK
  5
466
330
45B
100
AcDbEntity
  8
0
100
AcDbBlockBegin
  2
*D1
 70
     1
 10
0.0
 20
0.0
 30
0.0
  3
*D1
  1

  0
LINE
  5
572
330
45B
100
AcDbEntity
  8
R-ANNO-DIMS
  6
Continuous
 62
     0
370
    -2
100
AcDbLine
 10
9.803870036748751
 20
2.64690679168549
 30
0.0
 11
11.40321521656495
 21
2.64690679168549
 31
0.0
  0
LINE
  5
573
330
45B
100
AcDbEntity
  8
R-ANNO-DIMS
  6
Continuous
 62
     0
370
    -2
100
AcDbLine
 10
11.11637003055732
 20
1.64690679083631
 30
0.0
 11
11.40321521656495
 21
1.64690679083631
 31
0.0
  0
LINE
  5
574
330
45B
100
AcDbEntity
  8
R-ANNO-DIMS
  6
Continuous
 62
     0
370
    -2
100
AcDbLine
 10
11.27821521656495
 20
2.52190679168549
 30
0.0
 11
11.27821521656495
 21
2.2994067912609
 31
0.0
  0
LINE
  5
575
330
45B
100
AcDbEntity
  8
R-ANNO-DIMS
  6
Continuous
 62
     0
370
    -2
100
AcDbLine
 10
11.27821521656495
 20
1.77190679083631
 30
0.0
 11
11.27821521656495
 21
1.9944067912609
 31
0.0
  0
SOLID
  5
576
330
45B
100
AcDbEntity
  8
R-ANNO-DIMS
 62
     0
100
AcDbTrace
 10
11.29904854989829
 20
2.52190679168549
 30
0.0
 11
11.25738188323162
 21
2.52190679168549
 31
0.0
 12
11.27821521656495
 22
2.64690679168549
 32
0.0
 13
11.27821521656495
 23
2.64690679168549
 33
0.0
  0
SOLID
  5
577
330
45B
100
AcDbEntity
  8
R-ANNO-DIMS
 62
     0
100
AcDbTrace
 10
11.25738188323162
 20
1.77190679083631
 30
0.0
 11
11.29904854989829
 21
1.77190679083631
 31
0.0
 12
11.27821521656495
 22
1.64690679083631
 32
0.0
 13
11.27821521656495
 23
1.64690679083631
 33
0.0
  0
MTEXT
  5
578
330
45B
100
AcDbEntity
  8
R-ANNO-DIMS
  6
Continuous
 62
     0
100
AcDbMText
 10
11.27821521656495
 20
2.1469067912609
 30
0.0
 40
0.125
 41
0.0
 71
     5
 72
     1
  1
\A1;1
  7
SWTSTEXT
 73
     1
 44
1.0
  0
POINT
  5
579
330
45B
100
AcDbEntity
  8
Defpoints
 62
     0
100
AcDbPoint
 10
9.741370036748751
 20
2.64690679168549
 30
0.0
  0
POINT
  5
57A
330
45B
100
AcDbEntity
  8
Defpoints
 62
     0
100
AcDbPoint
 10
11.05387003055732
 20
1.64690679083631
 30
0.0
  0
POINT
  5
57B
330
45B
100
AcDbEntity
  8
Defpoints
 62
     0
100
AcDbPoint
 10
11.27821521656495
 20
1.64690679083631
 30
0.0
  0
ENDBLK
  5
467
330
45B
100
AcDbEntity
  8
0
100
AcDbBlockEnd
  0
BLOCK
  5
474
330
469
100
AcDbEntity
  8
0
100
AcDbBlockBegin
  2
*D2
 70
     1
 10
0.0
 20
0.0
 30
0.0
  3
*D2
  1

  0
LINE
  5
97E
330
469
100
AcDbEntity
  8
R-ANNO-DIMS
  6
Continuous
 62
     0
370
    -2
100
AcDbLine
 10
11.05387003055732
 20
1.70940679083631
 30
0.0
 11
11.05387003055732
 21
4.61011178526601
 31
0.0
  0
LINE
  5
97F
330
469
100
AcDbEntity
  8
R-ANNO-DIMS
  6
Continuous
 62
     0
370
    -2
100
AcDbLine
 10
6.178870036748751
 20
1.709406791685491
 30
0.0
 11
6.178870036748751
 21
4.610111785266013
 31
0.0
  0
LINE
  5
980
330
469
100
AcDbEntity
  8
R-ANNO-DIMS
  6
Continuous
 62
     0
370
    -2
100
AcDbLine
 10
10.92887003055732
 20
4.48511178526601
 30
0.0
 11
8.785395565157922
 21
4.485111785266011
 31
0.0
  0
LINE
  5
981
330
469
100
AcDbEntity
  8
R-ANNO-DIMS
  6
Continuous
 62
     0
370
    -2
100
AcDbLine
 10
6.303870036748751
 20
4.485111785266013
 30
0.0
 11
8.40301461277697
 21
4.485111785266012
 31
0.0
  0
SOLID
  5
982
330
469
100
AcDbEntity
  8
R-ANNO-DIMS
 62
     0
100
AcDbTrace
 10
10.92887003055732
 20
4.464278451932677
 30
0.0
 11
10.92887003055732
 21
4.505945118599343
 31
0.0
 12
11.05387003055732
 22
4.48511178526601
 32
0.0
 13
11.05387003055732
 23
4.48511178526601
 33
0.0
  0
SOLID
  5
983
330
469
100
AcDbEntity
  8
R-ANNO-DIMS
 62
     0
100
AcDbTrace
 10
6.303870036748751
 20
4.505945118599346
 30
0.0
 11
6.303870036748751
 21
4.46427845193268
 31
0.0
 12
6.178870036748751
 22
4.485111785266013
 32
0.0
 13
6.178870036748751
 23
4.485111785266013
 33
0.0
  0
MTEXT
  5
984
330
469
100
AcDbEntity
  8
R-ANNO-DIMS
  6
Continuous
 62
     0
100
AcDbMText
 10
8.594205088967446
 20
4.485111785266012
 30
0.0
 40
0.125
 41
0.0
 71
     5
 72
     1
  1
\A1;4{\H1.000000x;\S7/8;}
  7
SWTSTEXT
 73
     1
 44
1.0
  0
POINT
  5
985
330
469
100
AcDbEntity
  8
Defpoints
 62
     0
100
AcDbPoint
 10
11.05387003055732
 20
1.64690679083631
 30
0.0
  0
POINT
  5
986
330
469
100
AcDbEntity
  8
Defpoints
 62
     0
100
AcDbPoint
 10
6.178870036748751
 20
1.646906791685491
 30
0.0
  0
POINT
  5
987
330
469
100
AcDbEntity
  8
Defpoints
 62
     0
100
AcDbPoint
 10
6.178870036748751
 20
4.485111785266012
 30
0.0
  0
ENDBLK
  5
475
330
469
100
AcDbEntity
  8
0
100
AcDbBlockEnd
  0
BLOCK
  5
4CA
330
490
100
AcDbEntity
  8
0
100
AcDbBlockBegin
  2
Logo
 70
     0
 10
0.0
 20
0.0
 30
0.0
  3
Logo
  1

  0
ARC
  5
491
102
{ACAD_REACTORS
330
4C7
102
}
330
490
100
AcDbEntity
  8
R-SWTS-DET1
  6
Continuous
 62
     6
100
AcDbCircle
 10
0.0941740410091869
 20
0.0124999999999993
 30
0.0
 40
0.005
100
AcDbArc
 50
270.0
 51
7.560843176671828
  0
ARC
  5
492
102
{ACAD_REACTORS
330
4C8
102
}
330
490
100
AcDbEntity
  8
R-SWTS-DET2
  6
Continuous
 62
     6
100
AcDbCircle
 10
0.0941740410091869
 20
-0.0125000000000002
 30
0.0
 40
0.005
100
AcDbArc
 50
352.4391568233282
 51
90.0
  0
ARC
  5
493
102
{ACAD_REACTORS
330
4C2
102
}
330
490
100
AcDbEntity
  8
R-ANNO-TEXT
  6
Continuous
 62
     6
100
AcDbCircle
 10
0.0577522682445042
 20
0.0754299377741674
 30
0.0
 40
0.005
100
AcDbArc
 50
314.999999999999
 51
52.56084317667283
  0
ARC
  5
494
102
{ACAD_REACTORS
330
4C2
102
}
330
490
100
AcDbEntity
  8
R-ANNO-TEXT
  6
Continuous
 62
     6
100
AcDbCircle
 10
0.0124999999999997
 20
0.0941740410091869
 30
0.0
 40
0.005
100
AcDbArc
 50
82.43915682332818
 51
180.0
  0
ARC
  5
495
102
{ACAD_REACTORS
330
4C1
102
}
330
490
100
AcDbEntity
  8
R-ANNO-DIMS
  6
Continuous
 62
     6
100
AcDbCircle
 10
-0.0124999999999997
 20
0.0941740410091869
 30
0.0
 40
0.005
100
AcDbArc
 50
0.0
 51
97.5608431766718
  0
ARC
  5
496
102
{ACAD_REACTORS
330
4C2
102
}
330
490
100
AcDbEntity
  8
R-ANNO-TEXT
  6
Continuous
 62
     6
100
AcDbCircle
 10
0.0
 20
0.0
 30
0.0
 40
0.1
100
AcDbArc
 50
52.56084317667203
 51
82.439156823328
  0
ARC
  5
497
102
{ACAD_REACTORS
330
4C1
102
}
330
490
100
AcDbEntity
  8
R-ANNO-DIMS
  6
Continuous
 62
     6
100
AcDbCircle
 10
-0.0577522682445042
 20
0.0754299377741674
 30
0.0
 40
0.005
100
AcDbArc
 50
127.4391568233272
 51
224.9999999999982
  0
ARC
  5
498
102
{ACAD_REACTORS
330
4C1
102
}
330
490
100
AcDbEntity
  8
R-ANNO-DIMS
  6
Continuous
 62
     6
100
AcDbCircle
 10
0.0
 20
0.0
 30
0.0
 40
0.1
100
AcDbArc
 50
97.56084317667192
 51
127.439156823328
  0
ARC
  5
499
102
{ACAD_REACTORS
330
4C7
102
}
330
490
100
AcDbEntity
  8
R-SWTS-DET1
  6
Continuous
 62
     6
100
AcDbCircle
 10
0.0754299377741678
 20
0.0577522682445042
 30
0.0
 40
0.005
100
AcDbArc
 50
37.43915682332774
 51
135.0000000000018
  0
LINE
  5
49A
102
{ACAD_REACTORS
330
4C7
102
}
330
490
100
AcDbEntity
  8
R-SWTS-DET1
  6
Continuous
 62
     6
100
AcDbLine
 10
0.0266421356237312
 20
0.0160355339059333
 30
0.0
 11
0.071894403868235
 21
0.0612878021504368
 31
0.0
  0
ARC
  5
49B
102
{ACAD_REACTORS
330
4C8
102
}
330
490
100
AcDbEntity
  8
R-SWTS-DET2
  6
Continuous
 62
     6
100
AcDbCircle
 10
0.0301776695296634
 20
-0.0125000000000002
 30
0.0
 40
0.005
100
AcDbArc
 50
90.0
 51
225.0000000000018
  0
ARC
  5
49C
102
{ACAD_REACTORS
330
4C7
102
}
330
490
100
AcDbEntity
  8
R-SWTS-DET1
  6
Continuous
 62
     6
100
AcDbCircle
 10
0.0301776695296641
 20
0.0125000000000002
 30
0.0
 40
0.005
100
AcDbArc
 50
135.0
 51
270.0
  0
ARC
  5
49D
102
{ACAD_REACTORS
330
4C2
102
}
330
490
100
AcDbEntity
  8
R-ANNO-TEXT
  6
Continuous
 62
     6
100
AcDbCircle
 10
0.0124999999999997
 20
0.0301776695296634
 30
0.0
 40
0.005
100
AcDbArc
 50
180.0
 51
315.0000000000018
  0
ARC
  5
49E
102
{ACAD_REACTORS
330
4C1
102
}
330
490
100
AcDbEntity
  8
R-ANNO-DIMS
  6
Continuous
 62
     6
100
AcDbCircle
 10
-0.0124999999999997
 20
0.0301776695296629
 30
0.0
 40
0.005
100
AcDbArc
 50
225.0000000000018
 51
0.0
  0
ARC
  5
49F
102
{ACAD_REACTORS
330
4AC
102
}
330
490
100
AcDbEntity
  8
R-SWTS-DET3
  6
Continuous
 62
     6
100
AcDbCircle
 10
0.0125
 20
-0.0301776695296638
 30
0.0
 40
0.005
100
AcDbArc
 50
45.0000000000009
 51
180.0
  0
ARC
  5
4A0
102
{ACAD_REACTORS
330
4BB
102
}
330
490
100
AcDbEntity
  8
R-SWTS-PAT1
  6
Continuous
 62
     6
100
AcDbCircle
 10
-0.0301776695296634
 20
-0.0125000000000002
 30
0.0
 40
0.005
100
AcDbArc
 50
314.999999999999
 51
90.0
  0
ARC
  5
4A1
102
{ACAD_REACTORS
330
4BA
102
}
330
490
100
AcDbEntity
  8
R-SWTS-OTLN
  6
Continuous
 62
     6
100
AcDbCircle
 10
-0.0124999999999997
 20
-0.0301776695296638
 30
0.0
 40
0.005
100
AcDbArc
 50
0.0
 51
134.9999999999973
  0
ARC
  5
4A2
102
{ACAD_REACTORS
330
4BC
102
}
330
490
100
AcDbEntity
  8
R-SWTS-PAT2
  6
Continuous
 62
     6
100
AcDbCircle
 10
-0.0301776695296634
 20
0.0124999999999993
 30
0.0
 40
0.005
100
AcDbArc
 50
270.0
 51
44.9999999999991
  0
ARC
  5
4A3
102
{ACAD_REACTORS
330
4C8
102
}
330
490
100
AcDbEntity
  8
R-SWTS-DET2
  6
Continuous
 62
     6
100
AcDbCircle
 10
0.0754299377741678
 20
-0.0577522682445046
 30
0.0
 40
0.005
100
AcDbArc
 50
225.0000000000018
 51
322.5608431766722
  0
ARC
  5
4A4
102
{ACAD_REACTORS
330
4AC
102
}
330
490
100
AcDbEntity
  8
R-SWTS-DET3
  6
Continuous
 62
     6
100
AcDbCircle
 10
0.0577522682445042
 20
-0.0754299377741683
 30
0.0
 40
0.005
100
AcDbArc
 50
307.4391568233272
 51
44.9999999999982
  0
ARC
  5
4A5
102
{ACAD_REACTORS
330
4AC
102
}
330
490
100
AcDbEntity
  8
R-SWTS-DET3
  6
Continuous
 62
     6
100
AcDbCircle
 10
0.0124999999999997
 20
-0.0941740410091869
 30
0.0
 40
0.005
100
AcDbArc
 50
180.0
 51
277.5608431766718
  0
ARC
  5
4A6
102
{ACAD_REACTORS
330
4BA
102
}
330
490
100
AcDbEntity
  8
R-SWTS-OTLN
  6
Continuous
 62
     6
100
AcDbCircle
 10
-0.0124999999999997
 20
-0.0941740410091869
 30
0.0
 40
0.005
100
AcDbArc
 50
262.4391568233282
 51
0.0
  0
ARC
  5
4A7
102
{ACAD_REACTORS
330
4AC
102
}
330
490
100
AcDbEntity
  8
R-SWTS-DET3
  6
Continuous
 62
     6
100
AcDbCircle
 10
0.0
 20
0.0
 30
0.0
 40
0.1
100
AcDbArc
 50
277.560843176672
 51
307.439156823328
  0
LINE
  5
4A8
102
{ACAD_REACTORS
330
4C8
102
}
330
490
100
AcDbEntity
  8
R-SWTS-DET2
  6
Continuous
 62
     6
100
AcDbLine
 10
0.0266421356237303
 20
-0.0160355339059324
 30
0.0
 11
0.071894403868235
 21
-0.0612878021504373
 31
0.0
  0
LINE
  5
4A9
102
{ACAD_REACTORS
330
4AC
102
}
330
490
100
AcDbEntity
  8
R-SWTS-DET3
  6
Continuous
 62
     6
100
AcDbLine
 10
0.0160355339059328
 20
-0.0266421356237307
 30
0.0
 11
0.0612878021504373
 21
-0.0718944038682352
 31
0.0
  0
LINE
  5
4AA
102
{ACAD_REACTORS
330
4AC
102
}
330
490
100
AcDbEntity
  8
R-SWTS-DET3
  6
Continuous
 62
     6
100
AcDbLine
 10
0.0074999999999998
 20
-0.0301776695296638
 30
0.0
 11
0.0074999999999998
 21
-0.0941740410091869
 31
0.0
  0
LINE
  5
4AB
102
{ACAD_REACTORS
330
4BA
102
}
330
490
100
AcDbEntity
  8
R-SWTS-OTLN
  6
Continuous
 62
     6
100
AcDbLine
 10
-0.0074999999999998
 20
-0.0301776695296638
 30
0.0
 11
-0.0074999999999998
 21
-0.0941740410091869
 31
0.0
  0
HATCH
  5
4AC
330
490
100
AcDbEntity
  8
R-SWTS-DET3
  6
Continuous
 62
     6
100
AcDbHatch
 10
0.0
 20
0.0
 30
0.0
210
0.0
220
0.0
230
1.0
  2
SOLID
 70
     1
 71
     1
 91
        1
 92
        7
 72
     1
 73
     1
 93
        6
 10
0.0160355339059329
 20
-0.0266421356237307
 42
0.6681786379193445
 10
0.0074999999999998
 20
-0.0301776695296634
 42
0.0
 10
0.0074999999999998
 20
-0.0941740410091869
 42
0.4534141234453589
 10
0.0131578947368419
 20
-0.0991305694833544
 42
0.1311123756655087
 10
0.0607918613100042
 20
-0.0793999344991243
 42
0.4534141234454098
 10
0.0612878021504371
 20
-0.071894403868235
 42
0.0
 97
        6
330
49F
330
4AA
330
4A5
330
4A7
330
4A4
330
4A9
 75
     0
 76
     1
 47
0.0008898326864094
 98
        1
 10
0.0452949310457915
 20
-0.066915027358724
  0
ARC
  5
4AD
102
{ACAD_REACTORS
330
4BC
102
}
330
490
100
AcDbEntity
  8
R-SWTS-PAT2
  6
Continuous
 62
     6
100
AcDbCircle
 10
-0.0754299377741678
 20
0.0577522682445037
 30
0.0
 40
0.005
100
AcDbArc
 50
45.0000000000009
 51
142.5608431766718
  0
ARC
  5
4AE
102
{ACAD_REACTORS
330
4BB
102
}
330
490
100
AcDbEntity
  8
R-SWTS-PAT1
  6
Continuous
 62
     6
100
AcDbCircle
 10
-0.0941740410091869
 20
-0.0125000000000002
 30
0.0
 40
0.005
100
AcDbArc
 50
90.0
 51
187.5608431766717
  0
ARC
  5
4AF
102
{ACAD_REACTORS
330
4BC
102
}
330
490
100
AcDbEntity
  8
R-SWTS-PAT2
  6
Continuous
 62
     6
100
AcDbCircle
 10
-0.0941740410091869
 20
0.0124999999999993
 30
0.0
 40
0.005
100
AcDbArc
 50
172.4391568233283
 51
270.0
  0
ARC
  5
4B0
102
{ACAD_REACTORS
330
4BC
102
}
330
490
100
AcDbEntity
  8
R-SWTS-PAT2
  6
Continuous
 62
     6
100
AcDbCircle
 10
0.0
 20
0.0
 30
0.0
 40
0.1
100
AcDbArc
 50
142.5608431766721
 51
172.439156823328
  0
ARC
  5
4B1
102
{ACAD_REACTORS
330
4BA
102
}
330
490
100
AcDbEntity
  8
R-SWTS-OTLN
  6
Continuous
 62
     6
100
AcDbCircle
 10
-0.0577522682445042
 20
-0.0754299377741683
 30
0.0
 40
0.005
100
AcDbArc
 50
135.0000000000018
 51
232.5608431766728
  0
ARC
  5
4B2
102
{ACAD_REACTORS
330
4BB
102
}
330
490
100
AcDbEntity
  8
R-SWTS-PAT1
  6
Continuous
 62
     6
100
AcDbCircle
 10
-0.0754299377741678
 20
-0.0577522682445046
 30
0.0
 40
0.005
100
AcDbArc
 50
217.4391568233282
 51
314.999999999999
  0
ARC
  5
4B3
102
{ACAD_REACTORS
330
4BB
102
}
330
490
100
AcDbEntity
  8
R-SWTS-PAT1
  6
Continuous
 62
     6
100
AcDbCircle
 10
0.0
 20
0.0
 30
0.0
 40
0.1
100
AcDbArc
 50
187.5608431766719
 51
217.4391568233279
  0
ARC
  5
4B4
102
{ACAD_REACTORS
330
4BA
102
}
330
490
100
AcDbEntity
  8
R-SWTS-OTLN
  6
Continuous
 62
     6
100
AcDbCircle
 10
0.0
 20
0.0
 30
0.0
 40
0.1
100
AcDbArc
 50
232.560843176672
 51
262.439156823328
  0
LINE
  5
4B5
102
{ACAD_REACTORS
330
4BA
102
}
330
490
100
AcDbEntity
  8
R-SWTS-OTLN
  6
Continuous
 62
     6
100
AcDbLine
 10
-0.0160355339059324
 20
-0.0266421356237307
 30
0.0
 11
-0.0612878021504373
 21
-0.0718944038682352
 31
0.0
  0
LINE
  5
4B6
102
{ACAD_REACTORS
330
4BB
102
}
330
490
100
AcDbEntity
  8
R-SWTS-PAT1
  6
Continuous
 62
     6
100
AcDbLine
 10
-0.0266421356237307
 20
-0.0160355339059333
 30
0.0
 11
-0.0718944038682352
 21
-0.0612878021504368
 31
0.0
  0
LINE
  5
4B7
102
{ACAD_REACTORS
330
4BB
102
}
330
490
100
AcDbEntity
  8
R-SWTS-PAT1
  6
Continuous
 62
     6
100
AcDbLine
 10
-0.0301776695296634
 20
-0.0075000000000003
 30
0.0
 11
-0.0941740410091869
 21
-0.0075000000000003
 31
0.0
  0
LINE
  5
4B8
102
{ACAD_REACTORS
330
4BC
102
}
330
490
100
AcDbEntity
  8
R-SWTS-PAT2
  6
Continuous
 62
     6
100
AcDbLine
 10
-0.0266421356237307
 20
0.0160355339059324
 30
0.0
 11
-0.0718944038682352
 21
0.0612878021504368
 31
0.0
  0
LINE
  5
4B9
102
{ACAD_REACTORS
330
4BC
102
}
330
490
100
AcDbEntity
  8
R-SWTS-PAT2
  6
Continuous
 62
     6
100
AcDbLine
 10
-0.0301776695296634
 20
0.0074999999999994
 30
0.0
 11
-0.0941740410091869
 21
0.0074999999999994
 31
0.0
  0
HATCH
  5
4BA
330
490
100
AcDbEntity
  8
R-SWTS-OTLN
  6
Continuous
 62
     6
100
AcDbHatch
 10
0.0
 20
0.0
 30
0.0
210
0.0
220
0.0
230
1.0
  2
SOLID
 70
     1
 71
     1
 91
        1
 92
        7
 72
     1
 73
     1
 93
        6
 10
-0.0612878021504372
 20
-0.0718944038682352
 42
0.4534141234453475
 10
-0.0607918613100046
 20
-0.0793999344991239
 42
0.1311123756655102
 10
-0.0131578947368419
 20
-0.0991305694833546
 42
0.4534141234453685
 10
-0.0074999999999998
 20
-0.0941740410091869
 42
0.0
 10
-0.0074999999999998
 20
-0.0301776695296638
 42
0.6681786379193111
 10
-0.0160355339059326
 20
-0.026642135623731
 42
0.0
 97
        6
330
4A1
330
4B5
330
4B1
330
4B4
330
4A6
330
4AB
 75
     0
 76
     1
 47
0.0008898326864094
 98
        1
 10
-0.0232853322002938
 20
-0.0491183732070368
  0
HATCH
  5
4BB
330
490
100
AcDbEntity
  8
R-SWTS-PAT1
  6
Continuous
 62
     6
100
AcDbHatch
 10
0.0
 20
0.0
 30
0.0
210
0.0
220
0.0
230
1.0
  2
SOLID
 70
     1
 71
     1
 91
        1
 92
        7
 72
     1
 73
     1
 93
        6
 10
-0.0941740410091869
 20
-0.0075000000000003
 42
0.453414123445365
 10
-0.0991305694833545
 20
-0.0131578947368423
 42
0.1311123756655095
 10
-0.0793999344991238
 20
-0.0607918613100047
 42
0.4534141234453341
 10
-0.0718944038682353
 20
-0.0612878021504368
 42
0.0
 10
-0.0266421356237305
 20
-0.016035533905933
 42
0.6681786379193052
 10
-0.0301776695296632
 20
-0.0075000000000003
 42
0.0
 97
        6
330
4B7
330
4AE
330
4B3
330
4B2
330
4B6
330
4A0
 75
     0
 76
     1
 47
0.0008898326864094
 98
        1
 10
-0.0606927519483949
 20
-0.0161945603424947
  0
HATCH
  5
4BC
330
490
100
AcDbEntity
  8
R-SWTS-PAT2
  6
Continuous
 62
     6
100
AcDbHatch
 10
0.0
 20
0.0
 30
0.0
210
0.0
220
0.0
230
1.0
  2
SOLID
 70
     1
 71
     1
 91
        1
 92
        7
 72
     1
 73
     1
 93
        6
 10
-0.0991305694833546
 20
0.0131578947368414
 42
0.4534141234453686
 10
-0.094174041009187
 20
0.0074999999999994
 42
0.0
 10
-0.0301776695296634
 20
0.0074999999999994
 42
0.6681786379193361
 10
-0.0266421356237305
 20
0.0160355339059322
 42
0.0
 10
-0.071894403868235
 20
0.0612878021504366
 42
0.4534141234454016
 10
-0.0793999344991242
 20
0.0607918613100042
 42
0.13111237566551
 97
        6
330
4AD
330
4B0
330
4AF
330
4B9
330
4A2
330
4B8
 75
     0
 76
     1
 47
0.0008898326864094
 98
        1
 10
-0.0865216783395087
 20
0.0300767364260093
  0
LINE
  5
4BD
102
{ACAD_REACTORS
330
4C2
102
}
330
490
100
AcDbEntity
  8
R-ANNO-TEXT
  6
Continuous
 62
     6
100
AcDbLine
 10
0.0160355339059328
 20
0.0266421356237307
 30
0.0
 11
0.0612878021504373
 21
0.0718944038682348
 31
0.0
  0
LINE
  5
4BE
102
{ACAD_REACTORS
330
4C2
102
}
330
490
100
AcDbEntity
  8
R-ANNO-TEXT
  6
Continuous
 62
     6
100
AcDbLine
 10
0.0074999999999998
 20
0.0301776695296634
 30
0.0
 11
0.0074999999999998
 21
0.0941740410091869
 31
0.0
  0
LINE
  5
4BF
102
{ACAD_REACTORS
330
4C1
102
}
330
490
100
AcDbEntity
  8
R-ANNO-DIMS
  6
Continuous
 62
     6
100
AcDbLine
 10
-0.0074999999999998
 20
0.0301776695296629
 30
0.0
 11
-0.0074999999999998
 21
0.0941740410091869
 31
0.0
  0
LINE
  5
4C0
102
{ACAD_REACTORS
330
4C1
102
}
330
490
100
AcDbEntity
  8
R-ANNO-DIMS
  6
Continuous
 62
     6
100
AcDbLine
 10
-0.0160355339059324
 20
0.0266421356237303
 30
0.0
 11
-0.0612878021504373
 21
0.0718944038682348
 31
0.0
  0
HATCH
  5
4C1
330
490
100
AcDbEntity
  8
R-ANNO-DIMS
  6
Continuous
 62
     6
100
AcDbHatch
 10
0.0
 20
0.0
 30
0.0
210
0.0
220
0.0
230
1.0
  2
SOLID
 70
     1
 71
     1
 91
        1
 92
        7
 72
     1
 73
     1
 93
        6
 10
-0.0074999999999998
 20
0.0941740410091869
 42
0.4534141234453656
 10
-0.0131578947368419
 20
0.0991305694833545
 42
0.1311123756655101
 10
-0.0607918613100047
 20
0.0793999344991241
 42
0.4534141234453891
 10
-0.0612878021504374
 20
0.071894403868235
 42
0.0
 10
-0.0160355339059324
 20
0.0266421356237303
 42
0.6681786379192679
 10
-0.0074999999999998
 20
0.0301776695296632
 42
0.0
 97
        6
330
495
330
498
330
497
330
4C0
330
49E
330
4BF
 75
     0
 76
     1
 47
0.0008898326864094
 98
        1
 10
-0.0286292493071659
 20
0.0718988763663955
  0
HATCH
  5
4C2
330
490
100
AcDbEntity
  8
R-ANNO-TEXT
  6
Continuous
 62
     6
100
AcDbHatch
 10
0.0
 20
0.0
 30
0.0
210
0.0
220
0.0
230
1.0
  2
SOLID
 70
     1
 71
     1
 91
        1
 92
        7
 72
     1
 73
     1
 93
        6
 10
0.061287802150437
 20
0.0718944038682345
 42
0.4534141234454016
 10
0.0607918613100047
 20
0.0793999344991239
 42
0.1311123756655107
 10
0.0131578947368418
 20
0.0991305694833545
 42
0.453414123445365
 10
0.0074999999999998
 20
0.0941740410091868
 42
0.0
 10
0.0074999999999998
 20
0.0301776695296634
 42
0.6681786379193164
 10
0.0160355339059327
 20
0.0266421356237305
 42
0.0
 97
        6
330
493
330
496
330
494
330
4BE
330
49D
330
4BD
 75
     0
 76
     1
 47
0.0008898326864094
 98
        1
 10
0.0328257911297578
 20
0.0701192082673048
  0
ARC
  5
4C3
102
{ACAD_REACTORS
330
4C7
102
}
330
490
100
AcDbEntity
  8
R-SWTS-DET1
  6
Continuous
 62
     6
100
AcDbCircle
 10
0.0
 20
0.0
 30
0.0
 40
0.1
100
AcDbArc
 50
7.56084317667193
 51
37.43915682332803
  0
LINE
  5
4C4
102
{ACAD_REACTORS
330
4C7
102
}
330
490
100
AcDbEntity
  8
R-SWTS-DET1
  6
Continuous
 62
     6
100
AcDbLine
 10
0.0301776695296641
 20
0.0074999999999994
 30
0.0
 11
0.0941740410091869
 21
0.0074999999999994
 31
0.0
  0
ARC
  5
4C5
102
{ACAD_REACTORS
330
4C8
102
}
330
490
100
AcDbEntity
  8
R-SWTS-DET2
  6
Continuous
 62
     6
100
AcDbCircle
 10
0.0
 20
0.0
 30
0.0
 40
0.1
100
AcDbArc
 50
322.560843176672
 51
352.4391568233281
  0
LINE
  5
4C6
102
{ACAD_REACTORS
330
4C8
102
}
330
490
100
AcDbEntity
  8
R-SWTS-DET2
  6
Continuous
 62
     6
100
AcDbLine
 10
0.0301776695296634
 20
-0.0075000000000003
 30
0.0
 11
0.0941740410091869
 21
-0.0075000000000003
 31
0.0
  0
HATCH
  5
4C7
330
490
100
AcDbEntity
  8
R-SWTS-DET1
  6
Continuous
 62
     6
100
AcDbHatch
 10
0.0
 20
0.0
 30
0.0
210
0.0
220
0.0
230
1.0
  2
SOLID
 70
     1
 71
     1
 91
        1
 92
        7
 72
     1
 73
     1
 93
        6
 10
0.0793999344991241
 20
0.0607918613100045
 42
0.4534141234453705
 10
0.0718944038682351
 20
0.0612878021504371
 42
0.0
 10
0.0266421356237311
 20
0.016035533905933
 42
0.6681786379194726
 10
0.0301776695296636
 20
0.0074999999999994
 42
0.0
 10
0.094174041009187
 20
0.0074999999999994
 42
0.4534141234453691
 10
0.0991305694833546
 20
0.0131578947368414
 42
0.1311123756655111
 97
        6
330
499
330
49A
330
49C
330
4C4
330
491
330
4C3
 75
     0
 76
     1
 47
0.0008898326864094
 98
        1
 10
0.0827023382096958
 20
0.0318564045251
  0
HATCH
  5
4C8
330
490
100
AcDbEntity
  8
R-SWTS-DET2
  6
Continuous
 62
     6
100
AcDbHatch
 10
0.0
 20
0.0
 30
0.0
210
0.0
220
0.0
230
1.0
  2
SOLID
 70
     1
 71
     1
 91
        1
 92
        7
 72
     1
 73
     1
 93
        6
 10
0.0991305694833546
 20
-0.0131578947368423
 42
0.4534141234453724
 10
0.0941740410091869
 20
-0.0075000000000003
 42
0.0
 10
0.0301776695296634
 20
-0.0075000000000003
 42
0.6681786379192715
 10
0.0266421356237307
 20
-0.0160355339059328
 42
0.0
 10
0.0718944038682351
 20
-0.0612878021504375
 42
0.4534141234453565
 10
0.0793999344991239
 20
-0.0607918613100047
 42
0.1311123756655093
 97
        6
330
492
330
4C6
330
49B
330
4A8
330
4A3
330
4C5
 75
     0
 76
     1
 47
0.0008898326864094
 98
        1
 10
0.0889369144598111
 20
-0.0250928874183378
  0
MTEXT
  5
4C9
330
490
100
AcDbEntity
  8
R-SWTS-PAT3
  6
Continuous
 62
     6
100
AcDbMText
 10
0.1939806497453276
 20
0.0
 30
0.0
 40
0.15
 41
0.9183
 71
     4
 72
     5
  1
{\fArial|b1|i0|c0|p34;PEMKO}
  7
SWTSTEXT
 73
     1
 44
1.0
  0
ENDBLK
  5
4CB
330
490
100
AcDbEntity
  8
0
100
AcDbBlockEnd
  0
BLOCK
  5
51A
330
517
100
AcDbEntity
  8
0
100
AcDbBlockBegin
  2
NL1678
 70
     0
 10
0.0
 20
0.0
 30
0.0
  3
NL1678
  1

  0
LINE
  5
51B
330
517
100
AcDbEntity
  8
0
  6
Continuous
100
AcDbLine
 10
-0.0687499999999999
 20
-0.0250000000000001
 30
0.0
 11
0.0687500000000001
 21
-0.0250000000000001
 31
0.0
  0
LINE
  5
51C
330
517
100
AcDbEntity
  8
0
  6
Continuous
100
AcDbLine
 10
-0.0687499999999999
 20
-0.0000000000000001
 30
0.0
 11
0.0687500000000001
 21
0.0
 31
0.0
  0
LINE
  5
51D
330
517
100
AcDbEntity
  8
0
  6
Continuous
100
AcDbLine
 10
0.0305000000000002
 20
0.0062500000000003
 30
0.0
 11
0.0305
 21
0.7349999999999994
 31
0.0
  0
LINE
  5
51E
330
517
100
AcDbEntity
  8
0
  6
Continuous
100
AcDbLine
 10
0.0305
 20
0.7349999999999999
 30
0.0
 11
-0.0305
 21
0.7349999999999999
 31
0.0
  0
LINE
  5
51F
330
517
100
AcDbEntity
  8
0
  6
Continuous
100
AcDbLine
 10
-0.0304999999999997
 20
0.7350000000000005
 30
0.0
 11
-0.0305
 21
0.0062500000000001
 31
0.0
  0
LINE
  5
520
330
517
100
AcDbEntity
  8
0
  6
Continuous
100
AcDbLine
 10
-0.075
 20
-0.00625
 30
0.0
 11
-0.075
 21
-0.01875
 31
0.0
  0
LINE
  5
521
330
517
100
AcDbEntity
  8
0
  6
Continuous
100
AcDbLine
 10
0.075
 20
-0.00625
 30
0.0
 11
0.075
 21
-0.01875
 31
0.0
  0
ARC
  5
522
330
517
100
AcDbEntity
  8
0
  6
Continuous
100
AcDbCircle
 10
-0.0687499999999999
 20
-0.00625
 30
0.0
 40
0.00625
100
AcDbArc
 50
90.0
 51
180.0
  0
ARC
  5
523
330
517
100
AcDbEntity
  8
0
  6
Continuous
100
AcDbCircle
 10
-0.0687499999999999
 20
-0.01875
 30
0.0
 40
0.00625
100
AcDbArc
 50
180.0
 51
270.0
  0
ARC
  5
524
330
517
100
AcDbEntity
  8
0
  6
Continuous
100
AcDbCircle
 10
0.0687500000000001
 20
-0.00625
 30
0.0
 40
0.00625
100
AcDbArc
 50
0.0000000000000064
 51
90.0
  0
ARC
  5
525
330
517
100
AcDbEntity
  8
0
  6
Continuous
100
AcDbCircle
 10
0.0687500000000001
 20
-0.01875
 30
0.0
 40
0.00625
100
AcDbArc
 50
270.0
 51
0.0000000000000064
  0
ARC
  5
526
330
517
100
AcDbEntity
  8
0
  6
Continuous
100
AcDbCircle
 10
0.0367500000000003
 20
0.0062500000000003
 30
0.0
 40
0.00625
100
AcDbArc
 50
180.0
 51
270.0
  0
ARC
  5
527
330
517
100
AcDbEntity
  8
0
  6
Continuous
100
AcDbCircle
 10
-0.0367499999999996
 20
0.0062500000000001
 30
0.0
 40
0.00625
100
AcDbArc
 50
270.0
 51
0.0
  0
LINE
  5
528
330
517
100
AcDbEntity
  8
0
  6
Continuous
100
AcDbLine
 10
0.0
 20
0.8599999999999999
 30
0.0
 11
-0.0305
 21
0.7349999999999999
 31
0.0
  0
LINE
  5
529
330
517
100
AcDbEntity
  8
0
  6
Continuous
100
AcDbLine
 10
0.0
 20
0.8599999999999999
 30
0.0
 11
0.0305
 21
0.7349999999999999
 31
0.0
  0
ENDBLK
  5
52A
330
517
100
AcDbEntity
  8
0
100
AcDbBlockEnd
  0
BLOCK
  5
A57
330
5B6
100
AcDbEntity
  8
0
100
AcDbBlockBegin
  2
PEMKO_ASSA LOGO
 70
     0
 10
0.0
 20
0.0
 30
0.0
  3
PEMKO_ASSA LOGO
  1

  0
INSERT
  5
A2A
330
5B6
100
AcDbEntity
  8
0
100
AcDbBlockReference
  2
ASSA_ABLOY
 10
9.89088130142971
 20
1.092995971723019
 30
0.0
 41
0.5
 42
0.5
 43
0.5
  0
ENDBLK
  5
A58
330
5B6
100
AcDbEntity
  8
0
100
AcDbBlockEnd
  0
BLOCK
  5
90D
330
90B
100
AcDbEntity
  8
0
100
AcDbBlockBegin
  2
ASSA LOGO
 70
     0
 10
0.0
 20
0.0
 30
0.0
  3
ASSA LOGO
  1

  0
INSERT
  5
90C
330
90B
100
AcDbEntity
  8
R-ANNO-TEXT
  6
Continuous
100
AcDbBlockReference
  2
PEMKO_ASSA LOGO
 10
0.0504323823128816
 20
-0.0030963513975459
 30
0.0
 41
0.625
 42
0.625
 43
0.625
  0
ENDBLK
  5
90E
330
90B
100
AcDbEntity
  8
0
100
AcDbBlockEnd
  0
BLOCK
  5
94A
330
93F
100
AcDbEntity
  8
0
100
AcDbBlockBegin
  2
*D7
 70
     1
 10
0.0
 20
0.0
 30
0.0
  3
*D7
  1

  0
LINE
  5
974
330
93F
100
AcDbEntity
  8
R-ANNO-DIMS
  6
Continuous
 62
     0
370
    -2
100
AcDbLine
 10
8.553870030557324
 20
2.64690679083631
 30
0.0
 11
8.553870030557324
 21
4.171901974737557
 31
0.0
  0
LINE
  5
975
330
93F
100
AcDbEntity
  8
R-ANNO-DIMS
  6
Continuous
 62
     0
370
    -2
100
AcDbLine
 10
9.803870030557324
 20
2.646906790836309
 30
0.0
 11
9.803870030557324
 21
4.171901974737557
 31
0.0
  0
LINE
  5
976
330
93F
100
AcDbEntity
  8
R-ANNO-DIMS
  6
Continuous
 62
     0
370
    -2
100
AcDbLine
 10
8.678870030557324
 20
4.046901974737557
 30
0.0
 11
8.996329107938276
 21
4.046901974737557
 31
0.0
  0
LINE
  5
977
330
93F
100
AcDbEntity
  8
R-ANNO-DIMS
  6
Continuous
 62
     0
370
    -2
100
AcDbLine
 10
9.678870030557324
 20
4.046901974737557
 30
0.0
 11
9.361410953176371
 21
4.046901974737557
 31
0.0
  0
SOLID
  5
978
330
93F
100
AcDbEntity
  8
R-ANNO-DIMS
 62
     0
100
AcDbTrace
 10
8.678870030557324
 20
4.06773530807089
 30
0.0
 11
8.678870030557324
 21
4.026068641404223
 31
0.0
 12
8.553870030557324
 22
4.046901974737557
 32
0.0
 13
8.553870030557324
 23
4.046901974737557
 33
0.0
  0
SOLID
  5
979
330
93F
100
AcDbEntity
  8
R-ANNO-DIMS
 62
     0
100
AcDbTrace
 10
9.678870030557324
 20
4.026068641404223
 30
0.0
 11
9.678870030557324
 21
4.06773530807089
 31
0.0
 12
9.803870030557324
 22
4.046901974737557
 32
0.0
 13
9.803870030557324
 23
4.046901974737557
 33
0.0
  0
MTEXT
  5
97A
330
93F
100
AcDbEntity
  8
R-ANNO-DIMS
  6
Continuous
 62
     0
100
AcDbMText
 10
9.178870030557324
 20
4.046901974737557
 30
0.0
 40
0.125
 41
0.0
 71
     5
 72
     1
  1
\A1;1{\H1.000000x;\S1/4;}
  7
SWTSTEXT
 73
     1
 44
1.0
  0
POINT
  5
97B
330
93F
100
AcDbEntity
  8
Defpoints
 62
     0
100
AcDbPoint
 10
8.553870030557324
 20
2.58440679083631
 30
0.0
  0
POINT
  5
97C
330
93F
100
AcDbEntity
  8
Defpoints
 62
     0
100
AcDbPoint
 10
9.803870030557324
 20
2.584406790836309
 30
0.0
  0
POINT
  5
97D
330
93F
100
AcDbEntity
  8
Defpoints
 62
     0
100
AcDbPoint
 10
9.803870030557324
 20
4.046901974737557
 30
0.0
  0
ENDBLK
  5
94B
330
93F
100
AcDbEntity
  8
0
100
AcDbBlockEnd
  0
BLOCK
  5
A2C
330
A2B
100
AcDbEntity
  8
0
100
AcDbBlockBegin
  2
ASSA_ABLOY
 70
     0
 10
0.0
 20
0.0
 30
0.0
  3
ASSA_ABLOY
  1

  0
HATCH
  5
A2D
330
A2B
100
AcDbEntity
  8
0
100
AcDbHatch
 10
0.0
 20
0.0
 30
0.0
210
0.0
220
0.0
230
1.0
  2
SOLID
 70
     1
 71
     0
 91
       11
 92
        5
 93
       82
 72
     4
 94
        3
 73
     0
 74
     0
 95
        8
 96
        4
 40
15.5
 40
15.5
 40
15.5
 40
15.5
 40
16.0
 40
16.0
 40
16.0
 40
16.0
 10
0.2394341362847223
 20
0.1802435980902777
 10
0.1990627712673607
 20
0.2879977756076388
 10
0.15869140625
 20
0.395751953125
 10
0.15869140625
 20
0.395751953125
 72
     4
 94
        3
 73
     0
 74
     0
 95
        8
 96
        4
 40
16.00001
 40
16.00001
 40
16.00001
 40
16.00001
 40
16.99999
 40
16.99999
 40
16.99999
 40
16.99999
 10
0.1586914062064455
 20
0.395751953125
 10
0.1586885026477205
 20
0.395751953125
 10
0.0135120181856125
 20
0.395751953125
 10
0.0135091146268884
 20
0.395751953125
 72
     4
 94
        3
 73
     0
 74
     0
 95
        8
 96
        4
 40
17.0
 40
17.0
 40
17.0
 40
17.0
 40
17.5
 40
17.5
 40
17.5
 40
17.5
 10
0.0135091145833339
 20
0.395751953125
 10
0.0135091145833339
 20
0.395751953125
 10
-0.0476209852430554
 20
0.234395345052083
 10
-0.1087510850694446
 20
0.0730387369791665
 72
     4
 94
        3
 73
     0
 74
     0
 95
        8
 96
        4
 40
17.5
 40
17.5
 40
17.5
 40
17.5
 40
18.0
 40
18.0
 40
18.0
 40
18.0
 10
-0.1087510850694446
 20
0.0730387369791665
 10
-0.169881184895833
 20
-0.08831787109375
 10
-0.2310112847222219
 20
-0.249674479166667
 10
-0.2310112847222219
 20
-0.249674479166667
 72
     4
 94
        3
 73
     0
 74
     0
 95
        8
 96
        4
 40
18.00001
 40
18.00001
 40
18.00001
 40
18.00001
 40
18.99999
 40
18.99999
 40
18.99999
 40
18.99999
 10
-0.2310112846791554
 20
-0.2496744791665648
 10
-0.231008413671538
 20
-0.2496744723850841
 10
-0.0874594682729049
 20
-0.2493354017468605
 10
-0.0874565972652874
 20
-0.2493353949653798
 72
     4
 94
        3
 73
     0
 74
     0
 95
        8
 96
        4
 40
19.00001
 40
19.00001
 40
19.00001
 40
19.00001
 40
19.99999
 40
19.99999
 40
19.99999
 40
19.99999
 10
-0.0874565972070558
 20
-0.2493353949222157
 10
-0.087455586223931
 20
-0.2493325241858564
 10
-0.0369069354774556
 20
-0.1057971416127543
 10
-0.0369059244943317
 20
-0.1057942708763955
 72
     4
 94
        3
 73
     0
 74
     0
 95
        8
 96
        4
 40
20.00001
 40
20.00001
 40
20.00001
 40
20.00001
 40
20.99999
 40
20.99999
 40
20.99999
 40
20.99999
 10
-0.0369059244067591
 20
-0.1057942708333504
 10
-0.0369010973488839
 20
-0.1057942719183869
 10
0.2044493829391616
 20
-0.1058485232205024
 10
0.2044542099970368
 20
-0.1058485243055389
 72
     4
 94
        3
 73
     0
 74
     0
 95
        8
 96
        4
 40
21.00001
 40
21.00001
 40
21.00001
 40
21.00001
 40
21.99999
 40
21.99999
 40
21.99999
 40
21.99999
 10
0.2044542100840845
 20
-0.1058485243486014
 10
0.2044551860747692
 20
-0.1058513939999233
 10
0.2532542323280094
 20
-0.2493325252709107
 10
0.2532552083186941
 20
-0.2493353949222321
 72
     4
 94
        3
 73
     0
 74
     0
 95
        8
 96
        4
 40
22.00001
 40
22.00001
 40
22.00001
 40
22.00001
 40
22.99999
 40
22.99999
 40
22.99999
 40
22.99999
 10
0.2532552083774737
 20
-0.2493353949652981
 10
0.2532581509975289
 20
-0.2493353963215945
 10
0.4003876823358059
 20
-0.2494032104492394
 10
0.4003906249558602
 20
-0.2494032118055358
 72
     4
 94
        3
 73
     0
 74
     0
 95
        8
 96
        4
 40
23.00001
 40
23.00001
 40
23.00001
 40
23.00001
 40
24.0
 40
24.0
 40
24.0
 40
24.0
 10
0.4003906249932161
 20
-0.2494032117874325
 10
0.40039017279957
 20
-0.2494020035867703
 10
0.3777804904513893
 20
-0.1889919704861112
 10
0.3777804904513893
 20
-0.1889919704861112
 72
     4
 94
        3
 73
     0
 74
     0
 95
        8
 96
        4
 40
24.0
 40
24.0
 40
24.0
 40
24.0
 40
25.0
 40
25.0
 40
25.0
 40
25.0
 10
0.3777804904513893
 20
-0.1889919704861112
 10
0.4297553168402777
 20
-0.2406141493055558
 10
0.509684244791667
 20
-0.2647298177083335
 10
0.5931667751736116
 20
-0.264567057291667
 72
     4
 94
        3
 73
     0
 74
     0
 95
        8
 96
        4
 40
25.0
 40
25.0
 40
25.0
 40
25.0
 40
26.0
 40
26.0
 40
26.0
 40
26.0
 10
0.5931667751736116
 20
-0.264567057291667
 10
0.7222357855902777
 20
-0.264689127604167
 10
0.8067220052083339
 20
-0.2164035373263888
 10
0.842203776041667
 20
-0.1436903211805558
 72
     4
 94
        3
 73
     0
 74
     0
 95
        8
 96
        4
 40
26.0
 40
26.0
 40
26.0
 40
26.0
 40
27.0
 40
27.0
 40
27.0
 40
27.0
 10
0.842203776041667
 20
-0.1436903211805558
 10
0.8873019748263893
 20
-0.2265353732638888
 10
0.9869113498263893
 20
-0.2644992404513888
 10
1.091769748263889
 20
-0.2643771701388888
 72
     4
 94
        3
 73
     0
 74
     0
 95
       11
 96
        7
 40
27.0
 40
27.0
 40
27.0
 40
27.0
 40
28.0
 40
28.0
 40
28.0
 40
28.250075
 40
28.250075
 40
28.250075
 40
28.250075
 10
1.091769748263889
 20
-0.2643771701388888
 10
1.193033854166667
 20
-0.2643771701388888
 10
1.266628689236112
 20
-0.2346327039930558
 10
1.310818142361112
 20
-0.1867404513888888
 10
1.310818142361112
 20
-0.1867404513888893
 10
1.309343089161759
 20
-0.1906278400103001
 10
1.30713073062071
 20
-0.1964583398341233
 72
     4
 94
        3
 73
     0
 74
     0
 95
        8
 96
        4
 40
28.250075
 40
28.250075
 40
28.250075
 40
28.250075
 40
28.50006999993705
 40
28.50006999993705
 40
28.50006999993705
 40
28.50006999993705
 10
1.30713073062071
 20
-0.1964583398341233
 10
1.304919079822628
 20
-0.2022869744560949
 10
1.301970595341665
 20
-0.2100574772601513
 10
1.29902231723586
 20
-0.2178274361784407
 72
     4
 94
        3
 73
     0
 74
     0
 95
        8
 96
        4
 40
28.50006999993705
 40
28.50006999993705
 40
28.50006999993705
 40
28.50006999993705
 40
28.6250675
 40
28.6250675
 40
28.6250675
 40
28.6250675
 10
1.29902231723586
 20
-0.2178274361784407
 10
1.297548178181843
 20
-0.2217124156405199
 10
1.296074090721617
 20
-0.225597259131157
 10
1.294692184862644
 20
-0.2292391651413204
 72
     4
 94
        3
 73
     0
 74
     0
 95
        8
 96
        4
 40
28.6250675
 40
28.6250675
 40
28.6250675
 40
28.6250675
 40
28.75006499925298
 40
28.75006499925298
 40
28.75006499925298
 40
28.75006499925298
 10
1.294692184862644
 20
-0.2292391651413204
 10
1.293310279012625
 20
-0.2328810711278848
 10
1.292020554762665
 20
-0.2362800396371232
 10
1.290915142118437
 20
-0.2391932691647245
 72
     4
 94
        3
 73
     0
 74
     0
 95
        8
 96
        4
 40
28.75006499925298
 40
28.75006499925298
 40
28.75006499925298
 40
28.75006499925298
 40
28.81256375
 40
28.81256375
 40
28.81256375
 40
28.81256375
 10
1.290915142118437
 20
-0.2391932691647245
 10
1.290362435786413
 20
-0.2406498839546405
 10
1.289855807357474
 20
-0.2419850639947927
 10
1.28940677308295
 20
-0.2431684590955099
 72
     4
 94
        3
 73
     0
 74
     0
 95
        8
 96
        4
 40
28.81256375
 40
28.81256375
 40
28.81256375
 40
28.81256375
 40
28.87506249859974
 40
28.87506249859974
 40
28.87506249859974
 40
28.87506249859974
 10
1.28940677308295
 20
-0.2431684590955099
 10
1.288957738823852
 20
-0.2443518541555689
 10
1.28856629871521
 20
-0.2453834642866228
 10
1.288243969007167
 20
-0.2462329393021285
 72
     4
 94
        3
 73
     0
 74
     0
 95
       11
 96
        7
 40
28.99713037109375
 40
28.99713037109375
 40
28.99713037109375
 40
28.99713037109375
 40
29.0
 40
29.0
 40
29.0
 40
29.250055
 40
29.250055
 40
29.250055
 40
29.250055
 10
1.287232026890839
 20
-0.2488998344827706
 10
1.287231639543528
 20
-0.2489008553066512
 10
1.2872314453125
 20
-0.2489013671875
 10
1.2872314453125
 20
-0.2489013671875
 10
1.2872314453125
 20
-0.2489013671875
 10
1.296212649970632
 20
-0.2489056076051854
 10
1.309683469025317
 20
-0.2489119677652676
 72
     4
 94
        3
 73
     0
 74
     0
 95
        8
 96
        4
 40
29.250055
 40
29.250055
 40
29.250055
 40
29.250055
 40
29.50004999996852
 40
29.50004999996852
 40
29.50004999996852
 40
29.50004999996852
 10
1.309683469025317
 20
-0.2489119677652676
 10
1.323151055792836
 20
-0.2489183263992465
 10
1.341106102673356
 20
-0.2489268037584917
 10
1.359060251864927
 20
-0.2489352806938987
 72
     4
 94
        3
 73
     0
 74
     0
 95
        8
 96
        4
 40
29.50004999996852
 40
29.50004999996852
 40
29.50004999996852
 40
29.50004999996852
 40
29.6250475
 40
29.6250475
 40
29.6250475
 40
29.6250475
 10
1.359060251864927
 20
-0.2489352806938987
 10
1.368037326464103
 20
-0.248939519161604
 10
1.377014176641042
 20
-0.2489437575233495
 10
1.385429757669865
 20
-0.2489477308854973
 72
     4
 94
        3
 73
     0
 74
     0
 95
        8
 96
        4
 40
29.6250475
 40
29.6250475
 40
29.6250475
 40
29.6250475
 40
29.75004499962645
 40
29.75004499962645
 40
29.75004499962645
 40
29.75004499962645
 10
1.385429757669865
 20
-0.2489477308854973
 10
1.393845338671418
 20
-0.2489517042476317
 10
1.40169965052849
 20
-0.2489554126101701
 10
1.40843164852066
 20
-0.2489585910794769
 72
     4
 94
        3
 73
     0
 74
     0
 95
        8
 96
        4
 40
29.75004499962645
 40
29.75004499962645
 40
29.75004499962645
 40
29.75004499962645
 40
29.81254375
 40
29.81254375
 40
29.81254375
 40
29.81254375
 10
1.40843164852066
 20
-0.2489585910794769
 10
1.411797647546921
 20
-0.2489601803141444
 10
1.414883068101926
 20
-0.2489616370755021
 10
1.417617779593733
 20
-0.248962928251844
 72
     4
 94
        3
 73
     0
 74
     0
 95
        8
 96
        4
 40
29.81254375
 40
29.81254375
 40
29.81254375
 40
29.81254375
 40
29.87504249929978
 40
29.87504249929978
 40
29.87504249929978
 40
29.87504249929978
 10
1.417617779593733
 20
-0.248962928251844
 10
1.420352491038557
 20
-0.2489642194281636
 10
1.422736493432234
 20
-0.2489653450194731
 10
1.424699656186441
 20
-0.2489662719140693
 72
     4
 94
        3
 73
     0
 74
     0
 95
        8
 96
        4
 40
29.87504249929978
 40
29.87504249929978
 40
29.87504249929978
 40
29.87504249929978
 40
29.906291875
 40
29.906291875
 40
29.906291875
 40
29.906291875
 10
1.424699656186441
 20
-0.2489662719140693
 10
1.425681237596536
 20
-0.2489667353613827
 10
1.426557609089691
 20
-0.2489671491345149
 10
1.427320004341482
 20
-0.2489675090945012
 72
     4
 94
        3
 73
     0
 74
     0
 95
       11
 96
        7
 40
29.99808687795555
 40
29.99808687795555
 40
29.99808687795555
 40
29.99808687795555
 40
30.0
 40
30.0
 40
30.0
 40
30.250035
 40
30.250035
 40
30.250035
 40
30.250035
 10
1.430865937892824
 20
-0.2489691832840908
 10
1.430866987307661
 20
-0.2489691837795656
 10
1.430867513020834
 20
-0.2489691840277777
 10
1.430867513020834
 20
-0.2489691840277777
 10
1.430867513020834
 20
-0.2489691840277777
 10
1.434032054505368
 20
-0.2399851762494727
 10
1.438778645214263
 20
-0.2265097934625597
 72
     4
 94
        3
 73
     0
 74
     0
 95
        8
 96
        4
 40
30.250035
 40
30.250035
 40
30.250035
 40
30.250035
 40
30.99995896606445
 40
30.99995896606445
 40
30.99995896606445
 40
30.99995896606445
 10
1.438778645214263
 20
-0.2265097934625597
 10
1.453014980646105
 20
-0.1860934017422067
 10
1.481482887178413
 20
-0.1052741440493339
 10
1.481486002348483
 20
-0.1052653002050463
 72
     4
 94
        3
 73
     0
 74
     0
 95
       11
 96
        7
 40
30.99996062252729
 40
30.99996062252729
 40
30.99996062252729
 40
30.99996062252729
 40
31.0
 40
31.0
 40
31.0
 40
31.250015
 40
31.250015
 40
31.250015
 40
31.250015
 10
1.481486002368708
 20
-0.1052653001476247
 10
1.48148600252568
 20
-0.1052652997019923
 10
1.481486002604167
 20
-0.105265299479167
 10
1.481486002604167
 20
-0.105265299479167
 10
1.481486002604167
 20
-0.105265299479167
 10
1.49657282126877
 20
-0.105256821356849
 10
1.519202596661114
 20
-0.1052441044277161
 72
     4
 94
        3
 73
     0
 74
     0
 95
        8
 96
        4
 40
31.250015
 40
31.250015
 40
31.250015
 40
31.250015
 40
31.50000999998426
 40
31.50000999998426
 40
31.50000999998426
 40
31.50000999998426
 10
1.519202596661114
 20
-0.1052441044277161
 10
1.541830561778619
 20
-0.1052313885158771
 10
1.572000276870518
 20
-0.1052144344753643
 10
1.60216969027479
 20
-0.1051974806043869
 72
     4
 94
        3
 73
     0
 74
     0
 95
        8
 96
        4
 40
31.50000999998426
 40
31.50000999998426
 40
31.50000999998426
 40
31.50000999998426
 40
31.6250075
 40
31.6250075
 40
31.6250075
 40
31.6250075
 10
1.60216969027479
 20
-0.1051974806043869
 10
1.617254396979777
 20
-0.1051890036688965
 10
1.632339028262857
 20
-0.1051805267757899
 10
1.646480827665744
 20
-0.1051725797123435
 72
     4
 94
        3
 73
     0
 74
     0
 95
        8
 96
        4
 40
31.6250075
 40
31.6250075
 40
31.6250075
 40
31.6250075
 40
31.75000499981318
 40
31.75000499981318
 40
31.75000499981318
 40
31.75000499981318
 10
1.646480827665744
 20
-0.1051725797123435
 10
1.660622627045713
 20
-0.1051646326489104
 10
1.673821594548545
 20
-0.1051572154151352
 10
1.685134973720537
 20
-0.1051508577982925
 72
     4
 94
        3
 73
     0
 74
     0
 95
        8
 96
        4
 40
31.75000499981318
 40
31.75000499981318
 40
31.75000499981318
 40
31.75000499981318
 40
31.81250375
 40
31.81250375
 40
31.81250375
 40
31.81250375
 10
1.685134973720537
 20
-0.1051508577982925
 10
1.690791663331895
 20
-0.1051476789898569
 10
1.695976955856317
 20
-0.1051447650856563
 10
1.700573006735502
 20
-0.1051421823091014
 72
     4
 94
        3
 73
     0
 74
     0
 95
        8
 96
        4
 40
31.81250375
 40
31.81250375
 40
31.81250375
 40
31.81250375
 40
31.8750024996498
 40
31.8750024996498
 40
31.8750024996498
 40
31.8750024996498
 10
1.700573006735502
 20
-0.1051421823091014
 10
1.705169057575197
 20
-0.1051395995325688
 10
1.709175866779782
 20
-0.1051373478836766
 10
1.712475589793998
 20
-0.1051354935858324
 72
     4
 94
        3
 73
     0
 74
     0
 95
        8
 96
        4
 40
31.8750024996498
 40
31.8750024996498
 40
31.8750024996498
 40
31.8750024996498
 40
31.906251875
 40
31.906251875
 40
31.906251875
 40
31.906251875
 10
1.712475589793998
 20
-0.1051354935858324
 10
1.714125451328841
 20
-0.1051345664368939
 10
1.715598541310149
 20
-0.1051337386257214
 10
1.71688012916777
 20
-0.1051330184302408
 72
     4
 94
        3
 73
     0
 74
     0
 95
        8
 96
        4
 40
31.906251875
 40
31.906251875
 40
31.906251875
 40
31.906251875
 40
31.93750124898664
 40
31.93750124898664
 40
31.93750124898664
 40
31.93750124898664
 10
1.71688012916777
 20
-0.1051330184302408
 10
1.718161716969468
 20
-0.1051322982347918
 10
1.719251802664193
 20
-0.1051316856550257
 10
1.720135655683722
 20
-0.1051311889688673
 72
     4
 94
        3
 73
     0
 74
     0
 95
        8
 96
        4
 40
31.93750124898664
 40
31.93750124898664
 40
31.93750124898664
 40
31.93750124898664
 40
31.9531259375
 40
31.9531259375
 40
31.9531259375
 40
31.9531259375
 10
1.720135655683722
 20
-0.1051311889688673
 10
1.720577582236479
 20
-0.1051309406257639
 10
1.720967950610406
 20
-0.1051307212560681
 10
1.721304919483938
 20
-0.1051305318945208
 72
     4
 94
        3
 73
     0
 74
     0
 95
        8
 96
        4
 40
31.9531259375
 40
31.9531259375
 40
31.9531259375
 40
31.9531259375
 40
31.96875062334518
 40
31.96875062334518
 40
31.96875062334518
 40
31.96875062334518
 10
1.721304919483938
 20
-0.1051305318945208
 10
1.721641888299927
 20
-0.1051303425330055
 10
1.721925457633757
 20
-0.1051301831796283
 10
1.722153786164808
 20
-0.1051300548691296
 72
     4
 94
        3
 73
     0
 74
     0
 95
        8
 96
        4
 40
31.96875062334518
 40
31.96875062334518
 40
31.96875062334518
 40
31.96875062334518
 40
31.97656296875
 40
31.97656296875
 40
31.97656296875
 40
31.97656296875
 10
1.722153786164808
 20
-0.1051300548691296
 10
1.722267950466607
 20
-0.1051299907138601
 10
1.722368304558934
 20
-0.1051299343193155
 10
1.722454618276494
 20
-0.1051298858148382
 72
     4
 94
        3
 73
     0
 74
     0
 95
        8
 96
        4
 40
31.97656296875
 40
31.97656296875
 40
31.97656296875
 40
31.97656296875
 40
31.98437530953666
 40
31.98437530953666
 40
31.98437530953666
 40
31.98437530953666
 10
1.722454618276494
 20
-0.1051298858148382
 10
1.722540931943031
 20
-0.1051298373103897
 10
1.722613205251399
 20
-0.1051297966959992
 10
1.72267120803671
 20
-0.1051297641010089
 72
     4
 94
        3
 73
     0
 74
     0
 95
        8
 96
        4
 40
31.98437530953666
 40
31.98437530953666
 40
31.98437530953666
 40
31.98437530953666
 40
31.988281484375
 40
31.988281484375
 40
31.988281484375
 40
31.988281484375
 10
1.72267120803671
 20
-0.1051297641010089
 10
1.722700209462367
 20
-0.1051297478034949
 10
1.722725643249141
 20
-0.1051297335108359
 10
1.722747480626321
 20
-0.1051297212391993
 72
     4
 94
        3
 73
     0
 74
     0
 95
        8
 96
        4
 40
31.988281484375
 40
31.988281484375
 40
31.988281484375
 40
31.988281484375
 40
31.99218765065793
 40
31.99218765065793
 40
31.99218765065793
 40
31.99218765065793
 10
1.722747480626321
 20
-0.1051297212391993
 10
1.722769317955673
 20
-0.1051297089675898
 10
1.722787558891185
 20
-0.1051296987169938
 10
1.722802174662338
 20
-0.1051296905035795
 72
     4
 94
        3
 73
     0
 74
     0
 95
        8
 96
        4
 40
31.99218765065793
 40
31.99218765065793
 40
31.99218765065793
 40
31.99218765065793
 40
31.9941407421875
 40
31.9941407421875
 40
31.9941407421875
 40
31.9941407421875
 10
1.722802174662338
 20
-0.1051296905035795
 10
1.722809482579301
 20
-0.1051296863968547
 10
1.722815884197389
 20
-0.1051296827994292
 10
1.72282137592024
 20
-0.1051296797133245
 72
     4
 94
        3
 73
     0
 74
     0
 95
        8
 96
        4
 40
31.9941407421875
 40
31.9941407421875
 40
31.9941407421875
 40
31.9941407421875
 40
31.99609381726987
 40
31.99609381726987
 40
31.99609381726987
 40
31.99609381726987
 10
1.72282137592024
 20
-0.1051296797133245
 10
1.722826867596845
 20
-0.105129676627246
 10
1.722831449393539
 20
-0.1051296740524794
 10
1.722835117714051
 20
-0.1051296719910462
 72
     4
 94
        3
 73
     0
 74
     0
 95
        8
 96
        4
 40
31.99609381726987
 40
31.99609381726987
 40
31.99609381726987
 40
31.99609381726987
 40
31.99707037109375
 40
31.99707037109375
 40
31.99707037109375
 40
31.99707037109375
 10
1.722835117714051
 20
-0.1051296719910462
 10
1.72283695190489
 20
-0.1051296709603124
 10
1.722838557719068
 20
-0.1051296700579161
 10
1.722839934707028
 20
-0.1051296692841097
 72
     4
 94
        3
 73
     0
 74
     0
 95
        8
 96
        4
 40
31.99707037109375
 40
31.99707037109375
 40
31.99707037109375
 40
31.99707037109375
 40
31.99804689267819
 40
31.99804689267819
 40
31.99804689267819
 40
31.99804689267819
 10
1.722839934707028
 20
-0.1051296692841097
 10
1.722841311649528
 20
-0.1051296685103296
 10
1.72284245978092
 20
-0.1051296678651306
 10
1.722843378651691
 20
-0.1051296673487663
 72
     4
 94
        3
 73
     0
 74
     0
 95
        8
 96
        4
 40
31.99804689267819
 40
31.99804689267819
 40
31.99804689267819
 40
31.99804689267819
 40
31.99853518554687
 40
31.99853518554687
 40
31.99853518554687
 40
31.99853518554687
 10
1.722843378651691
 20
-0.1051296673487663
 10
1.722843838117259
 20
-0.105129667090567
 10
1.722844240260142
 20
-0.1051296668645803
 10
1.722844585024138
 20
-0.1051296666708379
 72
     4
 94
        3
 73
     0
 74
     0
 95
       11
 96
        7
 40
31.99853518554687
 40
31.99853518554687
 40
31.99853518554687
 40
31.99853518554687
 40
32.0
 40
32.0
 40
32.0
 40
32.49999
 40
32.49999
 40
32.49999
 40
32.49999
 10
1.722844585024138
 20
-0.1051296666708379
 10
1.72284561927083
 20
-0.1051296660896375
 10
1.722846137152777
 20
-0.1051296657986112
 10
1.722846137152778
 20
-0.1051296657986112
 10
1.722846137152778
 20
-0.1051296657986112
 10
1.735039117300884
 20
-0.1410440277921436
 10
1.747232341308594
 20
-0.1769591080729165
 72
     4
 94
        3
 73
     0
 74
     0
 95
        8
 96
        4
 40
32.49999
 40
32.49999
 40
32.49999
 40
32.49999
 40
32.99997613614973
 40
32.99997613614973
 40
32.99997613614973
 40
32.99997613614973
 10
1.747232341308594
 20
-0.1769591080729165
 10
1.759425471088835
 20
-0.2128739108071529
 10
1.771618844724911
 20
-0.2487894318175279
 10
1.77162000859723
 20
-0.2487928599976184
 72
     4
 94
        3
 73
     0
 74
     0
 95
        8
 96
        4
 40
33.06247875
 40
33.06247875
 40
33.06247875
 40
33.06247875
 40
33.093728125
 40
33.093728125
 40
33.093728125
 40
33.093728125
 10
1.773273744895548
 20
-0.2487928602430598
 10
1.773813183580125
 20
-0.2487928602430594
 10
1.774478534844468
 20
-0.2487928602430594
 10
1.775260805549564
 20
-0.2487928602430594
 72
     4
 94
        3
 73
     0
 74
     0
 95
        8
 96
        4
 40
33.093728125
 40
33.093728125
 40
33.093728125
 40
33.093728125
 40
33.1249775
 40
33.1249775
 40
33.1249775
 40
33.1249775
 10
1.775260805549564
 20
-0.2487928602430594
 10
1.776043076254661
 20
-0.2487928602430594
 10
1.776942266400511
 20
-0.2487928602430594
 10
1.777949382848102
 20
-0.2487928602430594
 72
     4
 94
        3
 73
     0
 74
     0
 95
        8
 96
        4
 40
33.1249775
 40
33.1249775
 40
33.1249775
 40
33.1249775
 40
33.18747625
 40
33.18747625
 40
33.18747625
 40
33.18747625
 10
1.777949382848102
 20
-0.2487928602430594
 10
1.779963615743283
 20
-0.2487928602430594
 10
1.782409553845425
 20
-0.2487928602430594
 10
1.785215252042426
 20
-0.2487928602430594
 72
     4
 94
        3
 73
     0
 74
     0
 95
        8
 96
        4
 40
33.18747625
 40
33.18747625
 40
33.18747625
 40
33.18747625
 40
33.24997500000001
 40
33.24997500000001
 40
33.24997500000001
 40
33.24997500000001
 10
1.785215252042426
 20
-0.2487928602430594
 10
1.788020950239426
 20
-0.2487928602430594
 10
1.791186408531285
 20
-0.2487928602430594
 10
1.794639681805899
 20
-0.2487928602430594
 72
     4
 94
        3
 73
     0
 74
     0
 95
        8
 96
        4
 40
33.24997500000001
 40
33.24997500000001
 40
33.24997500000001
 40
33.24997500000001
 40
33.37497250000001
 40
33.37497250000001
 40
33.37497250000001
 40
33.37497250000001
 10
1.794639681805899
 20
-0.2487928602430594
 10
1.801546228355129
 20
-0.2487928602430589
 10
1.80960403483538
 20
-0.2487928602430589
 10
1.818237540349832
 20
-0.2487928602430589
 72
     4
 94
        3
 73
     0
 74
     0
 95
        8
 96
        4
 40
33.37497250000001
 40
33.37497250000001
 40
33.37497250000001
 40
33.37497250000001
 40
33.49997
 40
33.49997
 40
33.49997
 40
33.49997
 10
1.818237540349832
 20
-0.2487928602430589
 10
1.826871045864284
 20
-0.2487928602430589
 10
1.836080250412936
 20
-0.2487928602430589
 10
1.845289593098966
 20
-0.2487928602430589
 72
     4
 94
        3
 73
     0
 74
     0
 95
        8
 96
        4
 40
33.49997
 40
33.49997
 40
33.49997
 40
33.49997
 40
33.749965
 40
33.749965
 40
33.749965
 40
33.749965
 10
1.845289593098966
 20
-0.2487928602430589
 10
1.863708278471027
 20
-0.2487928602430585
 10
1.882127516392599
 20
-0.248792860243058
 10
1.895942819689104
 20
-0.2487928602430576
 72
     4
 94
        3
 73
     0
 74
     0
 95
        8
 96
        4
 40
33.749965
 40
33.749965
 40
33.749965
 40
33.749965
 40
33.99995758377254
 40
33.99995758377254
 40
33.99995758377254
 40
33.99995758377254
 10
1.895942819689104
 20
-0.2487928602430576
 10
1.909757989459278
 20
-0.2487928602430571
 10
1.918969313598962
 20
-0.2487928602430562
 10
1.918972438440813
 20
-0.2487928602430558
 72
     4
 94
        3
 73
     0
 74
     0
 95
       11
 96
        7
 40
33.99996
 40
33.99996
 40
33.99996
 40
33.99996
 40
34.0
 40
34.0
 40
34.0
 40
34.749945
 40
34.749945
 40
34.749945
 40
34.749945
 10
1.918972438528837
 20
-0.2487928602430558
 10
1.918972439000346
 20
-0.2487928602430558
 10
1.918972439236111
 20
-0.2487928602430558
 10
1.918972439236112
 20
-0.2487928602430558
 10
1.918972439236112
 20
-0.2487928602430558
 10
1.783105222623994
 20
0.1140002987517055
 10
1.715156668924107
 20
0.295436785496578
 72
     4
 94
        3
 73
     0
 74
     0
 95
        8
 96
        4
 40
34.749945
 40
34.749945
 40
34.749945
 40
34.749945
 40
34.9999397134596
 40
34.9999397134596
 40
34.9999397134596
 40
34.9999397134596
 10
1.715156668924107
 20
0.295436785496578
 10
1.692505968923177
 20
0.355918770862039
 10
1.6774025747648
 20
0.3962479114368658
 10
1.677395293432518
 20
0.3962673540780433
 72
     4
 94
        3
 73
     0
 74
     0
 95
        8
 96
        4
 40
35.06243875
 40
35.06243875
 40
35.06243875
 40
35.06243875
 40
35.093688125
 40
35.093688125
 40
35.093688125
 40
35.093688125
 10
1.675763693549519
 20
0.3962673611111112
 10
1.675231127604802
 20
0.3962673611111112
 10
1.674574167574396
 20
0.3962673611111112
 10
1.67380169732869
 20
0.3962673611111112
 72
     4
 94
        3
 73
     0
 74
     0
 95
        8
 96
        4
 40
35.093688125
 40
35.093688125
 40
35.093688125
 40
35.093688125
 40
35.1249375
 40
35.1249375
 40
35.1249375
 40
35.1249375
 10
1.67380169732869
 20
0.3962673611111112
 10
1.673029227082983
 20
0.3962673611111112
 10
1.672141246621976
 20
0.3962673611111112
 10
1.671146639816055
 20
0.3962673611111112
 72
     4
 94
        3
 73
     0
 74
     0
 95
        8
 96
        4
 40
35.1249375
 40
35.1249375
 40
35.1249375
 40
35.1249375
 40
35.18743625
 40
35.18743625
 40
35.18743625
 40
35.18743625
 10
1.671146639816055
 20
0.3962673611111112
 10
1.669157426204215
 20
0.3962673611111116
 10
1.666741707212721
 20
0.3962673611111116
 10
1.663970553804671
 20
0.3962673611111116
 72
     4
 94
        3
 73
     0
 74
     0
 95
        8
 96
        4
 40
35.18743625
 40
35.18743625
 40
35.18743625
 40
35.18743625
 40
35.24993500000001
 40
35.24993500000001
 40
35.24993500000001
 40
35.24993500000001
 10
1.663970553804671
 20
0.3962673611111116
 10
1.66119940039662
 20
0.3962673611111116
 10
1.658072812572013
 20
0.3962673611111116
 10
1.654661861293946
 20
0.3962673611111116
 72
     4
 94
        3
 73
     0
 74
     0
 95
        8
 96
        4
 40
35.24993500000001
 40
35.24993500000001
 40
35.24993500000001
 40
35.24993500000001
 40
35.37493250000001
 40
35.37493250000001
 40
35.37493250000001
 40
35.37493250000001
 10
1.654661861293946
 20
0.3962673611111116
 10
1.647839958737814
 20
0.3962673611111116
 10
1.639880602367845
 20
0.3962673611111116
 10
1.631352359888817
 20
0.3962673611111116
 72
     4
 94
        3
 73
     0
 74
     0
 95
        8
 96
        4
 40
35.37493250000001
 40
35.37493250000001
 40
35.37493250000001
 40
35.37493250000001
 40
35.49993000000001
 40
35.49993000000001
 40
35.49993000000001
 40
35.49993000000001
 10
1.631352359888817
 20
0.3962673611111116
 10
1.622824117409788
 20
0.3962673611111116
 10
1.6137269888217
 20
0.3962673611111116
 10
1.604629541829329
 20
0.3962673611111116
 72
     4
 94
        3
 73
     0
 74
     0
 95
        8
 96
        4
 40
35.49993000000001
 40
35.49993000000001
 40
35.49993000000001
 40
35.49993000000001
 40
35.749925
 40
35.749925
 40
35.749925
 40
35.749925
 10
1.604629541829329
 20
0.3962673611111116
 10
1.586434647844586
 20
0.3962673611111116
 10
1.568238480242711
 20
0.3962673611111116
 10
1.554589580661921
 20
0.3962673611111112
 72
     4
 94
        3
 73
     0
 74
     0
 95
       11
 96
        7
 40
35.749925
 40
35.749925
 40
35.749925
 40
35.749925
 40
36.0
 40
36.0
 40
36.0
 40
37.0
 40
37.0
 40
37.0
 40
37.0
 10
1.554589580661921
 20
0.3962673611111112
 10
1.540936313345913
 20
0.3962673611111112
 10
1.531833224826389
 20
0.3962673611111112
 10
1.531833224826389
 20
0.3962673611111112
 10
1.531833224826389
 20
0.3962673611111112
 10
1.35986328125
 20
-0.0575086805555558
 10
1.35986328125
 20
-0.0575086805555558
 72
     4
 94
        3
 73
     0
 74
     0
 95
        8
 96
        4
 40
1.0
 40
1.0
 40
1.0
 40
1.0
 40
2.0
 40
2.0
 40
2.0
 40
2.0
 10
1.35986328125
 20
-0.0575086805555558
 10
1.359632703993056
 20
0.0888807508680554
 10
1.215196397569445
 20
0.1187608506944442
 10
1.168240017361112
 20
0.1303032769097223
 72
     4
 94
        3
 73
     0
 74
     0
 95
        8
 96
        4
 40
2.0
 40
2.0
 40
2.0
 40
2.0
 40
3.0
 40
3.0
 40
3.0
 40
3.0
 10
1.168240017361112
 20
0.1303032769097223
 10
1.006415473090278
 20
0.1720377604166665
 10
0.9757893880208339
 20
0.1779649522569442
 10
0.9757080078125
 20
0.2279324001736112
 72
     4
 94
        3
 73
     0
 74
     0
 95
        8
 96
        4
 40
3.0
 40
3.0
 40
3.0
 40
3.0
 40
4.0
 40
4.0
 40
4.0
 40
4.0
 10
0.9757080078125
 20
0.2279324001736112
 10
0.9757893880208339
 20
0.2821587456597223
 10
1.028130425347222
 20
0.3011474609375
 10
1.073269314236112
 20
0.301025390625
 72
     4
 94
        3
 73
     0
 74
     0
 95
        8
 96
        4
 40
4.0
 40
4.0
 40
4.0
 40
4.0
 40
5.0
 40
5.0
 40
5.0
 40
5.0
 10
1.073269314236112
 20
0.301025390625
 10
1.1412353515625
 20
0.3010932074652777
 10
1.196180555555556
 20
0.2812906901041665
 10
1.2008056640625
 20
0.2036539713541665
 72
     4
 94
        3
 73
     0
 74
     0
 95
        8
 96
        4
 40
5.00001
 40
5.00001
 40
5.00001
 40
5.00001
 40
6.0
 40
6.0
 40
6.0
 40
6.0
 10
1.200805664103687
 20
0.2036539713541665
 10
1.200808409817
 20
0.2036539713541665
 10
1.338094075520834
 20
0.2036539713541665
 10
1.338094075520834
 20
0.2036539713541665
 72
     4
 94
        3
 73
     0
 74
     0
 95
        8
 96
        4
 40
6.0
 40
6.0
 40
6.0
 40
6.0
 40
7.0
 40
7.0
 40
7.0
 40
7.0
 10
1.338094075520834
 20
0.2036539713541665
 10
1.337917751736112
 20
0.3526882595486112
 10
1.214192708333334
 20
0.411336263020833
 10
1.079698350694445
 20
0.4112820095486107
 72
     4
 94
        3
 73
     0
 74
     0
 95
        8
 96
        4
 40
7.0
 40
7.0
 40
7.0
 40
7.0
 40
8.0
 40
8.0
 40
8.0
 40
8.0
 10
1.079698350694445
 20
0.4112820095486107
 10
0.9644911024305562
 20
0.411336263020833
 10
0.8418511284722223
 20
0.3495551215277777
 10
0.838785807291667
 20
0.221150716145833
 72
     4
 94
        3
 73
     0
 74
     0
 95
        8
 96
        4
 40
8.0
 40
8.0
 40
8.0
 40
8.0
 40
9.0
 40
9.0
 40
9.0
 40
9.0
 10
0.838785807291667
 20
0.221150716145833
 10
0.8290744357638893
 20
0.3570556640625
 10
0.7102593315972223
 20
0.4111463758680554
 10
0.5809868706597223
 20
0.4110378689236107
 72
     4
 94
        3
 73
     0
 74
     0
 95
        8
 96
        4
 40
9.0
 40
9.0
 40
9.0
 40
9.0
 40
10.0
 40
10.0
 40
10.0
 40
10.0
 10
0.5809868706597223
 20
0.4110378689236107
 10
0.4646945529513893
 20
0.4110378689236107
 10
0.3399929470486116
 20
0.34765625
 10
0.3400607638888893
 20
0.2158745659722223
 72
     4
 94
        3
 73
     0
 74
     0
 95
        8
 96
        4
 40
10.0
 40
10.0
 40
10.0
 40
10.0
 40
11.0
 40
11.0
 40
11.0
 40
11.0
 10
0.3400607638888893
 20
0.2158745659722223
 10
0.3401014539930562
 20
0.0946587456597223
 10
0.4367947048611116
 20
0.0578342013888888
 10
0.5325249565972223
 20
0.0324978298611112
 72
     4
 94
        3
 73
     0
 74
     0
 95
        8
 96
        4
 40
11.0
 40
11.0
 40
11.0
 40
11.0
 40
12.0
 40
12.0
 40
12.0
 40
12.0
 10
0.5325249565972223
 20
0.0324978298611112
 10
0.6274278428819446
 20
0.0072157118055554
 10
0.7240532769097223
 20
-0.004435221354167
 10
0.7239854600694446
 20
-0.0740017361111112
 72
     4
 94
        3
 73
     0
 74
     0
 95
        8
 96
        4
 40
12.0
 40
12.0
 40
12.0
 40
12.0
 40
13.0
 40
13.0
 40
13.0
 40
13.0
 10
0.7239854600694446
 20
-0.0740017361111112
 10
0.7240532769097223
 20
-0.1399197048611112
 10
0.648234049479167
 20
-0.1543240017361112
 10
0.5986328125
 20
-0.1544867621527777
 72
     4
 94
        3
 73
     0
 74
     0
 95
        8
 96
        4
 40
13.0
 40
13.0
 40
13.0
 40
13.0
 40
14.0
 40
14.0
 40
14.0
 40
14.0
 10
0.5986328125
 20
-0.1544867621527777
 10
0.5225694444444446
 20
-0.1546223958333335
 10
0.4558919270833339
 20
-0.1210394965277777
 10
0.4558241102430562
 20
-0.0352647569444446
 72
     4
 94
        3
 73
     0
 74
     0
 95
        8
 96
        4
 40
14.00001
 40
14.00001
 40
14.00001
 40
14.00001
 40
14.99999
 40
14.99999
 40
14.99999
 40
14.99999
 10
0.4558241102023626
 20
-0.0352647569444446
 10
0.4558213973388714
 20
-0.0352647569444446
 10
0.3201795792236286
 20
-0.0352647569444446
 10
0.3201768663601392
 20
-0.0352647569444446
 72
     4
 94
        3
 73
     0
 74
     0
 95
        8
 96
        4
 40
15.0
 40
15.0
 40
15.0
 40
15.0
 40
15.5
 40
15.5
 40
15.5
 40
15.5
 10
0.3201768663194446
 20
-0.0352647569444446
 10
0.3201768663194446
 20
-0.0352647569444446
 10
0.2798055013020839
 20
0.0724894205729165
 10
0.2394341362847223
 20
0.1802435980902777
 97
        0
 92
       22
 72
     0
 73
     1
 93
        4
 10
0.0840115017361116
 20
0.2366129557291665
 10
0.0859239366319446
 20
0.2366129557291665
 10
0.1672634548611116
 20
-0.0000542534722223
 10
0.0
 20
0.0
 97
        0
 92
       20
 93
       10
 72
     4
 94
        3
 73
     0
 74
     0
 95
        8
 96
        4
 40
4.0
 40
4.0
 40
4.0
 40
4.0
 40
5.0
 40
5.0
 40
5.0
 40
5.0
 10
0.4772813585069446
 20
0.2276746961805554
 10
0.4775390625
 20
0.2819146050347223
 10
0.5297580295138893
 20
0.3009711371527777
 10
0.574869791666667
 20
0.3008490668402777
 72
     4
 94
        3
 73
     0
 74
     0
 95
        8
 96
        4
 40
5.0
 40
5.0
 40
5.0
 40
5.0
 40
6.0
 40
6.0
 40
6.0
 40
6.0
 10
0.574869791666667
 20
0.3008490668402777
 10
0.6427273220486116
 20
0.3008490668402777
 10
0.6976589626736116
 20
0.2811821831597223
 10
0.7022705078125
 20
0.2034640842013888
 72
     4
 94
        3
 73
     0
 74
     0
 95
        8
 96
        4
 40
6.00001
 40
6.00001
 40
6.00001
 40
6.00001
 40
7.0
 40
7.0
 40
7.0
 40
7.0
 10
0.7022705078535605
 20
0.2034640842013888
 10
0.7022732451577536
 20
0.2034640842013888
 10
0.8391384548611116
 20
0.2034640842013888
 10
0.8391384548611116
 20
0.2034640842013888
 72
     4
 94
        3
 73
     0
 74
     0
 95
        8
 96
        4
 40
7.0
 40
7.0
 40
7.0
 40
7.0
 40
8.0
 40
8.0
 40
8.0
 40
8.0
 10
0.8391384548611116
 20
0.2034640842013888
 10
0.8457845052083339
 20
0.0925428602430554
 10
0.9385715060763893
 20
0.0570339626736112
 10
1.030843098958334
 20
0.0328776041666665
 72
     4
 94
        3
 73
     0
 74
     0
 95
        8
 96
        4
 40
8.0
 40
8.0
 40
8.0
 40
8.0
 40
9.0
 40
9.0
 40
9.0
 40
9.0
 10
1.030843098958334
 20
0.0328776041666665
 10
1.125827365451389
 20
0.0075547960069442
 10
1.222574869791667
 20
-0.004069010416667
 10
1.222642686631945
 20
-0.0737033420138888
 72
     4
 94
        3
 73
     0
 74
     0
 95
        8
 96
        4
 40
9.0
 40
9.0
 40
9.0
 40
9.0
 40
10.0
 40
10.0
 40
10.0
 40
10.0
 10
1.222642686631945
 20
-0.0737033420138888
 10
1.222574869791667
 20
-0.1396213107638888
 10
1.146755642361112
 20
-0.1541341145833335
 10
1.096856011284722
 20
-0.1541341145833335
 72
     4
 94
        3
 73
     0
 74
     0
 95
        8
 96
        4
 40
0.0
 40
0.0
 40
0.0
 40
0.0
 40
1.0
 40
1.0
 40
1.0
 40
1.0
 10
1.096856011284722
 20
-0.1541341145833335
 10
1.021104600694445
 20
-0.1543240017361112
 10
0.9542507595486116
 20
-0.120849609375
 10
0.9539794921875
 20
-0.0352647569444446
 72
     4
 94
        3
 73
     0
 74
     0
 95
        8
 96
        4
 40
1.00001
 40
1.00001
 40
1.00001
 40
1.00001
 40
2.0
 40
2.0
 40
2.0
 40
2.0
 10
0.9539794921592888
 20
-0.0352647569444078
 10
0.9539776115002887
 20
-0.0352647545030509
 10
0.8599446614583339
 20
-0.0351426866319446
 10
0.8599446614583339
 20
-0.0351426866319446
 72
     4
 94
        3
 73
     0
 74
     0
 95
        8
 96
        4
 40
2.0
 40
2.0
 40
2.0
 40
2.0
 40
3.0
 40
3.0
 40
3.0
 40
3.0
 10
0.8599446614583339
 20
-0.0351426866319446
 10
0.8459201388888893
 20
0.0917154947916665
 10
0.7143147786458339
 20
0.1189914279513888
 10
0.669677734375
 20
0.1301812065972223
 72
     4
 94
        3
 73
     0
 74
     0
 95
        8
 96
        4
 40
3.0
 40
3.0
 40
3.0
 40
3.0
 40
4.0
 40
4.0
 40
4.0
 40
4.0
 10
0.669677734375
 20
0.1301812065972223
 10
0.5082600911458339
 20
0.1716715494791665
 10
0.4774034288194446
 20
0.1780734592013888
 10
0.4772813585069446
 20
0.2276746961805554
 97
        0
 92
       22
 72
     0
 73
     1
 93
        4
 10
1.518324110243056
 20
0.00048828125
 10
1.6024169921875
 20
0.2370876736111112
 10
1.604166666666667
 20
0.2370876736111112
 10
1.685791015625
 20
0.000569661458333
 97
        0
 92
        5
 93
       18
 72
     4
 94
        3
 73
     0
 74
     0
 95
        8
 96
        4
 40
4.5
 40
4.5
 40
4.5
 40
4.5
 40
5.0
 40
5.0
 40
5.0
 40
5.0
 10
2.529140896267361
 20
0.0979410807291661
 10
2.473236083984375
 20
0.2472941080729161
 10
2.417331271701389
 20
0.3966471354166661
 10
2.417331271701389
 20
0.3966471354166665
 72
     4
 94
        3
 73
     0
 74
     0
 95
        8
 96
        4
 40
5.00001
 40
5.00001
 40
5.00001
 40
5.00001
 40
5.99999
 40
5.99999
 40
5.99999
 40
5.99999
 10
2.417331271657704
 20
0.3966471354166257
 10
2.417328359418685
 20
0.3966471327040337
 10
2.271717864539649
 20
0.3965115044487439
 10
2.271714952300629
 20
0.3965115017361516
 72
     4
 94
        3
 73
     0
 74
     0
 95
        8
 96
        4
 40
6.0
 40
6.0
 40
6.0
 40
6.0
 40
6.5
 40
6.5
 40
6.5
 40
6.5
 10
2.271714952256945
 20
0.3965115017361112
 10
2.271714952256945
 20
0.3965115017361112
 10
2.210557725694445
 20
0.2351854112413196
 10
2.149400499131945
 20
0.0738593207465277
 72
     4
 94
        3
 73
     0
 74
     0
 95
        8
 96
        4
 40
6.5
 40
6.5
 40
6.5
 40
6.5
 40
7.0
 40
7.0
 40
7.0
 40
7.0
 10
2.149400499131945
 20
0.0738593207465277
 10
2.088243272569445
 20
-0.0874667697482643
 10
2.027086046006945
 20
-0.2487928602430558
 10
2.027086046006945
 20
-0.2487928602430558
 72
     4
 94
        3
 73
     0
 74
     0
 95
        8
 96
        4
 40
7.00001
 40
7.00001
 40
7.00001
 40
7.00001
 40
7.99999
 40
7.99999
 40
7.99999
 40
7.99999
 10
2.027086046050107
 20
-0.2487928602430398
 10
2.027088923567947
 20
-0.2487928591580029
 10
2.170963376779275
 20
-0.2487386078558864
 10
2.170966254297114
 20
-0.2487386067708495
 72
     4
 94
        3
 73
     0
 74
     0
 95
        8
 96
        4
 40
8.00001
 40
8.00001
 40
8.00001
 40
8.00001
 40
8.99999
 40
8.99999
 40
8.99999
 40
8.99999
 10
2.170966254355399
 20
-0.2487386067276818
 10
2.170967262354671
 20
-0.2487357300236201
 10
2.221366722020329
 20
-0.1049019652888799
 10
2.221367730019602
 20
-0.1048990885848187
 72
     4
 94
        3
 73
     0
 74
     0
 95
        8
 96
        4
 40
9.00001
 40
9.00001
 40
9.00001
 40
9.00001
 40
9.99999
 40
9.99999
 40
9.99999
 40
9.99999
 10
2.221367730107138
 20
-0.1048990885417038
 10
2.221372557707532
 20
-0.1048990909830363
 10
2.462750163646635
 20
-0.1050211564127972
 10
2.462754991247028
 20
-0.1050211588541301
 72
     4
 94
        3
 73
     0
 74
     0
 95
        8
 96
        4
 40
10.00001
 40
10.00001
 40
10.00001
 40
10.00001
 40
10.99999
 40
10.99999
 40
10.99999
 40
10.99999
 10
2.462754991334073
 20
-0.105021158897225
 10
2.462755966510979
 20
-0.1050240293623244
 10
2.511514324287632
 20
-0.2485458491098984
 10
2.511515299464539
 20
-0.2485487195749982
 72
     4
 94
        3
 73
     0
 74
     0
 95
        8
 96
        4
 40
11.00001
 40
11.00001
 40
11.00001
 40
11.00001
 40
11.99999
 40
11.99999
 40
11.99999
 40
11.99999
 10
2.51151529952336
 20
-0.2485487196180154
 10
2.511518245669781
 20
-0.2485487169054226
 10
2.65882409373994
 20
-0.2484130886501328
 10
2.658827039886362
 20
-0.2484130859375404
 72
     4
 94
        3
 73
     0
 74
     0
 95
        8
 96
        4
 40
13.00001
 40
13.00001
 40
13.00001
 40
13.00001
 40
14.0
 40
14.0
 40
14.0
 40
14.0
 10
2.658827040019028
 20
-0.2484130859374676
 10
2.658832938067297
 20
-0.2484130837673719
 10
2.9537353515625
 20
-0.2483045789930558
 10
2.9537353515625
 20
-0.2483045789930558
 72
     4
 94
        3
 73
     0
 74
     0
 95
        8
 96
        4
 40
14.0
 40
14.0
 40
14.0
 40
14.0
 40
15.0
 40
15.0
 40
15.0
 40
15.0
 10
2.9537353515625
 20
-0.2483045789930558
 10
3.0701904296875
 20
-0.2483045789930558
 10
3.1812744140625
 20
-0.1920844184027777
 10
3.181342230902778
 20
-0.0610894097222223
 72
     4
 94
        3
 73
     0
 74
     0
 95
        8
 96
        4
 40
15.0
 40
15.0
 40
15.0
 40
15.0
 40
16.0
 40
16.0
 40
16.0
 40
16.0
 10
3.181342230902778
 20
-0.0610894097222223
 10
3.1812744140625
 20
0.0193142361111112
 10
3.141343858506945
 20
0.0797797309027777
 10
3.062649197048612
 20
0.1022135416666665
 72
     4
 94
        3
 73
     0
 74
     0
 95
        8
 96
        4
 40
0.0
 40
0.0
 40
0.0
 40
0.0
 40
1.0
 40
1.0
 40
1.0
 40
1.0
 10
3.062649197048612
 20
0.1022135416666665
 10
3.118801540798612
 20
0.1293674045138888
 10
3.150404188368055
 20
0.1737603081597223
 10
3.1505126953125
 20
0.2369791666666665
 72
     4
 94
        3
 73
     0
 74
     0
 95
        8
 96
        4
 40
1.0
 40
1.0
 40
1.0
 40
1.0
 40
2.0
 40
2.0
 40
2.0
 40
2.0
 10
3.1505126953125
 20
0.2369791666666665
 10
3.150404188368055
 20
0.3570556640625
 10
3.067206488715278
 20
0.396931966145833
 10
2.9442138671875
 20
0.3967692057291665
 72
     4
 94
        3
 73
     0
 74
     0
 95
        8
 96
        4
 40
2.00001
 40
2.00001
 40
2.00001
 40
2.00001
 40
2.99999
 40
2.99999
 40
2.99999
 40
2.99999
 10
2.944213867096424
 20
0.3967692057291297
 10
2.944207795501232
 20
0.3967692032877972
 10
2.640631071686268
 20
0.3966471378580363
 10
2.640625000091076
 20
0.3966471354167034
 72
     4
 94
        3
 73
     0
 74
     0
 95
        8
 96
        4
 40
3.0
 40
3.0
 40
3.0
 40
3.0
 40
3.5
 40
3.5
 40
3.5
 40
3.5
 10
2.640625
 20
0.3966471354166665
 10
2.640625
 20
0.3966471354166665
 10
2.640706380208334
 20
0.2472941080729165
 10
2.640787760416667
 20
0.0979410807291665
 72
     4
 94
        3
 73
     0
 74
     0
 95
        8
 96
        4
 40
3.5
 40
3.5
 40
3.5
 40
3.5
 40
3.99999
 40
3.99999
 40
3.99999
 40
3.99999
 10
2.640787760416667
 20
0.0979410807291665
 10
2.640869138997395
 20
-0.0514089595540366
 10
2.640950517578126
 20
-0.2007589998372397
 10
2.640950520833236
 20
-0.2007649737791115
 72
     4
 94
        3
 73
     0
 74
     0
 95
        8
 96
        4
 40
4.00001
 40
4.00001
 40
4.00001
 40
4.00001
 40
4.5
 40
4.5
 40
4.5
 40
4.5
 10
2.640950520766248
 20
-0.2007649737791111
 10
2.640948284640842
 20
-0.2007589998372401
 10
2.585044590454102
 20
-0.0514089595540375
 10
2.529140896267361
 20
0.0979410807291661
 97
        0
 92
       22
 72
     0
 73
     1
 93
        4
 10
2.342447916666666
 20
0.2374674479166665
 10
2.344251844618055
 20
0.2374674479166665
 10
2.425632052951389
 20
0.0007052951388888
 10
2.258327907986112
 20
0.0007052951388888
 97
        0
 92
       20
 93
       22
 72
     4
 94
        3
 73
     0
 74
     0
 95
        8
 96
        4
 40
4.49999
 40
4.49999
 40
4.49999
 40
4.49999
 40
5.0
 40
5.0
 40
5.0
 40
5.0
 10
2.782714844563802
 20
0.2109420146348739
 10
2.782701280924485
 20
0.2487269228635753
 10
2.782687717013889
 20
0.2865125868055554
 10
2.782687717013889
 20
0.2865125868055554
 72
     4
 94
        3
 73
     0
 74
     0
 95
        8
 96
        4
 40
0.00001
 40
0.00001
 40
0.00001
 40
0.00001
 40
1.0
 40
1.0
 40
1.0
 40
1.0
 10
2.782687717053713
 20
0.2865125868055931
 10
2.782690371894278
 20
0.28651258924695
 10
2.915432400173612
 20
0.2866346571180554
 10
2.915432400173612
 20
0.2866346571180554
 72
     4
 94
        3
 73
     0
 74
     0
 95
        8
 96
        4
 40
1.0
 40
1.0
 40
1.0
 40
1.0
 40
2.0
 40
2.0
 40
2.0
 40
2.0
 10
2.915432400173612
 20
0.2866346571180554
 10
2.965928819444445
 20
0.2865125868055554
 10
3.0130615234375
 20
0.2739935980902777
 10
3.013224283854167
 20
0.2125244140625
 72
     4
 94
        3
 73
     0
 74
     0
 95
       11
 96
        7
 40
2.0
 40
2.0
 40
2.0
 40
2.0
 40
3.0
 40
3.0
 40
3.0
 40
3.250015
 40
3.250015
 40
3.250015
 40
3.250015
 10
3.013224283854167
 20
0.2125244140625
 10
3.013115776909722
 20
0.1582302517361112
 10
2.975925021701389
 20
0.1356065538194442
 10
2.926500108506945
 20
0.1356743706597223
 10
2.926500108506945
 20
0.1356743706597223
 10
2.917514146662262
 20
0.1356557187906233
 10
2.904035473474093
 20
0.1356277415465303
 72
     4
 94
        3
 73
     0
 74
     0
 95
        8
 96
        4
 40
3.250015
 40
3.250015
 40
3.250015
 40
3.250015
 40
3.500009999968512
 40
3.500009999968512
 40
3.500009999968512
 40
3.500009999968512
 10
2.904035473474093
 20
0.1356277415465303
 10
2.890557878516783
 20
0.1355997665404858
 10
2.872588290979056
 20
0.1355624676513609
 10
2.854618883131247
 20
0.1355251691352128
 72
     4
 94
        3
 73
     0
 74
     0
 95
        8
 96
        4
 40
3.500009999968512
 40
3.500009999968512
 40
3.500009999968512
 40
3.500009999968512
 40
3.6250075
 40
3.6250075
 40
3.6250075
 40
3.6250075
 10
2.854618883131247
 20
0.1355251691352128
 10
2.845634179203948
 20
0.1355065198771324
 10
2.83664952019913
 20
0.135487870712296
 10
2.828226427651218
 20
0.1354703871727119
 72
     4
 94
        3
 73
     0
 74
     0
 95
        8
 96
        4
 40
3.6250075
 40
3.6250075
 40
3.6250075
 40
3.6250075
 40
3.750004999626355
 40
3.750004999626355
 40
3.750004999626355
 40
3.750004999626355
 10
2.828226427651218
 20
0.1354703871727119
 10
2.819803335130608
 20
0.1354529036331842
 10
2.811941809063265
 20
0.1354365857189013
 10
2.805203370978159
 20
0.1354225989618607
 72
     4
 94
        3
 73
     0
 74
     0
 95
        8
 96
        4
 40
3.750004999626355
 40
3.750004999626355
 40
3.750004999626355
 40
3.750004999626355
 40
3.81250375
 40
3.81250375
 40
3.81250375
 40
3.81250375
 10
2.805203370978159
 20
0.1354225989618607
 10
2.801834151905392
 20
0.1354156055832778
 10
2.79874570483322
 20
0.1354091949940157
 10
2.796008219954652
 20
0.1354035128855782
 72
     4
 94
        3
 73
     0
 74
     0
 95
        8
 96
        4
 40
3.81250375
 40
3.81250375
 40
3.81250375
 40
3.81250375
 40
3.875002499299582
 40
3.875002499299582
 40
3.875002499299582
 40
3.875002499299582
 10
2.796008219954652
 20
0.1354035128855782
 10
2.793270735123129
 20
0.1353978307772383
 10
2.790884212473148
 20
0.1353928771496982
 10
2.788918842194098
 20
0.1353887976944534
 72
     4
 94
        3
 73
     0
 74
     0
 95
        8
 96
        4
 40
3.875002499299582
 40
3.875002499299582
 40
3.875002499299582
 40
3.875002499299582
 40
3.906251875
 40
3.906251875
 40
3.906251875
 40
3.906251875
 10
2.788918842194098
 20
0.1353887976944534
 10
2.787936157021535
 20
0.1353867579667627
 10
2.787058759948784
 20
0.1353849367821605
 10
2.786295424750405
 20
0.1353833523520853
 72
     4
 94
        3
 73
     0
 74
     0
 95
        8
 96
        4
 40
3.906251875
 40
3.906251875
 40
3.906251875
 40
3.906251875
 40
3.93750124898662
 40
3.93750124898662
 40
3.93750124898662
 40
3.93750124898662
 10
2.786295424750405
 20
0.1353833523520853
 10
2.78553208959389
 20
0.1353817679220972
 10
2.784882816299234
 20
0.1353804202466109
 10
2.784356378639555
 20
0.1353793275370614
 72
     4
 94
        3
 73
     0
 74
     0
 95
        8
 96
        4
 40
3.93750124898662
 40
3.93750124898662
 40
3.93750124898662
 40
3.93750124898662
 40
3.9531259375
 40
3.9531259375
 40
3.9531259375
 40
3.9531259375
 10
2.784356378639555
 20
0.1353793275370614
 10
2.784093159784107
 20
0.1353787811822338
 10
2.783860649843379
 20
0.1353782985689027
 10
2.783659945539329
 20
0.1353778819734983
 72
     4
 94
        3
 73
     0
 74
     0
 95
        8
 96
        4
 40
3.9531259375
 40
3.9531259375
 40
3.9531259375
 40
3.9531259375
 40
3.968750621690335
 40
3.968750621690335
 40
3.968750621690335
 40
3.968750621690335
 10
2.783659945539329
 20
0.1353778819734983
 10
2.78345924129081
 20
0.1353774653782089
 10
2.78329034266137
 20
0.1353771148008103
 10
2.783154346372058
 20
0.1353768325177303
 72
     4
 94
        3
 73
     0
 74
     0
 95
        8
 96
        4
 40
3.968750621690335
 40
3.968750621690335
 40
3.968750621690335
 40
3.968750621690335
 40
3.97656296875
 40
3.97656296875
 40
3.97656296875
 40
3.97656296875
 10
2.783154346372058
 20
0.1353768325177303
 10
2.783086348184191
 20
0.1353766913761003
 10
2.783026575591809
 20
0.1353765673080716
 10
2.782975165685308
 20
0.1353764605981986
 72
     4
 94
        3
 73
     0
 74
     0
 95
        8
 96
        4
 40
3.97656296875
 40
3.97656296875
 40
3.97656296875
 40
3.97656296875
 40
3.984375306573316
 40
3.984375306573316
 40
3.984375306573316
 40
3.984375306573316
 10
2.782975165685308
 20
0.1353764605981986
 10
2.782923755839587
 20
0.1353763538884518
 10
2.78288070865997
 20
0.1353762645368199
 10
2.782846161236364
 20
0.135376192827855
 72
     4
 94
        3
 73
     0
 74
     0
 95
        8
 96
        4
 40
3.984375306573316
 40
3.984375306573316
 40
3.984375306573316
 40
3.984375306573316
 40
3.988281484375
 40
3.988281484375
 40
3.988281484375
 40
3.988281484375
 10
2.782846161236364
 20
0.135376192827855
 10
2.782828887485248
 20
0.1353761569732912
 10
2.782813738682808
 20
0.1353761255294144
 10
2.782800731965398
 20
0.1353760985317938
 72
     4
 94
        3
 73
     0
 74
     0
 95
        8
 96
        4
 40
3.988281484375
 40
3.988281484375
 40
3.988281484375
 40
3.988281484375
 40
3.992187645065919
 40
3.992187645065919
 40
3.992187645065919
 40
3.992187645065919
 10
2.782800731965398
 20
0.1353760985317938
 10
2.782787725304962
 20
0.1353760715342913
 10
2.78277686071079
 20
0.135376048983006
 10
2.782768155319012
 20
0.1353760309135073
 72
     4
 94
        3
 73
     0
 74
     0
 95
        8
 96
        4
 40
3.992187645065919
 40
3.992187645065919
 40
3.992187645065919
 40
3.992187645065919
 40
3.9941407421875
 40
3.9941407421875
 40
3.9941407421875
 40
3.9941407421875
 10
2.782768155319012
 20
0.1353760309135073
 10
2.782763802585736
 20
0.1353760218786806
 10
2.782759989662331
 20
0.1353760139643194
 10
2.782756718690869
 20
0.1353760071748704
 72
     4
 94
        3
 73
     0
 74
     0
 95
        8
 96
        4
 40
3.9941407421875
 40
3.9941407421875
 40
3.9941407421875
 40
3.9941407421875
 40
3.996093806414469
 40
3.996093806414469
 40
3.996093806414469
 40
3.996093806414469
 10
2.782756718690869
 20
0.1353760071748704
 10
2.7827534477745
 20
0.1353760003855355
 10
2.782750718791817
 20
0.1353759947210751
 10
2.782748533884785
 20
0.1353759901859344
 72
     4
 94
        3
 73
     0
 74
     0
 95
        8
 96
        4
 40
3.996093806414469
 40
3.996093806414469
 40
3.996093806414469
 40
3.996093806414469
 40
3.99707037109375
 40
3.99707037109375
 40
3.99707037109375
 40
3.99707037109375
 10
2.782748533884785
 20
0.1353759901859344
 10
2.782747441394839
 20
0.1353759879182888
 10
2.782746484932876
 20
0.1353759859329919
 10
2.78274566476667
 20
0.1353759842305995
 72
     4
 94
        3
 73
     0
 74
     0
 95
        8
 96
        4
 40
3.99707037109375
 40
3.99707037109375
 40
3.99707037109375
 40
3.99707037109375
 40
3.998046871293238
 40
3.998046871293238
 40
3.998046871293238
 40
3.998046871293238
 10
2.78274566476667
 20
0.1353759842305995
 10
2.782744844654617
 20
0.1353759825283189
 10
2.782744160820325
 20
0.1353759811089059
 10
2.78274361353151
 20
0.1353759799729164
 72
     4
 94
        3
 73
     0
 74
     0
 95
       11
 96
        7
 40
3.998046871293238
 40
3.998046871293238
 40
3.998046871293238
 40
3.998046871293238
 40
4.0
 40
4.0
 40
4.0
 40
4.49999
 40
4.49999
 40
4.49999
 40
4.49999
 10
2.78274361353151
 20
0.1353759799729164
 10
2.78274251888197
 20
0.1353759777007877
 10
2.782741970486112
 20
0.1353759765625
 10
2.782741970486112
 20
0.1353759765625
 10
2.782741970486112
 20
0.1353759765625
 10
2.782728407660585
 20
0.173158617772275
 10
2.782714844563802
 20
0.2109420146348739
 97
        0
 92
       20
 93
        5
 72
     4
 94
        3
 73
     0
 74
     0
 95
        8
 96
        4
 40
2.00001
 40
2.00001
 40
2.00001
 40
2.00001
 40
3.0
 40
3.0
 40
3.0
 40
3.0
 10
2.782782660636632
 20
0.0389811197917034
 10
2.782785750852604
 20
0.0389811222330603
 10
2.937296549479167
 20
0.0391031901041665
 10
2.937296549479167
 20
0.0391031901041665
 72
     4
 94
        3
 73
     0
 74
     0
 95
        8
 96
        4
 40
3.0
 40
3.0
 40
3.0
 40
3.0
 40
4.0
 40
4.0
 40
4.0
 40
4.0
 10
2.937296549479167
 20
0.0391031901041665
 10
2.997775607638889
 20
0.0391710069444442
 10
3.039510091145834
 20
0.0128309461805554
 10
3.039320203993055
 20
-0.0531141493055558
 72
     4
 94
        3
 73
     0
 74
     0
 95
        8
 96
        4
 40
4.0
 40
4.0
 40
4.0
 40
4.0
 40
5.0
 40
5.0
 40
5.0
 40
5.0
 10
3.039320203993055
 20
-0.0531141493055558
 10
3.039320203993055
 20
-0.1200493706597223
 10
2.990505642361112
 20
-0.1380886501736112
 10
2.934719509548612
 20
-0.1380072699652777
 72
     4
 94
        3
 73
     0
 74
     0
 95
        8
 96
        4
 40
0.00001
 40
0.00001
 40
0.00001
 40
0.00001
 40
0.99999
 40
0.99999
 40
0.99999
 40
0.99999
 10
2.934719509503061
 20
-0.1380072699653265
 10
2.934716472756057
 20
-0.1380072732204374
 10
2.782880640959222
 20
-0.1381700271267854
 10
2.78287760421222
 20
-0.1381700303818958
 72
     4
 94
        3
 73
     0
 74
     0
 95
        8
 96
        4
 40
1.00001
 40
1.00001
 40
1.00001
 40
1.00001
 40
1.99999
 40
1.99999
 40
1.99999
 40
1.99999
 10
2.782877604166639
 20
-0.1381700303287996
 10
2.782877602267823
 20
-0.1381664874120867
 10
2.782782662489121
 20
0.0389775768218077
 10
2.782782660590305
 20
0.0389811197385215
 97
        0
 92
        5
 93
       14
 72
     4
 94
        3
 73
     0
 74
     0
 95
        8
 96
        4
 40
3.5
 40
3.5
 40
3.5
 40
3.5
 40
4.0
 40
4.0
 40
4.0
 40
4.0
 10
3.344760470920139
 20
0.1347588433159723
 10
3.344289143880209
 20
0.2666659884982638
 10
3.343817816840278
 20
0.3985731336805554
 10
3.343817816840278
 20
0.3985731336805554
 72
     4
 94
        3
 73
     0
 74
     0
 95
        8
 96
        4
 40
4.00001
 40
4.00001
 40
4.00001
 40
4.00001
 40
4.99999
 40
4.99999
 40
4.99999
 40
4.99999
 10
3.343817816797737
 20
0.3985731336803688
 10
3.34381498078256
 20
0.3985731212024435
 10
3.202015639877164
 20
0.397949231228111
 10
3.202012803861985
 20
0.3979492187501865
 72
     4
 94
        3
 73
     0
 74
     0
 95
        8
 96
        4
 40
5.0
 40
5.0
 40
5.0
 40
5.0
 40
5.5
 40
5.5
 40
5.5
 40
5.5
 10
3.202012803819445
 20
0.39794921875
 10
3.202012803819445
 20
0.39794921875
 10
3.202501085069445
 20
0.2364434136284723
 10
3.202989366319445
 20
0.0749376085069446
 72
     4
 94
        3
 73
     0
 74
     0
 95
       11
 96
        7
 40
5.5
 40
5.5
 40
5.5
 40
5.5
 40
6.0
 40
6.0
 40
6.0
 40
6.5
 40
6.5
 40
6.5
 40
6.5
 10
3.202989366319445
 20
0.0749376085069446
 10
3.203477647569445
 20
-0.086568196614583
 10
3.203965928819445
 20
-0.2480740017361112
 10
3.203965928819445
 20
-0.2480740017361112
 10
3.203965928819445
 20
-0.2480740017361112
 10
3.306528727213542
 20
-0.2476535373263893
 10
3.409091525607639
 20
-0.247233072916667
 72
     4
 94
        3
 73
     0
 74
     0
 95
        8
 96
        4
 40
6.5
 40
6.5
 40
6.5
 40
6.5
 40
7.0
 40
7.0
 40
7.0
 40
7.0
 10
3.409091525607639
 20
-0.247233072916667
 10
3.511654324001737
 20
-0.2468126085069446
 10
3.614217122395834
 20
-0.2463921440972223
 10
3.614217122395834
 20
-0.2463921440972223
 72
     4
 94
        3
 73
     0
 74
     0
 95
        8
 96
        4
 40
7.00001
 40
7.00001
 40
7.00001
 40
7.00001
 40
8.0
 40
8.0
 40
8.0
 40
8.0
 10
3.614217122395693
 20
-0.2463921440733658
 10
3.614217112901524
 20
-0.2463905536646362
 10
3.613742404513889
 20
-0.1668701171875
 10
3.613742404513889
 20
-0.1668701171875
 72
     4
 94
        3
 73
     0
 74
     0
 95
        8
 96
        4
 40
8.0
 40
8.0
 40
8.0
 40
8.0
 40
9.0
 40
9.0
 40
9.0
 40
9.0
 10
3.613742404513889
 20
-0.1668701171875
 10
3.66796875
 20
-0.2266574435763888
 10
3.746771918402778
 20
-0.263427734375
 10
3.8460693359375
 20
-0.2633056640625
 72
     4
 94
        3
 73
     0
 74
     0
 95
        8
 96
        4
 40
9.0
 40
9.0
 40
9.0
 40
9.0
 40
10.0
 40
10.0
 40
10.0
 40
10.0
 10
3.8460693359375
 20
-0.2633056640625
 10
4.045694986979166
 20
-0.2633056640625
 10
4.163018120659723
 20
-0.1141357421875
 10
4.162841796875
 20
0.0719129774305554
 72
     4
 94
        3
 73
     0
 74
     0
 95
        8
 96
        4
 40
10.0
 40
10.0
 40
10.0
 40
10.0
 40
10.99329554255516
 40
10.99329554255516
 40
10.99329554255516
 40
10.99329554255516
 10
4.162841796875
 20
0.0719129774305554
 10
4.162976521205316
 20
0.2622110940021658
 10
4.046847494031955
 20
0.4105429208965736
 10
3.84966625091852
 20
0.4122043185763866
 72
     1
 10
3.8496662509185
 20
0.4122043185763884
 11
3.841787185571965
 21
0.4122043185763884
 72
     4
 94
        3
 73
     0
 74
     0
 95
        8
 96
        4
 40
0.0064895139144228
 40
0.0064895139144228
 40
0.0064895139144228
 40
0.0064895139144228
 40
1.0
 40
1.0
 40
1.0
 40
1.0
 10
3.841787185571927
 20
0.4122043185763848
 10
3.644557226106335
 20
0.4105519815972434
 10
3.52856568540032
 20
0.2621297630261124
 10
3.528754340277778
 20
0.0717230902777777
 72
     4
 94
        3
 73
     0
 74
     0
 95
        8
 96
        4
 40
1.0
 40
1.0
 40
1.0
 40
1.0
 40
2.0
 40
2.0
 40
2.0
 40
2.0
 10
3.528754340277778
 20
0.0717230902777777
 10
3.528876410590278
 20
-0.0035942925347223
 10
3.548366970486112
 20
-0.0725233289930558
 10
3.584404839409722
 20
-0.1282280815972223
 72
     4
 94
        3
 73
     0
 74
     0
 95
        8
 96
        4
 40
2.00001
 40
2.00001
 40
2.00001
 40
2.00001
 40
2.99999
 40
2.99999
 40
2.99999
 40
2.99999
 10
3.584404839338112
 20
-0.1282280815974706
 10
3.584400065447044
 20
-0.1282280981442834
 10
3.345707898962679
 20
-0.1290554305015505
 10
3.345703125071609
 20
-0.1290554470483629
 72
     4
 94
        3
 73
     0
 74
     0
 95
        8
 96
        4
 40
3.0
 40
3.0
 40
3.0
 40
3.0
 40
3.5
 40
3.5
 40
3.5
 40
3.5
 10
3.345703125
 20
-0.1290554470486112
 10
3.345703125
 20
-0.1290554470486112
 10
3.34523179796007
 20
0.0028516981336804
 10
3.344760470920139
 20
0.1347588433159723
 97
        0
 92
       20
 93
        4
 72
     4
 94
        3
 73
     0
 74
     0
 95
        8
 96
        4
 40
1.0
 40
1.0
 40
1.0
 40
1.0
 40
2.0
 40
2.0
 40
2.0
 40
2.0
 10
3.6705322265625
 20
0.0717230902777777
 10
3.670477973090278
 20
0.1846110026041665
 10
3.71826171875
 20
0.293050130208333
 10
3.845770941840278
 20
0.2931179470486112
 72
     4
 94
        3
 73
     0
 74
     0
 95
        8
 96
        4
 40
2.0
 40
2.0
 40
2.0
 40
2.0
 40
3.0
 40
3.0
 40
3.0
 40
3.0
 10
3.845770941840278
 20
0.2931179470486112
 10
3.973198784722223
 20
0.2931179470486112
 10
4.021063910590279
 20
0.1848008897569442
 10
4.021294487847223
 20
0.0720350477430554
 72
     4
 94
        3
 73
     0
 74
     0
 95
        8
 96
        4
 40
3.0
 40
3.0
 40
3.0
 40
3.0
 40
4.0
 40
4.0
 40
4.0
 40
4.0
 10
4.021294487847223
 20
0.0720350477430554
 10
4.021335177951389
 20
-0.0356987847222223
 10
3.973320855034723
 20
-0.1439887152777777
 10
3.845974392361112
 20
-0.1441921657986112
 72
     4
 94
        3
 73
     0
 74
     0
 95
        8
 96
        4
 40
0.0
 40
0.0
 40
0.0
 40
0.0
 40
1.0
 40
1.0
 40
1.0
 40
1.0
 10
3.845974392361112
 20
-0.1441921657986112
 10
3.718505859375
 20
-0.1442599826388888
 10
3.670722113715278
 20
-0.0357530381944446
 10
3.6705322265625
 20
0.0717230902777777
 97
        0
 92
        7
 72
     0
 73
     1
 93
        9
 10
4.223117404513889
 20
0.3970675998263884
 10
4.063137478298612
 20
0.3971218532986107
 10
4.300699869791666
 20
0.0034722222222228
 10
4.300971137152779
 20
-0.247884114583333
 10
4.442898220486111
 20
-0.2479519314236112
 10
4.442599826388889
 20
-0.0001763237847223
 10
4.681993272569445
 20
0.397257486979167
 10
4.523952907986111
 20
0.3973659939236107
 10
4.374159071180555
 20
0.1425103081597219
 97
        0
 75
     1
 76
     1
 47
0.0047599364980606
 98
       11
 10
0.0572416080064118
 20
0.3376433347990639
 10
0.0572416080064118
 20
0.3376433347990639
 10
0.0572416080064118
 20
0.3376433347990639
 10
0.0572416080064118
 20
0.3376433347990639
 10
2.310441407171536
 20
0.2805241118248984
 10
2.310441407171536
 20
0.2805241118248984
 10
2.310441407171536
 20
0.2805241118248984
 10
2.310441407171536
 20
0.2805241118248984
 10
3.272695881510875
 20
0.2662442902794764
 10
3.272695881510875
 20
0.2662442902794764
 10
4.263532132408171
 20
0.2234048677815599
1001
GradientColor1ACI
1070
     5
1001
GradientColor2ACI
1070
     2
1001
ACAD
1010
0.0
1020
0.0
1030
0.0
  0
SPLINE
  5
A2E
330
A2B
100
AcDbEntity
  8
Layer 1
370
     0
100
AcDbSpline
210
0.0
220
0.0
230
1.0
 70
    11
 71
     3
 72
   113
 73
   109
 74
     0
 42
0.000000001
 43
0.0000000001
 40
0.0
 40
0.0
 40
0.0
 40
0.0
 40
1.0
 40
1.0
 40
1.0
 40
2.0
 40
2.0
 40
2.0
 40
3.0
 40
3.0
 40
3.0
 40
4.0
 40
4.0
 40
4.0
 40
5.0
 40
5.0
 40
5.0
 40
6.0
 40
6.0
 40
6.0
 40
7.0
 40
7.0
 40
7.0
 40
8.0
 40
8.0
 40
8.0
 40
9.0
 40
9.0
 40
9.0
 40
10.0
 40
10.0
 40
10.0
 40
11.0
 40
11.0
 40
11.0
 40
12.0
 40
12.0
 40
12.0
 40
13.0
 40
13.0
 40
13.0
 40
14.0
 40
14.0
 40
14.0
 40
15.0
 40
15.0
 40
15.0
 40
16.0
 40
16.0
 40
16.0
 40
17.0
 40
17.0
 40
17.0
 40
18.0
 40
18.0
 40
18.0
 40
19.0
 40
19.0
 40
19.0
 40
20.0
 40
20.0
 40
20.0
 40
21.0
 40
21.0
 40
21.0
 40
22.0
 40
22.0
 40
22.0
 40
23.0
 40
23.0
 40
23.0
 40
24.0
 40
24.0
 40
24.0
 40
25.0
 40
25.0
 40
25.0
 40
26.0
 40
26.0
 40
26.0
 40
27.0
 40
27.0
 40
27.0
 40
28.0
 40
28.0
 40
28.0
 40
29.0
 40
29.0
 40
29.0
 40
30.0
 40
30.0
 40
30.0
 40
31.0
 40
31.0
 40
31.0
 40
32.0
 40
32.0
 40
32.0
 40
33.0
 40
33.0
 40
33.0
 40
34.0
 40
34.0
 40
34.0
 40
35.0
 40
35.0
 40
35.0
 40
36.0
 40
36.0
 40
36.0
 40
36.0
 10
1.531833224826389
 20
0.3962673611111112
 30
0.0
 10
1.531833224826389
 20
0.3962673611111112
 30
0.0
 10
1.35986328125
 20
-0.0575086805555558
 30
0.0
 10
1.35986328125
 20
-0.0575086805555558
 30
0.0
 10
1.359632703993056
 20
0.0888807508680554
 30
0.0
 10
1.215196397569445
 20
0.1187608506944442
 30
0.0
 10
1.168240017361112
 20
0.1303032769097223
 30
0.0
 10
1.006415473090278
 20
0.1720377604166665
 30
0.0
 10
0.9757893880208339
 20
0.1779649522569442
 30
0.0
 10
0.9757080078125
 20
0.2279324001736112
 30
0.0
 10
0.9757893880208339
 20
0.2821587456597223
 30
0.0
 10
1.028130425347222
 20
0.3011474609375
 30
0.0
 10
1.073269314236112
 20
0.301025390625
 30
0.0
 10
1.1412353515625
 20
0.3010932074652777
 30
0.0
 10
1.196180555555556
 20
0.2812906901041665
 30
0.0
 10
1.2008056640625
 20
0.2036539713541665
 30
0.0
 10
1.2008056640625
 20
0.2036539713541665
 30
0.0
 10
1.338094075520834
 20
0.2036539713541665
 30
0.0
 10
1.338094075520834
 20
0.2036539713541665
 30
0.0
 10
1.337917751736112
 20
0.3526882595486112
 30
0.0
 10
1.214192708333334
 20
0.411336263020833
 30
0.0
 10
1.079698350694445
 20
0.4112820095486107
 30
0.0
 10
0.9644911024305562
 20
0.411336263020833
 30
0.0
 10
0.8418511284722223
 20
0.3495551215277777
 30
0.0
 10
0.838785807291667
 20
0.221150716145833
 30
0.0
 10
0.8290744357638893
 20
0.3570556640625
 30
0.0
 10
0.7102593315972223
 20
0.4111463758680554
 30
0.0
 10
0.5809868706597223
 20
0.4110378689236107
 30
0.0
 10
0.4646945529513893
 20
0.4110378689236107
 30
0.0
 10
0.3399929470486116
 20
0.34765625
 30
0.0
 10
0.3400607638888893
 20
0.2158745659722223
 30
0.0
 10
0.3401014539930562
 20
0.0946587456597223
 30
0.0
 10
0.4367947048611116
 20
0.0578342013888888
 30
0.0
 10
0.5325249565972223
 20
0.0324978298611112
 30
0.0
 10
0.6274278428819446
 20
0.0072157118055554
 30
0.0
 10
0.7240532769097223
 20
-0.004435221354167
 30
0.0
 10
0.7239854600694446
 20
-0.0740017361111112
 30
0.0
 10
0.7240532769097223
 20
-0.1399197048611112
 30
0.0
 10
0.648234049479167
 20
-0.1543240017361112
 30
0.0
 10
0.5986328125
 20
-0.1544867621527777
 30
0.0
 10
0.5225694444444446
 20
-0.1546223958333335
 30
0.0
 10
0.4558919270833339
 20
-0.1210394965277777
 30
0.0
 10
0.4558241102430562
 20
-0.0352647569444446
 30
0.0
 10
0.4558241102430562
 20
-0.0352647569444446
 30
0.0
 10
0.3201768663194446
 20
-0.0352647569444446
 30
0.0
 10
0.3201768663194446
 20
-0.0352647569444446
 30
0.0
 10
0.3201768663194446
 20
-0.0352647569444446
 30
0.0
 10
0.15869140625
 20
0.395751953125
 30
0.0
 10
0.15869140625
 20
0.395751953125
 30
0.0
 10
0.15869140625
 20
0.395751953125
 30
0.0
 10
0.0135091145833339
 20
0.395751953125
 30
0.0
 10
0.0135091145833339
 20
0.395751953125
 30
0.0
 10
0.0135091145833339
 20
0.395751953125
 30
0.0
 10
-0.2310112847222219
 20
-0.249674479166667
 30
0.0
 10
-0.2310112847222219
 20
-0.249674479166667
 30
0.0
 10
-0.2310112847222219
 20
-0.249674479166667
 30
0.0
 10
-0.0874565972222214
 20
-0.2493353949652777
 30
0.0
 10
-0.0874565972222214
 20
-0.2493353949652777
 30
0.0
 10
-0.0874565972222214
 20
-0.2493353949652777
 30
0.0
 10
-0.0369059244791661
 20
-0.1057942708333335
 30
0.0
 10
-0.0369059244791661
 20
-0.1057942708333335
 30
0.0
 10
-0.0369059244791661
 20
-0.1057942708333335
 30
0.0
 10
0.2044542100694446
 20
-0.1058485243055558
 30
0.0
 10
0.2044542100694446
 20
-0.1058485243055558
 30
0.0
 10
0.2044542100694446
 20
-0.1058485243055558
 30
0.0
 10
0.2532552083333339
 20
-0.2493353949652777
 30
0.0
 10
0.2532552083333339
 20
-0.2493353949652777
 30
0.0
 10
0.2532552083333339
 20
-0.2493353949652777
 30
0.0
 10
0.400390625
 20
-0.2494032118055558
 30
0.0
 10
0.400390625
 20
-0.2494032118055558
 30
0.0
 10
0.400390625
 20
-0.2494032118055558
 30
0.0
 10
0.3777804904513893
 20
-0.1889919704861112
 30
0.0
 10
0.3777804904513893
 20
-0.1889919704861112
 30
0.0
 10
0.4297553168402777
 20
-0.2406141493055558
 30
0.0
 10
0.509684244791667
 20
-0.2647298177083335
 30
0.0
 10
0.5931667751736116
 20
-0.264567057291667
 30
0.0
 10
0.7222357855902777
 20
-0.264689127604167
 30
0.0
 10
0.8067220052083339
 20
-0.2164035373263888
 30
0.0
 10
0.842203776041667
 20
-0.1436903211805558
 30
0.0
 10
0.8873019748263893
 20
-0.2265353732638888
 30
0.0
 10
0.9869113498263893
 20
-0.2644992404513888
 30
0.0
 10
1.091769748263889
 20
-0.2643771701388888
 30
0.0
 10
1.193033854166667
 20
-0.2643771701388888
 30
0.0
 10
1.266628689236112
 20
-0.2346327039930558
 30
0.0
 10
1.310818142361112
 20
-0.1867404513888888
 30
0.0
 10
1.310818142361112
 20
-0.1867404513888888
 30
0.0
 10
1.2872314453125
 20
-0.2489013671875
 30
0.0
 10
1.2872314453125
 20
-0.2489013671875
 30
0.0
 10
1.2872314453125
 20
-0.2489013671875
 30
0.0
 10
1.430867513020834
 20
-0.2489691840277777
 30
0.0
 10
1.430867513020834
 20
-0.2489691840277777
 30
0.0
 10
1.430867513020834
 20
-0.2489691840277777
 30
0.0
 10
1.481486002604167
 20
-0.105265299479167
 30
0.0
 10
1.481486002604167
 20
-0.105265299479167
 30
0.0
 10
1.481486002604167
 20
-0.105265299479167
 30
0.0
 10
1.722846137152778
 20
-0.1051296657986112
 30
0.0
 10
1.722846137152778
 20
-0.1051296657986112
 30
0.0
 10
1.722846137152778
 20
-0.1051296657986112
 30
0.0
 10
1.771620008680556
 20
-0.2487928602430558
 30
0.0
 10
1.771620008680556
 20
-0.2487928602430558
 30
0.0
 10
1.771620008680556
 20
-0.2487928602430558
 30
0.0
 10
1.918972439236112
 20
-0.2487928602430558
 30
0.0
 10
1.918972439236112
 20
-0.2487928602430558
 30
0.0
 10
1.918972439236112
 20
-0.2487928602430558
 30
0.0
 10
1.677395290798612
 20
0.3962673611111112
 30
0.0
 10
1.677395290798612
 20
0.3962673611111112
 30
0.0
 10
1.677395290798612
 20
0.3962673611111112
 30
0.0
 10
1.531833224826389
 20
0.3962673611111112
 30
0.0
 10
1.531833224826389
 20
0.3962673611111112
 30
0.0
  0
POLYLINE
  5
A2F
330
A2B
100
AcDbEntity
  8
Layer 1
370
     0
100
AcDb2dPolyline
 66
     1
 10
0.0
 20
0.0
 30
0.0
  0
VERTEX
  5
A30
330
A2F
100
AcDbEntity
  8
Layer 1
370
     0
100
AcDbVertex
100
AcDb2dVertex
 10
0.0
 20
0.0
 30
0.0
  0
VERTEX
  5
A31
330
A2F
100
AcDbEntity
  8
Layer 1
370
     0
100
AcDbVertex
100
AcDb2dVertex
 10
0.0840115017361116
 20
0.2366129557291665
 30
0.0
  0
VERTEX
  5
A32
330
A2F
100
AcDbEntity
  8
Layer 1
370
     0
100
AcDbVertex
100
AcDb2dVertex
 10
0.0859239366319446
 20
0.2366129557291665
 30
0.0
  0
VERTEX
  5
A33
330
A2F
100
AcDbEntity
  8
Layer 1
370
     0
100
AcDbVertex
100
AcDb2dVertex
 10
0.1672634548611116
 20
-0.0000542534722223
 30
0.0
  0
VERTEX
  5
A34
330
A2F
100
AcDbEntity
  8
Layer 1
370
     0
100
AcDbVertex
100
AcDb2dVertex
 10
0.0
 20
0.0
 30
0.0
  0
SEQEND
  5
A35
330
A2F
100
AcDbEntity
  8
Layer 1
370
     0
  0
SPLINE
  5
A36
330
A2B
100
AcDbEntity
  8
Layer 1
370
     0
100
AcDbSpline
210
0.0
220
0.0
230
1.0
 70
    11
 71
     3
 72
    35
 73
    31
 74
     0
 42
0.000000001
 43
0.0000000001
 40
0.0
 40
0.0
 40
0.0
 40
0.0
 40
1.0
 40
1.0
 40
1.0
 40
2.0
 40
2.0
 40
2.0
 40
3.0
 40
3.0
 40
3.0
 40
4.0
 40
4.0
 40
4.0
 40
5.0
 40
5.0
 40
5.0
 40
6.0
 40
6.0
 40
6.0
 40
7.0
 40
7.0
 40
7.0
 40
8.0
 40
8.0
 40
8.0
 40
9.0
 40
9.0
 40
9.0
 40
10.0
 40
10.0
 40
10.0
 40
10.0
 10
1.096856011284722
 20
-0.1541341145833335
 30
0.0
 10
1.021104600694445
 20
-0.1543240017361112
 30
0.0
 10
0.9542507595486116
 20
-0.120849609375
 30
0.0
 10
0.9539794921875
 20
-0.0352647569444446
 30
0.0
 10
0.9539794921875
 20
-0.0352647569444446
 30
0.0
 10
0.8599446614583339
 20
-0.0351426866319446
 30
0.0
 10
0.8599446614583339
 20
-0.0351426866319446
 30
0.0
 10
0.8459201388888893
 20
0.0917154947916665
 30
0.0
 10
0.7143147786458339
 20
0.1189914279513888
 30
0.0
 10
0.669677734375
 20
0.1301812065972223
 30
0.0
 10
0.5082600911458339
 20
0.1716715494791665
 30
0.0
 10
0.4774034288194446
 20
0.1780734592013888
 30
0.0
 10
0.4772813585069446
 20
0.2276746961805554
 30
0.0
 10
0.4775390625
 20
0.2819146050347223
 30
0.0
 10
0.5297580295138893
 20
0.3009711371527777
 30
0.0
 10
0.574869791666667
 20
0.3008490668402777
 30
0.0
 10
0.6427273220486116
 20
0.3008490668402777
 30
0.0
 10
0.6976589626736116
 20
0.2811821831597223
 30
0.0
 10
0.7022705078125
 20
0.2034640842013888
 30
0.0
 10
0.7022705078125
 20
0.2034640842013888
 30
0.0
 10
0.8391384548611116
 20
0.2034640842013888
 30
0.0
 10
0.8391384548611116
 20
0.2034640842013888
 30
0.0
 10
0.8457845052083339
 20
0.0925428602430554
 30
0.0
 10
0.9385715060763893
 20
0.0570339626736112
 30
0.0
 10
1.030843098958334
 20
0.0328776041666665
 30
0.0
 10
1.125827365451389
 20
0.0075547960069442
 30
0.0
 10
1.222574869791667
 20
-0.004069010416667
 30
0.0
 10
1.222642686631945
 20
-0.0737033420138888
 30
0.0
 10
1.222574869791667
 20
-0.1396213107638888
 30
0.0
 10
1.146755642361112
 20
-0.1541341145833335
 30
0.0
 10
1.096856011284722
 20
-0.1541341145833335
 30
0.0
  0
POLYLINE
  5
A37
330
A2B
100
AcDbEntity
  8
Layer 1
370
     0
100
AcDb2dPolyline
 66
     1
 10
0.0
 20
0.0
 30
0.0
  0
VERTEX
  5
A38
330
A37
100
AcDbEntity
  8
Layer 1
370
     0
100
AcDbVertex
100
AcDb2dVertex
 10
1.518324110243056
 20
0.00048828125
 30
0.0
  0
VERTEX
  5
A39
330
A37
100
AcDbEntity
  8
Layer 1
370
     0
100
AcDbVertex
100
AcDb2dVertex
 10
1.6024169921875
 20
0.2370876736111112
 30
0.0
  0
VERTEX
  5
A3A
330
A37
100
AcDbEntity
  8
Layer 1
370
     0
100
AcDbVertex
100
AcDb2dVertex
 10
1.604166666666667
 20
0.2370876736111112
 30
0.0
  0
VERTEX
  5
A3B
330
A37
100
AcDbEntity
  8
Layer 1
370
     0
100
AcDbVertex
100
AcDb2dVertex
 10
1.685791015625
 20
0.000569661458333
 30
0.0
  0
VERTEX
  5
A3C
330
A37
100
AcDbEntity
  8
Layer 1
370
     0
100
AcDbVertex
100
AcDb2dVertex
 10
1.518324110243056
 20
0.00048828125
 30
0.0
  0
SEQEND
  5
A3D
330
A37
100
AcDbEntity
  8
Layer 1
370
     0
  0
SPLINE
  5
A3E
330
A2B
100
AcDbEntity
  8
Layer 1
370
     0
100
AcDbSpline
210
0.0
220
0.0
230
1.0
 70
    11
 71
     3
 72
    53
 73
    49
 74
     0
 42
0.000000001
 43
0.0000000001
 40
0.0
 40
0.0
 40
0.0
 40
0.0
 40
1.0
 40
1.0
 40
1.0
 40
2.0
 40
2.0
 40
2.0
 40
3.0
 40
3.0
 40
3.0
 40
4.0
 40
4.0
 40
4.0
 40
5.0
 40
5.0
 40
5.0
 40
6.0
 40
6.0
 40
6.0
 40
7.0
 40
7.0
 40
7.0
 40
8.0
 40
8.0
 40
8.0
 40
9.0
 40
9.0
 40
9.0
 40
10.0
 40
10.0
 40
10.0
 40
11.0
 40
11.0
 40
11.0
 40
12.0
 40
12.0
 40
12.0
 40
13.0
 40
13.0
 40
13.0
 40
14.0
 40
14.0
 40
14.0
 40
15.0
 40
15.0
 40
15.0
 40
16.0
 40
16.0
 40
16.0
 40
16.0
 10
3.062649197048612
 20
0.1022135416666665
 30
0.0
 10
3.118801540798612
 20
0.1293674045138888
 30
0.0
 10
3.150404188368055
 20
0.1737603081597223
 30
0.0
 10
3.1505126953125
 20
0.2369791666666665
 30
0.0
 10
3.150404188368055
 20
0.3570556640625
 30
0.0
 10
3.067206488715278
 20
0.396931966145833
 30
0.0
 10
2.9442138671875
 20
0.3967692057291665
 30
0.0
 10
2.9442138671875
 20
0.3967692057291665
 30
0.0
 10
2.640625
 20
0.3966471354166665
 30
0.0
 10
2.640625
 20
0.3966471354166665
 30
0.0
 10
2.640625
 20
0.3966471354166665
 30
0.0
 10
2.640950520833334
 20
-0.2007649739583335
 30
0.0
 10
2.640950520833334
 20
-0.2007649739583335
 30
0.0
 10
2.640950520833334
 20
-0.2007649739583335
 30
0.0
 10
2.417331271701389
 20
0.3966471354166665
 30
0.0
 10
2.417331271701389
 20
0.3966471354166665
 30
0.0
 10
2.417331271701389
 20
0.3966471354166665
 30
0.0
 10
2.271714952256945
 20
0.3965115017361112
 30
0.0
 10
2.271714952256945
 20
0.3965115017361112
 30
0.0
 10
2.271714952256945
 20
0.3965115017361112
 30
0.0
 10
2.027086046006945
 20
-0.2487928602430558
 30
0.0
 10
2.027086046006945
 20
-0.2487928602430558
 30
0.0
 10
2.027086046006945
 20
-0.2487928602430558
 30
0.0
 10
2.170966254340278
 20
-0.2487386067708335
 30
0.0
 10
2.170966254340278
 20
-0.2487386067708335
 30
0.0
 10
2.170966254340278
 20
-0.2487386067708335
 30
0.0
 10
2.221367730034722
 20
-0.104899088541667
 30
0.0
 10
2.221367730034722
 20
-0.104899088541667
 30
0.0
 10
2.221367730034722
 20
-0.104899088541667
 30
0.0
 10
2.462754991319445
 20
-0.105021158854167
 30
0.0
 10
2.462754991319445
 20
-0.105021158854167
 30
0.0
 10
2.462754991319445
 20
-0.105021158854167
 30
0.0
 10
2.511515299479167
 20
-0.2485487196180558
 30
0.0
 10
2.511515299479167
 20
-0.2485487196180558
 30
0.0
 10
2.511515299479167
 20
-0.2485487196180558
 30
0.0
 10
2.658827039930555
 20
-0.2484130859375
 30
0.0
 10
2.658827039930555
 20
-0.2484130859375
 30
0.0
 10
2.658827039930555
 20
-0.2484130859375
 30
0.0
 10
2.658827039930555
 20
-0.2484130859375
 30
0.0
 10
2.658827039930555
 20
-0.2484130859375
 30
0.0
 10
2.658827039930555
 20
-0.2484130859375
 30
0.0
 10
2.9537353515625
 20
-0.2483045789930558
 30
0.0
 10
2.9537353515625
 20
-0.2483045789930558
 30
0.0
 10
3.0701904296875
 20
-0.2483045789930558
 30
0.0
 10
3.1812744140625
 20
-0.1920844184027777
 30
0.0
 10
3.181342230902778
 20
-0.0610894097222223
 30
0.0
 10
3.1812744140625
 20
0.0193142361111112
 30
0.0
 10
3.141343858506945
 20
0.0797797309027777
 30
0.0
 10
3.062649197048612
 20
0.1022135416666665
 30
0.0
  0
POLYLINE
  5
A3F
330
A2B
100
AcDbEntity
  8
Layer 1
370
     0
100
AcDb2dPolyline
 66
     1
 10
0.0
 20
0.0
 30
0.0
  0
VERTEX
  5
A40
330
A3F
100
AcDbEntity
  8
Layer 1
370
     0
100
AcDbVertex
100
AcDb2dVertex
 10
2.258327907986112
 20
0.0007052951388888
 30
0.0
  0
VERTEX
  5
A41
330
A3F
100
AcDbEntity
  8
Layer 1
370
     0
100
AcDbVertex
100
AcDb2dVertex
 10
2.342447916666667
 20
0.2374674479166665
 30
0.0
  0
VERTEX
  5
A42
330
A3F
100
AcDbEntity
  8
Layer 1
370
     0
100
AcDbVertex
100
AcDb2dVertex
 10
2.344251844618055
 20
0.2374674479166665
 30
0.0
  0
VERTEX
  5
A43
330
A3F
100
AcDbEntity
  8
Layer 1
370
     0
100
AcDbVertex
100
AcDb2dVertex
 10
2.425632052951389
 20
0.0007052951388888
 30
0.0
  0
VERTEX
  5
A44
330
A3F
100
AcDbEntity
  8
Layer 1
370
     0
100
AcDbVertex
100
AcDb2dVertex
 10
2.258327907986112
 20
0.0007052951388888
 30
0.0
  0
SEQEND
  5
A45
330
A3F
100
AcDbEntity
  8
Layer 1
370
     0
  0
SPLINE
  5
A46
330
A2B
100
AcDbEntity
  8
Layer 1
370
     0
100
AcDbSpline
210
0.0
220
0.0
230
1.0
 70
    11
 71
     3
 72
    20
 73
    16
 74
     0
 42
0.000000001
 43
0.0000000001
 40
0.0
 40
0.0
 40
0.0
 40
0.0
 40
1.0
 40
1.0
 40
1.0
 40
2.0
 40
2.0
 40
2.0
 40
3.0
 40
3.0
 40
3.0
 40
4.0
 40
4.0
 40
4.0
 40
5.0
 40
5.0
 40
5.0
 40
5.0
 10
2.782687717013889
 20
0.2865125868055554
 30
0.0
 10
2.782687717013889
 20
0.2865125868055554
 30
0.0
 10
2.915432400173612
 20
0.2866346571180554
 30
0.0
 10
2.915432400173612
 20
0.2866346571180554
 30
0.0
 10
2.965928819444445
 20
0.2865125868055554
 30
0.0
 10
3.0130615234375
 20
0.2739935980902777
 30
0.0
 10
3.013224283854167
 20
0.2125244140625
 30
0.0
 10
3.013115776909722
 20
0.1582302517361112
 30
0.0
 10
2.975925021701389
 20
0.1356065538194442
 30
0.0
 10
2.926500108506945
 20
0.1356743706597223
 30
0.0
 10
2.926500108506945
 20
0.1356743706597223
 30
0.0
 10
2.782741970486112
 20
0.1353759765625
 30
0.0
 10
2.782741970486112
 20
0.1353759765625
 30
0.0
 10
2.782741970486112
 20
0.1353759765625
 30
0.0
 10
2.782687717013889
 20
0.2865125868055554
 30
0.0
 10
2.782687717013889
 20
0.2865125868055554
 30
0.0
  0
SPLINE
  5
A47
330
A2B
100
AcDbEntity
  8
Layer 1
370
     0
100
AcDbSpline
210
0.0
220
0.0
230
1.0
 70
    11
 71
     3
 72
    20
 73
    16
 74
     0
 42
0.000000001
 43
0.0000000001
 40
0.0
 40
0.0
 40
0.0
 40
0.0
 40
1.0
 40
1.0
 40
1.0
 40
2.0
 40
2.0
 40
2.0
 40
3.0
 40
3.0
 40
3.0
 40
4.0
 40
4.0
 40
4.0
 40
5.0
 40
5.0
 40
5.0
 40
5.0
 10
2.934719509548612
 20
-0.1380072699652777
 30
0.0
 10
2.934719509548612
 20
-0.1380072699652777
 30
0.0
 10
2.782877604166667
 20
-0.1381700303819446
 30
0.0
 10
2.782877604166667
 20
-0.1381700303819446
 30
0.0
 10
2.782877604166667
 20
-0.1381700303819446
 30
0.0
 10
2.782782660590278
 20
0.0389811197916665
 30
0.0
 10
2.782782660590278
 20
0.0389811197916665
 30
0.0
 10
2.782782660590278
 20
0.0389811197916665
 30
0.0
 10
2.937296549479167
 20
0.0391031901041665
 30
0.0
 10
2.937296549479167
 20
0.0391031901041665
 30
0.0
 10
2.997775607638889
 20
0.0391710069444442
 30
0.0
 10
3.039510091145834
 20
0.0128309461805554
 30
0.0
 10
3.039320203993055
 20
-0.0531141493055558
 30
0.0
 10
3.039320203993055
 20
-0.1200493706597223
 30
0.0
 10
2.990505642361112
 20
-0.1380886501736112
 30
0.0
 10
2.934719509548612
 20
-0.1380072699652777
 30
0.0
  0
SPLINE
  5
A48
330
A2B
100
AcDbEntity
  8
Layer 1
370
     0
100
AcDbSpline
210
0.0
220
0.0
230
1.0
 70
    11
 71
     3
 72
    38
 73
    34
 74
     0
 42
0.000000001
 43
0.0000000001
 40
0.0
 40
0.0
 40
0.0
 40
0.0
 40
1.0
 40
1.0
 40
1.0
 40
2.0
 40
2.0
 40
2.0
 40
3.0
 40
3.0
 40
3.0
 40
4.0
 40
4.0
 40
4.0
 40
5.0
 40
5.0
 40
5.0
 40
6.0
 40
6.0
 40
6.0
 40
7.0
 40
7.0
 40
7.0
 40
8.0
 40
8.0
 40
8.0
 40
9.0
 40
9.0
 40
9.0
 40
10.0
 40
10.0
 40
10.0
 40
11.0
 40
11.0
 40
11.0
 40
11.0
 10
3.845662434895834
 20
0.4122178819444446
 30
0.0
 10
3.646077473958334
 20
0.4124891493055554
 30
0.0
 10
3.528564453125
 20
0.2633734809027777
 30
0.0
 10
3.528754340277778
 20
0.0717230902777777
 30
0.0
 10
3.528876410590278
 20
-0.0035942925347223
 30
0.0
 10
3.548366970486112
 20
-0.0725233289930558
 30
0.0
 10
3.584404839409722
 20
-0.1282280815972223
 30
0.0
 10
3.584404839409722
 20
-0.1282280815972223
 30
0.0
 10
3.345703125
 20
-0.1290554470486112
 30
0.0
 10
3.345703125
 20
-0.1290554470486112
 30
0.0
 10
3.345703125
 20
-0.1290554470486112
 30
0.0
 10
3.343817816840278
 20
0.3985731336805554
 30
0.0
 10
3.343817816840278
 20
0.3985731336805554
 30
0.0
 10
3.343817816840278
 20
0.3985731336805554
 30
0.0
 10
3.202012803819445
 20
0.39794921875
 30
0.0
 10
3.202012803819445
 20
0.39794921875
 30
0.0
 10
3.202012803819445
 20
0.39794921875
 30
0.0
 10
3.203965928819445
 20
-0.2480740017361112
 30
0.0
 10
3.203965928819445
 20
-0.2480740017361112
 30
0.0
 10
3.203965928819445
 20
-0.2480740017361112
 30
0.0
 10
3.614217122395834
 20
-0.2463921440972223
 30
0.0
 10
3.614217122395834
 20
-0.2463921440972223
 30
0.0
 10
3.614217122395834
 20
-0.2463921440972223
 30
0.0
 10
3.613742404513889
 20
-0.1668701171875
 30
0.0
 10
3.613742404513889
 20
-0.1668701171875
 30
0.0
 10
3.66796875
 20
-0.2266574435763888
 30
0.0
 10
3.746771918402778
 20
-0.263427734375
 30
0.0
 10
3.8460693359375
 20
-0.2633056640625
 30
0.0
 10
4.045694986979166
 20
-0.2633056640625
 30
0.0
 10
4.163018120659723
 20
-0.1141357421875
 30
0.0
 10
4.162841796875
 20
0.0719129774305554
 30
0.0
 10
4.162977430555555
 20
0.2634955512152777
 30
0.0
 10
4.045274522569445
 20
0.4125434027777777
 30
0.0
 10
3.845662434895834
 20
0.4122178819444446
 30
0.0
  0
SPLINE
  5
A49
330
A2B
100
AcDbEntity
  8
Layer 1
370
     0
100
AcDbSpline
210
0.0
220
0.0
230
1.0
 70
    11
 71
     3
 72
    17
 73
    13
 74
     0
 42
0.000000001
 43
0.0000000001
 40
0.0
 40
0.0
 40
0.0
 40
0.0
 40
1.0
 40
1.0
 40
1.0
 40
2.0
 40
2.0
 40
2.0
 40
3.0
 40
3.0
 40
3.0
 40
4.0
 40
4.0
 40
4.0
 40
4.0
 10
3.845974392361112
 20
-0.1441921657986112
 30
0.0
 10
3.718505859375
 20
-0.1442599826388888
 30
0.0
 10
3.670722113715278
 20
-0.0357530381944446
 30
0.0
 10
3.6705322265625
 20
0.0717230902777777
 30
0.0
 10
3.670477973090278
 20
0.1846110026041665
 30
0.0
 10
3.71826171875
 20
0.293050130208333
 30
0.0
 10
3.845770941840278
 20
0.2931179470486112
 30
0.0
 10
3.973198784722223
 20
0.2931179470486112
 30
0.0
 10
4.021063910590279
 20
0.1848008897569442
 30
0.0
 10
4.021294487847223
 20
0.0720350477430554
 30
0.0
 10
4.021335177951389
 20
-0.0356987847222223
 30
0.0
 10
3.973320855034723
 20
-0.1439887152777777
 30
0.0
 10
3.845974392361112
 20
-0.1441921657986112
 30
0.0
  0
POLYLINE
  5
A4A
330
A2B
100
AcDbEntity
  8
Layer 1
370
     0
100
AcDb2dPolyline
 66
     1
 10
0.0
 20
0.0
 30
0.0
  0
VERTEX
  5
A4B
330
A4A
100
AcDbEntity
  8
Layer 1
370
     0
100
AcDbVertex
100
AcDb2dVertex
 10
4.523952907986111
 20
0.3973659939236107
 30
0.0
  0
VERTEX
  5
A4C
330
A4A
100
AcDbEntity
  8
Layer 1
370
     0
100
AcDbVertex
100
AcDb2dVertex
 10
4.374159071180555
 20
0.1425103081597223
 30
0.0
  0
VERTEX
  5
A4D
330
A4A
100
AcDbEntity
  8
Layer 1
370
     0
100
AcDbVertex
100
AcDb2dVertex
 10
4.223117404513889
 20
0.3970675998263884
 30
0.0
  0
VERTEX
  5
A4E
330
A4A
100
AcDbEntity
  8
Layer 1
370
     0
100
AcDbVertex
100
AcDb2dVertex
 10
4.063137478298611
 20
0.3971218532986107
 30
0.0
  0
VERTEX
  5
A4F
330
A4A
100
AcDbEntity
  8
Layer 1
370
     0
100
AcDbVertex
100
AcDb2dVertex
 10
4.300699869791666
 20
0.0034722222222223
 30
0.0
  0
VERTEX
  5
A50
330
A4A
100
AcDbEntity
  8
Layer 1
370
     0
100
AcDbVertex
100
AcDb2dVertex
 10
4.300971137152779
 20
-0.2478841145833335
 30
0.0
  0
VERTEX
  5
A51
330
A4A
100
AcDbEntity
  8
Layer 1
370
     0
100
AcDbVertex
100
AcDb2dVertex
 10
4.442898220486111
 20
-0.2479519314236112
 30
0.0
  0
VERTEX
  5
A52
330
A4A
100
AcDbEntity
  8
Layer 1
370
     0
100
AcDbVertex
100
AcDb2dVertex
 10
4.442599826388889
 20
-0.0001763237847223
 30
0.0
  0
VERTEX
  5
A53
330
A4A
100
AcDbEntity
  8
Layer 1
370
     0
100
AcDbVertex
100
AcDb2dVertex
 10
4.681993272569445
 20
0.397257486979167
 30
0.0
  0
VERTEX
  5
A54
330
A4A
100
AcDbEntity
  8
Layer 1
370
     0
100
AcDbVertex
100
AcDb2dVertex
 10
4.523952907986111
 20
0.3973659939236107
 30
0.0
  0
SEQEND
  5
A55
330
A4A
100
AcDbEntity
  8
Layer 1
370
     0
  0
ENDBLK
  5
A56
330
A2B
100
AcDbEntity
  8
0
100
AcDbBlockEnd
  0
ENDSEC
  0
SECTION
  2
ENTITIES
  0
LEADER
  5
10A
330
A
100
AcDbEntity
  8
R-ANNO-TEXT
  6
Continuous
100
AcDbLeader
  3
SCADMECH
 73
     0
 74
     0
 75
     1
 40
0.421875
 41
3.059151785714286
 76
     3
 10
9.175870036748751
 20
0.1469067916854905
 30
0.0
 10
9.399284875173871
 20
-0.2055172999290863
 30
0.0
 10
9.524284875173871
 20
-0.2055172999290863
 30
0.0
340
10B
213
0.0
223
-0.0375
233
0.0
1001
ACAD
1000
DSTYLE
1002
{
1070
   147
1040
0.09
1070
    77
1070
     0
1002
}
  0
MTEXT
  5
10B
102
{ACAD_REACTORS
330
10A
102
}
330
A
100
AcDbEntity
  8
R-ANNO-TEXT
  6
Continuous
100
AcDbMText
 10
9.61428487517387
 20
-0.1680172999290863
 30
0.0
 40
0.125
 41
0.0
 71
     4
 72
     1
  1
No. 10 x 2-1/2" FHWS, Phillips\P(Factory Provided)
  7
SWTSTEXT
 73
     1
 44
1.0
  0
MTEXT
  5
10C
330
A
100
AcDbEntity
  8
R-ANNO-TEXT
  6
Continuous
100
AcDbMText
 10
8.645298623713883
 20
-0.7055172999290864
 30
0.0
 40
0.125
 41
2.1102
 71
     5
 72
     5
  1
136_
  7
SWTSTEXT
 73
     1
 44
1.0
  0
INSERT
  5
459
330
A
100
AcDbEntity
  8
R-SWTS-DET2
  6
Continuous
100
AcDbBlockReference
  2
10x250CountersunkSMS-Phillips
 10
9.175870036748751
 20
2.64690679168549
 30
0.0
 50
90.0
  0
DIMENSION
  5
45A
330
A
100
AcDbEntity
  8
R-ANNO-DIMS
  6
Continuous
100
AcDbDimension
  2
*D1
 10
11.27821521656495
 20
1.64690679083631
 30
0.0
 11
11.27821521656495
 21
2.1469067912609
 31
0.0
 70
    32
 71
     5
 42
1.00000000084918
  3
SCADMECH
100
AcDbAlignedDimension
 13
9.741370036748751
 23
2.64690679168549
 33
0.0
 14
11.05387003055732
 24
1.64690679083631
 34
0.0
 50
90.0
100
AcDbRotatedDimension
  0
DIMENSION
  5
468
330
A
100
AcDbEntity
  8
R-ANNO-DIMS
  6
Continuous
100
AcDbDimension
  2
*D2
 10
6.178870036748751
 20
4.485111785266013
 30
0.0
 11
8.594205088967446
 21
4.485111785266012
 31
0.0
 70
   160
 71
     5
 42
4.874999993808573
 52
-270.0
  3
SCADMECH
100
AcDbAlignedDimension
 13
11.05387003055732
 23
1.64690679083631
 33
0.0
 14
6.178870036748751
 24
1.646906791685491
 34
0.0
 50
180.0
100
AcDbRotatedDimension
  0
LWPOLYLINE
  5
535
330
A
100
AcDbEntity
  8
R-SWTS-DET1
100
AcDbPolyline
 90
       11
 70
     0
 43
0.0
 10
8.80547689266546
 20
2.471906790836309
 10
8.596060827626367
 20
2.524298695779172
 42
-0.8843675130970307
 10
8.61547689266546
 20
2.681906790836309
 10
9.442976892665463
 20
2.681906790836309
 42
0.9999999999999999
 10
9.442976892665463
 20
2.701906790836309
 10
8.61547689266546
 20
2.701906790836309
 42
0.8843675130970294
 10
8.591206811366593
 20
2.504896672014887
 10
8.800622876405686
 20
2.452504767072025
 42
0.9999999999999999
 10
8.810330908925234
 20
2.491308814600594
 10
8.70847028416274
 20
2.516792399964405
 42
1.000000000000022
 10
8.703616267902966
 20
2.497390376200122
  0
LEADER
  5
536
330
A
100
AcDbEntity
  8
R-ANNO-TEXT
  6
Continuous
100
AcDbLeader
  3
SCADMECH
 73
     0
 75
     1
 40
0.421875
 41
1.726190476190476
 76
     3
 10
9.029226892665463
 20
3.541906790836309
 30
0.0
 10
8.44717433814225
 20
3.933201838769037
 30
0.0
 10
8.32217433814225
 20
3.933201838769037
 30
0.0
340
537
213
0.0
223
-0.0375
233
0.0
1001
ACAD
1000
DSTYLE
1002
{
1070
   147
1040
0.09
1070
    77
1070
     0
1002
}
  0
MTEXT
  5
537
102
{ACAD_REACTORS
330
536
102
}
330
A
100
AcDbEntity
  8
R-ANNO-TEXT
  6
Continuous
100
AcDbMText
 10
8.23217433814225
 20
3.970701838769037
 30
0.0
 40
0.125
 41
0.0
 71
     6
 72
     1
  1
16ga x 7/8 NAIL\P(Factory Provided)
  7
SWTSTEXT
 73
     1
 44
1.0
  0
LEADER
  5
538
330
A
100
AcDbEntity
  8
R-ANNO-TEXT
  6
Continuous
100
AcDbLeader
  3
SCADMECH
 73
     0
 74
     0
 75
     1
 40
0.13671875
 41
0.2918526785714285
 76
     3
 10
9.442976892665463
 20
2.701906790836309
 30
0.0
 10
9.673620669446755
 20
3.101264769190831
 30
0.0
 10
9.798620669446755
 20
3.101264769190831
 30
0.0
340
539
213
0.0
223
-0.0375
233
0.0
1001
ACAD
1000
DSTYLE
1002
{
1070
   147
1040
0.09
1070
    77
1070
     0
1002
}
  0
MTEXT
  5
539
102
{ACAD_REACTORS
330
538
102
}
330
A
100
AcDbEntity
  8
R-ANNO-TEXT
  6
Continuous
100
AcDbMText
 10
9.888620669446755
 20
3.138764769190832
 30
0.0
 40
0.125
 41
0.0
 71
     4
 72
     1
  1
_61
  7
SWTSTEXT
 73
     1
 44
1.0
  0
INSERT
  5
53A
330
A
100
AcDbEntity
  8
R-SWTS-DET2
  6
Continuous
100
AcDbBlockReference
  2
NL1678
 10
9.029226892665463
 20
2.681906790836309
 30
0.0
 41
-1.0
  0
LWPOLYLINE
  5
55C
330
A
100
AcDbEntity
  8
R-SWTS-DET1
100
AcDbPolyline
 90
       42
 70
     0
 43
0.0
 10
8.976857284197774
 20
2.448277463650046
 10
8.976857284197775
 20
2.45990679083631
 42
-0.4142135623730966
 10
9.038857284197775
 20
2.521906790836311
 10
9.343870030557325
 20
2.52190679083631
 42
-0.4142135623730936
 10
9.405870030557324
 20
2.459906790836309
 10
9.405870030557326
 20
1.677906790836309
 10
9.432732542003908
 20
1.704769302282892
 10
9.459595053450489
 20
1.677906790836309
 42
-0.2656911476909563
 10
9.6169078543595
 20
1.802253966600534
 10
9.949531242761154
 20
1.852356645316591
 42
0.3710723991338426
 10
10.06187003055732
 20
1.982884177794133
 10
10.06187003055732
 20
2.06190679083631
 42
-0.4809048505616877
 10
10.23272598227637
 20
2.198464142317334
 42
-0.2117473088780133
 10
10.97421456217631
 20
1.64690679083631
 10
11.01404229636682
 20
1.686734525026818
 10
11.05387003055732
 20
1.64690679083631
 42
0.220216649491817
 10
10.24815395813589
 20
2.266742818057846
 42
0.48090485056169
 10
9.991870030557322
 20
2.06190679083631
 10
9.991870030557322
 20
1.982884177794133
 42
-0.3710723991338497
 10
9.939104842350034
 20
1.921575791327409
 10
9.547104842350034
 20
1.862529281846909
 42
-0.4587121739621313
 10
9.475870030557324
 20
1.923837668313633
 10
9.475870030557324
 20
2.459906790836309
 42
-0.4142135623730908
 10
9.537870030557327
 20
2.52190679083631
 10
9.741370030557324
 20
2.521906790836308
 42
0.9999999999999999
 10
9.741370030557324
 20
2.64690679083631
 10
9.468870030557325
 20
2.64690679083631
 42
-0.9999999999999999
 10
9.388870030557324
 20
2.64690679083631
 10
9.218870030557323
 20
2.646906790836309
 42
-0.9999999999999888
 10
9.138870030557324
 20
2.64690679083631
 10
8.968870030557325
 20
2.646906790836309
 42
-0.9999999999999999
 10
8.888870030557324
 20
2.646906790836309
 10
8.616370030557324
 20
2.64690679083631
 42
0.9999999999999999
 10
8.616370030557324
 20
2.52190679083631
 10
8.831870030557322
 20
2.521906790836311
 42
-0.9279084836240717
 10
8.843041173854953
 20
2.372743420110433
 10
6.590647151816308
 20
2.033467897212144
 42
0.3117034970563425
 10
6.178870030557325
 20
1.646906790836309
 10
6.250759054345536
 20
1.646906790836307
 42
-0.3019817634750205
 10
6.60107355222743
 20
1.964248751201329
 10
8.853467574266077
 20
2.303524274099616
 42
0.3710723991338409
 10
8.976870030557322
 20
2.446906790836309
  0
INSERT
  5
90F
330
A
100
AcDbEntity
  8
0
  6
Continuous
100
AcDbBlockReference
  2
ASSA LOGO
 10
0.1070908799892827
 20
-1.344486868709721
 30
0.0
  0
DIMENSION
  5
93E
330
A
100
AcDbEntity
  8
R-ANNO-DIMS
  6
Continuous
100
AcDbDimension
  2
*D7
 10
9.803870030557324
 20
4.046901974737557
 30
0.0
 11
9.178870030557324
 21
4.046901974737557
 31
0.0
 70
   160
 71
     5
 42
1.25
  3
SCADMECH
100
AcDbAlignedDimension
 13
8.553870030557324
 23
2.58440679083631
 33
0.0
 14
9.803870030557324
 24
2.584406790836309
 34
0.0
100
AcDbRotatedDimension
  0
VIEWPORT
  5
15B
330
B
100
AcDbEntity
 67
     1
  8
0
  6
Continuous
100
AcDbViewport
 10
6.243479805360887
 20
4.124999881729367
 30
0.0
 40
16.87796981644255
 41
8.999212568092654
 68
     1
 69
     1
 12
6.243479805360887
 22
4.124999881729367
 13
0.0
 23
0.0
 14
0.5
 24
0.5
 15
0.5
 25
0.5
 16
0.0
 26
0.0
 36
1.0
 17
0.0
 27
0.0
 37
0.0
 42
50.0
 43
0.0
 44
0.0
 45
8.999212568092654
 50
0.0
 51
0.0
 72
   100
 90
    32800
  1

281
     0
 71
     1
 74
     0
110
0.0
120
0.0
130
0.0
111
1.0
121
0.0
131
0.0
112
0.0
122
1.0
132
0.0
 79
     0
146
0.0
170
     0
  0
VIEWPORT
  5
15D
330
B
100
AcDbEntity
 67
     1
  8
R-ANNO-TEXT
  6
Continuous
100
AcDbViewport
 10
5.375000121086601
 20
4.124999820716738
 30
0.0
 40
8.60000019373856
 41
6.599999713146781
 68
     2
 69
     2
 12
1.883323391344033
 22
-0.4089053154753202
 13
0.0
 23
0.0
 14
1.0
 24
1.0
 15
0.0
 25
0.0
 16
0.0
 26
0.0
 36
1.0
 17
0.0
 27
0.0
 37
0.0
 42
50.0
 43
0.0
 44
0.0
 45
6.599999713146781
 50
0.0
 51
0.0
 72
   100
 90
    32800
  1

281
     0
 71
     1
 74
     0
110
0.0
120
0.0
130
0.0
111
1.0
121
0.0
131
0.0
112
0.0
122
1.0
132
0.0
 79
     0
146
0.0
170
     0
  0
ENDSEC
  0
SECTION
  2
OBJECTS
  0
DICTIONARY
  5
19
330
0
100
AcDbDictionary
281
     1
  3
ACAD_DETAILVIEWSTYLE
350
A85
  3
ACAD_GROUP
350
1A
  3
ACAD_IMAGE_VARS
350
9EA
  3
ACAD_LAYOUT
350
C6
  3
ACAD_MATERIAL
350
A73
  3
ACAD_MLEADERSTYLE
350
A79
  3
ACAD_MLINESTYLE
350
1B
  3
ACAD_PLOTSETTINGS
350
C7
  3
ACAD_PLOTSTYLENAME
350
C4
  3
ACAD_SCALELIST
350
9BA
  3
ACAD_SECTIONVIEWSTYLE
350
A86
  3
ACAD_TABLESTYLE
350
A77
  3
ACDB_RECOMPOSE_DATA
350
A81
  3
AcDbVariableDictionary
350
D0
  3
AcStStandard
350
4CD
  3
APPDATA
350
9E8
  3
ASE_INDEX_DICTIONARY
350
552
  0
DICTIONARY
  5
909
330
2
100
AcDbDictionary
280
     1
281
     1
  3
ACAD_LAYERSTATES
360
90A
  0
DICTIONARY
  5
9EC
330
9EB
100
AcDbDictionary
280
     1
281
     1
  3
ADSK_XREC_LAYER_RECONCILED
360
9ED
  0
DICTIONARY
  5
518
330
517
100
AcDbDictionary
280
     1
281
     1
  3
ACAD_SORTENTS
360
519
  0
DICTIONARY
  5
5B7
330
5B6
100
AcDbDictionary
280
     1
281
     1
  3
ACAD_SORTENTS
360
5B8
  0
DICTIONARY
  5
A85
102
{ACAD_REACTORS
330
19
102
}
330
19
100
AcDbDictionary
281
     1
  0
DICTIONARY
  5
1A
102
{ACAD_REACTORS
330
19
102
}
330
19
100
AcDbDictionary
281
     1
  0
RASTERVARIABLES
  5
9EA
102
{ACAD_REACTORS
330
19
102
}
330
19
100
AcDbRasterVariables
 90
        0
 70
     1
 71
     1
 72
     0
  0
DICTIONARY
  5
C6
102
{ACAD_REACTORS
330
19
102
}
330
19
100
AcDbDictionary
281
     1
  3
Layout1
350
C9
  3
Model
350
C8
  0
DICTIONARY
  5
A73
102
{ACAD_REACTORS
330
19
102
}
330
19
100
AcDbDictionary
281
     1
  3
ByBlock
350
A75
  3
ByLayer
350
A74
  3
Global
350
A76
  0
DICTIONARY
  5
A79
102
{ACAD_REACTORS
330
19
102
}
330
19
100
AcDbDictionary
281
     1
  3
Standard
350
A7A
  0
DICTIONARY
  5
1B
102
{ACAD_REACTORS
330
19
102
}
330
19
100
AcDbDictionary
281
     1
  3
STANDARD
350
1C
  0
DICTIONARY
  5
C7
102
{ACAD_REACTORS
330
19
102
}
330
19
100
AcDbDictionary
281
     1
  0
ACDBDICTIONARYWDFLT
  5
C4
102
{ACAD_REACTORS
330
19
102
}
330
19
100
AcDbDictionary
281
     1
  3
Normal
350
C5
100
AcDbDictionaryWithDefault
340
C5
  0
DICTIONARY
  5
9BA
102
{ACAD_REACTORS
330
19
102
}
330
19
100
AcDbDictionary
281
     1
  3
A0
350
9BB
  3
A1
350
9BC
  3
A2
350
9BD
  3
A3
350
9BE
  3
A4
350
9BF
  3
A5
350
9C0
  3
A6
350
9C1
  3
A7
350
9C2
  3
A8
350
9C3
  3
A9
350
9C4
  3
B0
350
9C5
  3
B1
350
9C6
  3
B2
350
9C7
  3
B3
350
9C8
  3
B4
350
9C9
  3
B5
350
9CA
  3
B6
350
9CB
  3
B7
350
9CC
  3
B8
350
9CD
  3
B9
350
9CE
  3
C0
350
9CF
  3
C1
350
9D0
  3
C2
350
9D1
  3
C3
350
9D2
  3
C4
350
9D3
  3
C5
350
9D4
  3
C6
350
9D5
  3
C7
350
9D6
  3
C8
350
9D7
  3
C9
350
9D8
  3
D0
350
9D9
  3
D1
350
9DA
  3
D2
350
9DB
  0
DICTIONARY
  5
A86
102
{ACAD_REACTORS
330
19
102
}
330
19
100
AcDbDictionary
281
     1
  0
DICTIONARY
  5
A77
102
{ACAD_REACTORS
330
19
102
}
330
19
100
AcDbDictionary
281
     1
  3
Standard
350
A78
  0
XRECORD
  5
A81
102
{ACAD_REACTORS
330
19
102
}
330
19
100
AcDbXrecord
280
     1
 90
        1
330
A78
  0
DICTIONARY
  5
D0
102
{ACAD_REACTORS
330
19
102
}
330
19
100
AcDbDictionary
281
     1
  3
CANNOSCALE
350
A7C
  3
CMLEADERSTYLE
350
A83
  3
CTABLESTYLE
350
A82
  3
DIMASSOC
350
D1
  3
INDEXCTL
350
93A
  3
MSLTSCALE
350
A84
  3
SORTENTS
350
939
  0
DICTIONARY
  5
4CD
102
{ACAD_REACTORS
330
19
102
}
330
19
100
AcDbDictionary
281
     1
  0
DICTIONARY
  5
9E8
102
{ACAD_REACTORS
330
19
102
}
330
19
100
AcDbDictionary
281
     1
  0
DICTIONARY
  5
552
102
{ACAD_REACTORS
330
19
102
}
330
19
100
AcDbDictionary
281
     1
  3
ASEBlockHierarchyIndexRecord
350
553
1001
DCO15
1040
1621073967.01
  0
DICTIONARY
  5
90A
102
{ACAD_REACTORS
330
909
102
}
330
909
100
AcDbDictionary
281
     1
  0
XRECORD
  5
9ED
102
{ACAD_REACTORS
330
9EC
102
}
330
9EC
100
AcDbXrecord
280
     1
290
     1
  0
SORTENTSTABLE
  5
519
102
{ACAD_REACTORS
330
518
102
}
330
518
100
AcDbSortentsTable
330
517
  0
SORTENTSTABLE
  5
5B8
102
{ACAD_REACTORS
330
5B7
102
}
330
5B7
100
AcDbSortentsTable
330
5B6
  0
LAYOUT
  5
C9
102
{ACAD_REACTORS
330
C6
102
}
330
C6
100
AcDbPlotSettings
  1

  2
HP LaserJet 8150 PS
  4
Letter
  6

 40
3.174999952316284
 41
3.174999952316284
 42
3.175003051757812
 43
3.17498779296875
 44
215.8999938964844
 45
279.3999938964844
 46
0.0
 47
0.0
 48
0.0
 49
0.0
140
0.0
141
0.0
142
1.0
143
1.0
 70
   688
 72
     0
 73
     1
 74
     5
  7
monochrome.ctb
 75
    16
 76
     0
 77
     2
 78
   300
147
1.0
148
0.0
149
0.0
100
AcDbLayout
  1
Layout1
 70
     0
 71
     1
 10
-0.1249995194082185
 20
-0.1249999981226883
 11
10.87500024029589
 21
8.374999761581421
 12
0.0
 22
0.0
 32
0.0
 14
1.075000024217321
 24
0.8249999641433474
 34
0.0
 15
9.675000217955882
 25
7.424999677290129
 35
0.0
146
0.0
 13
0.0
 23
0.0
 33
0.0
 16
1.0
 26
0.0
 36
0.0
 17
0.0
 27
1.0
 37
0.0
 76
     0
330
B
331
15B
  0
LAYOUT
  5
C8
102
{ACAD_REACTORS
330
C6
102
}
330
C6
100
AcDbPlotSettings
  1

  2
Adobe PDF
  4
Letter
  6

 40
3.174999952316284
 41
3.174999952316284
 42
3.175003051757812
 43
3.17498779296875
 44
215.8999938964844
 45
279.3999938964844
 46
28.67000397160153
 47
31.8412634377873
 48
-1.719696447613462
 49
-2.053238495853998
140
6.523117697096176
141
3.939280517894318
142
1.0
143
1.0
 70
 11940
 72
     0
 73
     1
 74
     4
  7
monochrome.ctb
 75
     0
 76
     0
 77
     2
 78
   300
147
1.304166277857025
148
43.68028976938193
149
52.15225779469155
100
AcDbLayout
  1
Model
 70
     1
 71
     0
 10
0.0
 20
0.0
 11
12.0
 21
9.0
 12
0.0
 22
0.0
 32
0.0
 14
6.178870030557325
 24
-0.7738766749290864
 34
0.0
 15
12.67343666088816
 25
4.630945118599345
 35
0.0
146
0.0
 13
0.0
 23
0.0
 33
0.0
 16
1.0
 26
0.0
 36
0.0
 17
0.0
 27
1.0
 37
0.0
 76
     0
330
A
331
599
1001
ACAD_PSEXT
1000
Adobe PDF
1000
Adobe PDF Converter
1000
Documents\*.pdf
1000

1070
     0
  0
MATERIAL
  5
A75
102
{ACAD_REACTORS
330
A73
102
}
330
A73
100
AcDbMaterial
  1
ByBlock
  0
MATERIAL
  5
A74
102
{ACAD_REACTORS
330
A73
102
}
330
A73
100
AcDbMaterial
  1
ByLayer
  0
MATERIAL
  5
A76
102
{ACAD_REACTORS
330
A73
102
}
330
A73
100
AcDbMaterial
  1
Global
  0
MLEADERSTYLE
  5
A7A
102
{ACAD_REACTORS
330
A79
102
}
330
A79
100
AcDbMLeaderStyle
170
     2
171
     1
172
     0
 90
        2
 40
0.0
 41
0.0
173
     1
 91
-1056964608
340
11
 92
       -2
290
     1
 42
0.09
291
     1
 43
0.36
  3
Standard
341
0
 44
0.18
300

342
17
174
     1
178
     1
175
     1
176
     0
 93
-1056964608
 45
0.18
292
     0
297
     0
 46
0.18
343
0
 94
-1056964608
 47
1.0
 49
1.0
140
1.0
293
     1
141
0.0
294
     1
177
     0
142
1.0
295
     0
296
     0
143
0.125
1001
ACAD_MLEADERVER
1070
     2
  0
MLINESTYLE
  5
1C
102
{ACAD_REACTORS
330
1B
102
}
330
1B
100
AcDbMlineStyle
  2
STANDARD
 70
     0
  3

 62
     0
 51
90.0
 52
90.0
 71
     2
 49
0.5
 62
   256
  6
BYLAYER
 49
-0.5
 62
   256
  6
BYLAYER
  0
ACDBPLACEHOLDER
  5
C5
102
{ACAD_REACTORS
330
C4
102
}
330
C4
  0
SCALE
  5
9BB
102
{ACAD_REACTORS
330
9BA
102
}
330
9BA
100
AcDbScale
 70
     0
300
1:1
140
1.0
141
1.0
290
     1
  0
SCALE
  5
9BC
102
{ACAD_REACTORS
330
9BA
102
}
330
9BA
100
AcDbScale
 70
     0
300
1:2
140
1.0
141
2.0
290
     0
  0
SCALE
  5
9BD
102
{ACAD_REACTORS
330
9BA
102
}
330
9BA
100
AcDbScale
 70
     0
300
1:4
140
1.0
141
4.0
290
     0
  0
SCALE
  5
9BE
102
{ACAD_REACTORS
330
9BA
102
}
330
9BA
100
AcDbScale
 70
     0
300
1:5
140
1.0
141
5.0
290
     0
  0
SCALE
  5
9BF
102
{ACAD_REACTORS
330
9BA
102
}
330
9BA
100
AcDbScale
 70
     0
300
1:8
140
1.0
141
8.0
290
     0
  0
SCALE
  5
9C0
102
{ACAD_REACTORS
330
9BA
102
}
330
9BA
100
AcDbScale
 70
     0
300
1:10
140
1.0
141
10.0
290
     0
  0
SCALE
  5
9C1
102
{ACAD_REACTORS
330
9BA
102
}
330
9BA
100
AcDbScale
 70
     0
300
1:16
140
1.0
141
16.0
290
     0
  0
SCALE
  5
9C2
102
{ACAD_REACTORS
330
9BA
102
}
330
9BA
100
AcDbScale
 70
     0
300
1:20
140
1.0
141
20.0
290
     0
  0
SCALE
  5
9C3
102
{ACAD_REACTORS
330
9BA
102
}
330
9BA
100
AcDbScale
 70
     0
300
1:30
140
1.0
141
30.0
290
     0
  0
SCALE
  5
9C4
102
{ACAD_REACTORS
330
9BA
102
}
330
9BA
100
AcDbScale
 70
     0
300
1:40
140
1.0
141
40.0
290
     0
  0
SCALE
  5
9C5
102
{ACAD_REACTORS
330
9BA
102
}
330
9BA
100
AcDbScale
 70
     0
300
1:50
140
1.0
141
50.0
290
     0
  0
SCALE
  5
9C6
102
{ACAD_REACTORS
330
9BA
102
}
330
9BA
100
AcDbScale
 70
     0
300
1:100
140
1.0
141
100.0
290
     0
  0
SCALE
  5
9C7
102
{ACAD_REACTORS
330
9BA
102
}
330
9BA
100
AcDbScale
 70
     0
300
2:1
140
2.0
141
1.0
290
     0
  0
SCALE
  5
9C8
102
{ACAD_REACTORS
330
9BA
102
}
330
9BA
100
AcDbScale
 70
     0
300
4:1
140
4.0
141
1.0
290
     0
  0
SCALE
  5
9C9
102
{ACAD_REACTORS
330
9BA
102
}
330
9BA
100
AcDbScale
 70
     0
300
8:1
140
8.0
141
1.0
290
     0
  0
SCALE
  5
9CA
102
{ACAD_REACTORS
330
9BA
102
}
330
9BA
100
AcDbScale
 70
     0
300
10:1
140
10.0
141
1.0
290
     0
  0
SCALE
  5
9CB
102
{ACAD_REACTORS
330
9BA
102
}
330
9BA
100
AcDbScale
 70
     0
300
100:1
140
100.0
141
1.0
290
     0
  0
SCALE
  5
9CC
102
{ACAD_REACTORS
330
9BA
102
}
330
9BA
100
AcDbScale
 70
     0
300
1/128" = 1'-0"
140
0.0078125
141
12.0
290
     0
  0
SCALE
  5
9CD
102
{ACAD_REACTORS
330
9BA
102
}
330
9BA
100
AcDbScale
 70
     0
300
1/64" = 1'-0"
140
0.015625
141
12.0
290
     0
  0
SCALE
  5
9CE
102
{ACAD_REACTORS
330
9BA
102
}
330
9BA
100
AcDbScale
 70
     0
300
1/32" = 1'-0"
140
0.03125
141
12.0
290
     0
  0
SCALE
  5
9CF
102
{ACAD_REACTORS
330
9BA
102
}
330
9BA
100
AcDbScale
 70
     0
300
1/16" = 1'-0"
140
0.0625
141
12.0
290
     0
  0
SCALE
  5
9D0
102
{ACAD_REACTORS
330
9BA
102
}
330
9BA
100
AcDbScale
 70
     0
300
3/32" = 1'-0"
140
0.09375
141
12.0
290
     0
  0
SCALE
  5
9D1
102
{ACAD_REACTORS
330
9BA
102
}
330
9BA
100
AcDbScale
 70
     0
300
1/8" = 1'-0"
140
0.125
141
12.0
290
     0
  0
SCALE
  5
9D2
102
{ACAD_REACTORS
330
9BA
102
}
330
9BA
100
AcDbScale
 70
     0
300
3/16" = 1'-0"
140
0.1875
141
12.0
290
     0
  0
SCALE
  5
9D3
102
{ACAD_REACTORS
330
9BA
102
}
330
9BA
100
AcDbScale
 70
     0
300
1/4" = 1'-0"
140
0.25
141
12.0
290
     0
  0
SCALE
  5
9D4
102
{ACAD_REACTORS
330
9BA
102
}
330
9BA
100
AcDbScale
 70
     0
300
3/8" = 1'-0"
140
0.375
141
12.0
290
     0
  0
SCALE
  5
9D5
102
{ACAD_REACTORS
330
9BA
102
}
330
9BA
100
AcDbScale
 70
     0
300
1/2" = 1'-0"
140
0.5
141
12.0
290
     0
  0
SCALE
  5
9D6
102
{ACAD_REACTORS
330
9BA
102
}
330
9BA
100
AcDbScale
 70
     0
300
3/4" = 1'-0"
140
0.75
141
12.0
290
     0
  0
SCALE
  5
9D7
102
{ACAD_REACTORS
330
9BA
102
}
330
9BA
100
AcDbScale
 70
     0
300
1" = 1'-0"
140
1.0
141
12.0
290
     0
  0
SCALE
  5
9D8
102
{ACAD_REACTORS
330
9BA
102
}
330
9BA
100
AcDbScale
 70
     0
300
1-1/2" = 1'-0"
140
1.5
141
12.0
290
     0
  0
SCALE
  5
9D9
102
{ACAD_REACTORS
330
9BA
102
}
330
9BA
100
AcDbScale
 70
     0
300
3" = 1'-0"
140
3.0
141
12.0
290
     0
  0
SCALE
  5
9DA
102
{ACAD_REACTORS
330
9BA
102
}
330
9BA
100
AcDbScale
 70
     0
300
6" = 1'-0"
140
6.0
141
12.0
290
     0
  0
SCALE
  5
9DB
102
{ACAD_REACTORS
330
9BA
102
}
330
9BA
100
AcDbScale
 70
     0
300
1'-0" = 1'-0"
140
12.0
141
12.0
290
     0
  0
TABLESTYLE
  5
A78
102
{ACAD_REACTORS
330
A77
102
}
102
{ACAD_XDICTIONARY
360
A7D
102
}
330
A77
100
AcDbTableStyle
  3
Standard
 70
     0
 71
     0
 40
0.06
 41
0.06
280
     0
281
     0
  7
STANDARD
140
0.18
170
     2
 62
     0
 63
   257
283
     0
274
    -2
284
     1
 64
     0
275
    -2
285
     1
 65
     0
276
    -2
286
     1
 66
     0
277
    -2
287
     1
 67
     0
278
    -2
288
     1
 68
     0
279
    -2
289
     1
 69
     0
  7
STANDARD
140
0.25
170
     5
 62
     0
 63
   257
283
     0
274
    -2
284
     1
 64
     0
275
    -2
285
     1
 65
     0
276
    -2
286
     1
 66
     0
277
    -2
287
     1
 67
     0
278
    -2
288
     1
 68
     0
279
    -2
289
     1
 69
     0
  7
STANDARD
140
0.18
170
     5
 62
     0
 63
   257
283
     0
274
    -2
284
     1
 64
     0
275
    -2
285
     1
 65
     0
276
    -2
286
     1
 66
     0
277
    -2
287
     1
 67
     0
278
    -2
288
     1
 68
     0
279
    -2
289
     1
 69
     0
  0
DICTIONARYVAR
  5
A7C
102
{ACAD_REACTORS
330
D0
102
}
330
D0
100
DictionaryVariables
280
     0
  1
1:1
  0
DICTIONARYVAR
  5
A83
102
{ACAD_REACTORS
330
D0
102
}
330
D0
100
DictionaryVariables
280
     0
  1
Standard
  0
DICTIONARYVAR
  5
A82
102
{ACAD_REACTORS
330
D0
102
}
330
D0
100
DictionaryVariables
280
     0
  1
Standard
  0
DICTIONARYVAR
  5
D1
102
{ACAD_REACTORS
330
D0
102
}
330
D0
100
DictionaryVariables
280
     0
  1
1
  0
DICTIONARYVAR
  5
93A
102
{ACAD_REACTORS
330
D0
102
}
330
D0
100
DictionaryVariables
280
     0
  1
0
  0
DICTIONARYVAR
  5
A84
102
{ACAD_REACTORS
330
D0
102
}
330
D0
100
DictionaryVariables
280
     0
  1
0
  0
DICTIONARYVAR
  5
939
102
{ACAD_REACTORS
330
D0
102
}
330
D0
100
DictionaryVariables
280
     0
  1
127
  0
XRECORD
  5
553
102
{ACAD_REACTORS
330
552
102
}
330
552
100
AcDbXrecord
280
     1
330
90F
330
53A
330
459
  0
DICTIONARY
  5
A7D
330
A78
100
AcDbDictionary
280
     1
281
     1
  3
ACAD_ROUNDTRIP_2008_TABLESTYLE_CELLSTYLEMAP
360
A7F
  3
ACAD_XREC_ROUNDTRIP
360
A7E
  0
CELLSTYLEMAP
  5
A7F
102
{ACAD_REACTORS
330
A7D
102
}
330
A7D
100
AcDbCellStyleMap
 90
        3
300
CELLSTYLE
  1
TABLEFORMAT_BEGIN
 90
        5
170
     1
 91
        0
 92
    32768
 62
   257
 93
        1
300
CONTENTFORMAT
  1
CONTENTFORMAT_BEGIN
 90
        0
 91
        0
 92
        4
 93
        0
300

 40
0.0
140
1.0
 94
        5
 62
     0
340
17
144
0.25
309
CONTENTFORMAT_END
171
     1
301
MARGIN
  1
CELLMARGIN_BEGIN
 40
0.06
 40
0.06
 40
0.06
 40
0.06
 40
0.06
 40
0.06
309
CELLMARGIN_END
 94
        6
 95
        1
302
GRIDFORMAT
  1
GRIDFORMAT_BEGIN
 90
        0
 91
        1
 62
     0
 92
       -2
340
11
 93
        0
 40
0.045
309
GRIDFORMAT_END
 95
        2
302
GRIDFORMAT
  1
GRIDFORMAT_BEGIN
 90
        0
 91
        1
 62
     0
 92
       -2
340
11
 93
        0
 40
0.045
309
GRIDFORMAT_END
 95
        4
302
GRIDFORMAT
  1
GRIDFORMAT_BEGIN
 90
        0
 91
        1
 62
     0
 92
       -2
340
11
 93
        0
 40
0.045
309
GRIDFORMAT_END
 95
        8
302
GRIDFORMAT
  1
GRIDFORMAT_BEGIN
 90
        0
 91
        1
 62
     0
 92
       -2
340
11
 93
        0
 40
0.045
309
GRIDFORMAT_END
 95
       16
302
GRIDFORMAT
  1
GRIDFORMAT_BEGIN
 90
        0
 91
        1
 62
     0
 92
       -2
340
11
 93
        0
 40
0.045
309
GRIDFORMAT_END
 95
       32
302
GRIDFORMAT
  1
GRIDFORMAT_BEGIN
 90
        0
 91
        1
 62
     0
 92
       -2
340
11
 93
        0
 40
0.045
309
GRIDFORMAT_END
309
TABLEFORMAT_END
  1
CELLSTYLE_BEGIN
 90
        1
 91
        1
300
_TITLE
309
CELLSTYLE_END
300
CELLSTYLE
  1
TABLEFORMAT_BEGIN
 90
        5
170
     1
 91
        0
 92
        0
 62
   257
 93
        1
300
CONTENTFORMAT
  1
CONTENTFORMAT_BEGIN
 90
        0
 91
        0
 92
        4
 93
        0
300

 40
0.0
140
1.0
 94
        5
 62
     0
340
17
144
0.18
309
CONTENTFORMAT_END
171
     1
301
MARGIN
  1
CELLMARGIN_BEGIN
 40
0.06
 40
0.06
 40
0.06
 40
0.06
 40
0.06
 40
0.06
309
CELLMARGIN_END
 94
        6
 95
        1
302
GRIDFORMAT
  1
GRIDFORMAT_BEGIN
 90
        0
 91
        1
 62
     0
 92
       -2
340
11
 93
        0
 40
0.045
309
GRIDFORMAT_END
 95
        2
302
GRIDFORMAT
  1
GRIDFORMAT_BEGIN
 90
        0
 91
        1
 62
     0
 92
       -2
340
11
 93
        0
 40
0.045
309
GRIDFORMAT_END
 95
        4
302
GRIDFORMAT
  1
GRIDFORMAT_BEGIN
 90
        0
 91
        1
 62
     0
 92
       -2
340
11
 93
        0
 40
0.045
309
GRIDFORMAT_END
 95
        8
302
GRIDFORMAT
  1
GRIDFORMAT_BEGIN
 90
        0
 91
        1
 62
     0
 92
       -2
340
11
 93
        0
 40
0.045
309
GRIDFORMAT_END
 95
       16
302
GRIDFORMAT
  1
GRIDFORMAT_BEGIN
 90
        0
 91
        1
 62
     0
 92
       -2
340
11
 93
        0
 40
0.045
309
GRIDFORMAT_END
 95
       32
302
GRIDFORMAT
  1
GRIDFORMAT_BEGIN
 90
        0
 91
        1
 62
     0
 92
       -2
340
11
 93
        0
 40
0.045
309
GRIDFORMAT_END
309
TABLEFORMAT_END
  1
CELLSTYLE_BEGIN
 90
        2
 91
        1
300
_HEADER
309
CELLSTYLE_END
300
CELLSTYLE
  1
TABLEFORMAT_BEGIN
 90
        5
170
     1
 91
        0
 92
        0
 62
   257
 93
        1
300
CONTENTFORMAT
  1
CONTENTFORMAT_BEGIN
 90
        0
 91
        0
 92
        4
 93
        0
300

 40
0.0
140
1.0
 94
        2
 62
     0
340
17
144
0.18
309
CONTENTFORMAT_END
171
     1
301
MARGIN
  1
CELLMARGIN_BEGIN
 40
0.06
 40
0.06
 40
0.06
 40
0.06
 40
0.06
 40
0.06
309
CELLMARGIN_END
 94
        6
 95
        1
302
GRIDFORMAT
  1
GRIDFORMAT_BEGIN
 90
        0
 91
        1
 62
     0
 92
       -2
340
11
 93
        0
 40
0.045
309
GRIDFORMAT_END
 95
        2
302
GRIDFORMAT
  1
GRIDFORMAT_BEGIN
 90
        0
 91
        1
 62
     0
 92
       -2
340
11
 93
        0
 40
0.045
309
GRIDFORMAT_END
 95
        4
302
GRIDFORMAT
  1
GRIDFORMAT_BEGIN
 90
        0
 91
        1
 62
     0
 92
       -2
340
11
 93
        0
 40
0.045
309
GRIDFORMAT_END
 95
        8
302
GRIDFORMAT
  1
GRIDFORMAT_BEGIN
 90
        0
 91
        1
 62
     0
 92
       -2
340
11
 93
        0
 40
0.045
309
GRIDFORMAT_END
 95
       16
302
GRIDFORMAT
  1
GRIDFORMAT_BEGIN
 90
        0
 91
        1
 62
     0
 92
       -2
340
11
 93
        0
 40
0.045
309
GRIDFORMAT_END
 95
       32
302
GRIDFORMAT
  1
GRIDFORMAT_BEGIN
 90
        0
 91
        1
 62
     0
 92
       -2
340
11
 93
        0
 40
0.045
309
GRIDFORMAT_END
309
TABLEFORMAT_END
  1
CELLSTYLE_BEGIN
 90
        3
 91
        2
300
_DATA
309
CELLSTYLE_END
  0
XRECORD
  5
A7E
102
{ACAD_REACTORS
330
A7D
102
}
330
A7D
100
AcDbXrecord
280
     1
102
ACAD_ROUNDTRIP_PRE2007_TABLESTYLE
 90
        4
 91
        0
  1

 92
        4
 93
        0
  2

 94
        4
 95
        0
  3

  0
ENDSEC
  0
EOF
