  0
SECTION
  2
HEADER
  9
$ACADVER
  1
AC1015
  9
$ACADMAINTVER
 70
    20
  9
$DWGCODEPAGE
  3
ANSI_1252
  9
$INSBASE
 10
0.0
 20
0.0
 30
0.0
  9
$EXTMIN
 10
-1.342719391219343
 20
0.7517936937185557
 30
-0.0000000000112498
  9
$EXTMAX
 10
5.543503506286237
 20
4.219134655976631
 30
0.0000000000002956
  9
$LIMMIN
 10
0.0
 20
0.0
  9
$LIMMAX
 10
0.0
 20
0.0
  9
$ORTHOMODE
 70
     0
  9
$REGENMODE
 70
     1
  9
$FILLMODE
 70
     1
  9
$QTEXTMODE
 70
     0
  9
$MIRRTEXT
 70
     1
  9
$LTSCALE
 40
0.2
  9
$ATTMODE
 70
     1
  9
$TEXTSIZE
 40
0.1
  9
$TRACEWID
 40
1.0
  9
$TEXTSTYLE
  7
SWTSTEXT
  9
$CLAYER
  8
0
  9
$CELTYPE
  6
CONTINUOUS
  9
$CECOLOR
 62
   256
  9
$CELTSCALE
 40
1.0
  9
$DISPSILH
 70
     0
  9
$DIMSCALE
 40
1.0
  9
$DIMASZ
 40
0.125
  9
$DIMEXO
 40
0.0625
  9
$DIMDLI
 40
0.38
  9
$DIMRND
 40
0.0
  9
$DIMDLE
 40
0.0
  9
$DIMEXE
 40
0.125
  9
$DIMTP
 40
0.0
  9
$DIMTM
 40
0.0
  9
$DIMTXT
 40
0.125
  9
$DIMCEN
 40
0.04
  9
$DIMTSZ
 40
0.0
  9
$DIMTOL
 70
     0
  9
$DIMLIM
 70
     0
  9
$DIMTIH
 70
     1
  9
$DIMTOH
 70
     1
  9
$DIMSE1
 70
     0
  9
$DIMSE2
 70
     0
  9
$DIMTAD
 70
     0
  9
$DIMZIN
 70
     0
  9
$DIMBLK
  1

  9
$DIMASO
 70
     1
  9
$DIMSHO
 70
     1
  9
$DIMPOST
  1

  9
$DIMAPOST
  1

  9
$DIMALT
 70
     0
  9
$DIMALTD
 70
     2
  9
$DIMALTF
 40
25.4
  9
$DIMLFAC
 40
1.0
  9
$DIMTOFL
 70
     0
  9
$DIMTVP
 40
0.0
  9
$DIMTIX
 70
     1
  9
$DIMSOXD
 70
     0
  9
$DIMSAH
 70
     0
  9
$DIMBLK1
  1

  9
$DIMBLK2
  1

  9
$DIMSTYLE
  2
SCADMECH
  9
$DIMCLRD
 70
     0
  9
$DIMCLRE
 70
     0
  9
$DIMCLRT
 70
     0
  9
$DIMTFAC
 40
1.0
  9
$DIMGAP
 40
0.09
  9
$DIMJUST
 70
     0
  9
$DIMSD1
 70
     0
  9
$DIMSD2
 70
     0
  9
$DIMTOLJ
 70
     1
  9
$DIMTZIN
 70
     0
  9
$DIMALTZ
 70
     0
  9
$DIMALTTZ
 70
     0
  9
$DIMUPT
 70
     0
  9
$DIMDEC
 70
     4
  9
$DIMTDEC
 70
     4
  9
$DIMALTU
 70
     2
  9
$DIMALTTD
 70
     2
  9
$DIMTXSTY
  7
SWTSTEXT
  9
$DIMAUNIT
 70
     0
  9
$DIMADEC
 70
     0
  9
$DIMALTRND
 40
0.0
  9
$DIMAZIN
 70
     0
  9
$DIMDSEP
 70
    46
  9
$DIMATFIT
 70
     1
  9
$DIMFRAC
 70
     0
  9
$DIMLDRBLK
  1

  9
$DIMLUNIT
 70
     5
  9
$DIMLWD
 70
    -2
  9
$DIMLWE
 70
    -2
  9
$DIMTMOVE
 70
     0
  9
$LUNITS
 70
     2
  9
$LUPREC
 70
     4
  9
$SKETCHINC
 40
0.1
  9
$FILLETRAD
 40
0.0
  9
$AUNITS
 70
     0
  9
$AUPREC
 70
     0
  9
$MENU
  1
acad
  9
$ELEVATION
 40
0.0
  9
$PELEVATION
 40
0.0
  9
$THICKNESS
 40
0.0
  9
$LIMCHECK
 70
     0
  9
$CHAMFERA
 40
0.0
  9
$CHAMFERB
 40
0.0
  9
$CHAMFERC
 40
0.0
  9
$CHAMFERD
 40
0.0
  9
$SKPOLY
 70
     0
  9
$TDCREATE
 40
2452146.560115741
  9
$TDUCREATE
 40
2452146.851782408
  9
$TDUPDATE
 40
2454572.536714410
  9
$TDUUPDATE
 40
2454572.828381077
  9
$TDINDWG
 40
0.3064212731
  9
$TDUSRTIMER
 40
0.3064212731
  9
$USRTIMER
 70
     1
  9
$ANGBASE
 50
0.0
  9
$ANGDIR
 70
     0
  9
$PDMODE
 70
     1
  9
$PDSIZE
 40
-2.0
  9
$PLINEWID
 40
0.0
  9
$SPLFRAME
 70
     0
  9
$SPLINETYPE
 70
     6
  9
$SPLINESEGS
 70
     8
  9
$HANDSEED
  5
D33
  9
$SURFTAB1
 70
     6
  9
$SURFTAB2
 70
     6
  9
$SURFTYPE
 70
     6
  9
$SURFU
 70
     6
  9
$SURFV
 70
     6
  9
$UCSBASE
  2

  9
$UCSNAME
  2

  9
$UCSORG
 10
0.0
 20
0.0
 30
0.0
  9
$UCSXDIR
 10
1.0
 20
0.0
 30
0.0
  9
$UCSYDIR
 10
0.0
 20
1.0
 30
0.0
  9
$UCSORTHOREF
  2

  9
$UCSORTHOVIEW
 70
     0
  9
$UCSORGTOP
 10
0.0
 20
0.0
 30
0.0
  9
$UCSORGBOTTOM
 10
0.0
 20
0.0
 30
0.0
  9
$UCSORGLEFT
 10
0.0
 20
0.0
 30
0.0
  9
$UCSORGRIGHT
 10
0.0
 20
0.0
 30
0.0
  9
$UCSORGFRONT
 10
0.0
 20
0.0
 30
0.0
  9
$UCSORGBACK
 10
0.0
 20
0.0
 30
0.0
  9
$PUCSBASE
  2

  9
$PUCSNAME
  2

  9
$PUCSORG
 10
0.0
 20
0.0
 30
0.0
  9
$PUCSXDIR
 10
1.0
 20
0.0
 30
0.0
  9
$PUCSYDIR
 10
0.0
 20
1.0
 30
0.0
  9
$PUCSORTHOREF
  2

  9
$PUCSORTHOVIEW
 70
     0
  9
$PUCSORGTOP
 10
0.0
 20
0.0
 30
0.0
  9
$PUCSORGBOTTOM
 10
0.0
 20
0.0
 30
0.0
  9
$PUCSORGLEFT
 10
0.0
 20
0.0
 30
0.0
  9
$PUCSORGRIGHT
 10
0.0
 20
0.0
 30
0.0
  9
$PUCSORGFRONT
 10
0.0
 20
0.0
 30
0.0
  9
$PUCSORGBACK
 10
0.0
 20
0.0
 30
0.0
  9
$USERI1
 70
     0
  9
$USERI2
 70
     0
  9
$USERI3
 70
     0
  9
$USERI4
 70
     0
  9
$USERI5
 70
     0
  9
$USERR1
 40
0.0
  9
$USERR2
 40
0.0
  9
$USERR3
 40
0.0
  9
$USERR4
 40
0.0
  9
$USERR5
 40
0.0
  9
$WORLDVIEW
 70
     1
  9
$SHADEDGE
 70
     3
  9
$SHADEDIF
 70
    70
  9
$TILEMODE
 70
     1
  9
$MAXACTVP
 70
    16
  9
$PINSBASE
 10
0.0
 20
0.0
 30
0.0
  9
$PLIMCHECK
 70
     0
  9
$PEXTMIN
 10
1.07500002421732
 20
0.8249999641433474
 30
0.0
  9
$PEXTMAX
 10
9.675000217955881
 20
7.424999677290128
 30
0.0
  9
$PLIMMIN
 10
-0.1249995194082185
 20
-0.1249999981226883
  9
$PLIMMAX
 10
10.87500024029589
 20
8.37499976158142
  9
$UNITMODE
 70
     0
  9
$VISRETAIN
 70
     0
  9
$PLINEGEN
 70
     1
  9
$PSLTSCALE
 70
     0
  9
$TREEDEPTH
 70
  3020
  9
$CMLSTYLE
  2
STANDARD
  9
$CMLJUST
 70
     0
  9
$CMLSCALE
 40
1.0
  9
$PROXYGRAPHICS
 70
     0
  9
$MEASUREMENT
 70
     0
  9
$CELWEIGHT
370
    -1
  9
$ENDCAPS
280
     0
  9
$JOINSTYLE
280
     0
  9
$LWDISPLAY
290
     0
  9
$INSUNITS
 70
     0
  9
$HYPERLINKBASE
  1

  9
$STYLESHEET
  1
monochrome.ctb
  9
$XEDIT
290
     1
  9
$CEPSNTYPE
380
     0
  9
$PSTYLEMODE
290
     1
  9
$FINGERPRINTGUID
  2
{D8FA5890-C65F-426E-8F3D-AD5C3B08D6C8}
  9
$VERSIONGUID
  2
{B60BB724-320F-4CBE-9627-EF8A877835CF}
  9
$EXTNAMES
290
     1
  9
$PSVPSCALE
 40
0.0
  9
$OLESTARTUP
290
     0
  0
ENDSEC
  0
SECTION
  2
CLASSES
  0
CLASS
  1
IMAGE
  2
AcDbRasterImage
  3
ISM
 90
    34943
280
     0
281
     1
  0
CLASS
  1
DICTIONARYVAR
  2
AcDbDictionaryVar
  3
ObjectDBX Classes
 90
        0
280
     0
281
     0
  0
CLASS
  1
RASTERVARIABLES
  2
AcDbRasterVariables
  3
ISM
 90
    32768
280
     0
281
     0
  0
CLASS
  1
IMAGEDEF
  2
AcDbRasterImageDef
  3
ISM
 90
    32768
280
     0
281
     0
  0
CLASS
  1
IMAGEDEF_REACTOR
  2
AcDbRasterImageDefReactor
  3
ISM
 90
    32769
280
     0
281
     0
  0
CLASS
  1
IDBUFFER
  2
AcDbIdBuffer
  3
ObjectDBX Classes
 90
    32768
280
     0
281
     0
  0
CLASS
  1
SPATIAL_FILTER
  2
AcDbSpatialFilter
  3
ObjectDBX Classes
 90
    32768
280
     0
281
     0
  0
CLASS
  1
SORTENTSTABLE
  2
AcDbSortentsTable
  3
ObjectDBX Classes
 90
        0
280
     0
281
     0
  0
CLASS
  1
LAYER_INDEX
  2
AcDbLayerIndex
  3
ObjectDBX Classes
 90
    32768
280
     0
281
     0
  0
CLASS
  1
SPATIAL_INDEX
  2
AcDbSpatialIndex
  3
ObjectDBX Classes
 90
    32768
280
     0
281
     0
  0
CLASS
  1
OBJECT_PTR
  2
CAseDLPNTableRecord
  3
ASE-LPNTableRecord
 90
    32769
280
     0
281
     0
  0
CLASS
  1
LAYOUT
  2
AcDbLayout
  3
ObjectDBX Classes
 90
        0
280
     0
281
     0
  0
CLASS
  1
PLOTSETTINGS
  2
AcDbPlotSettings
  3
ObjectDBX Classes
 90
    32768
280
     0
281
     0
  0
CLASS
  1
ACDBDICTIONARYWDFLT
  2
AcDbDictionaryWithDefault
  3
ObjectDBX Classes
 90
        0
280
     0
281
     0
  0
CLASS
  1
ACDBPLACEHOLDER
  2
AcDbPlaceHolder
  3
ObjectDBX Classes
 90
        0
280
     0
281
     0
  0
CLASS
  1
TABLESTYLE
  2
AcDbTableStyle
  3
ObjectDBX Classes
 90
     4095
280
     0
281
     0
  0
CLASS
  1
MATERIAL
  2
AcDbMaterial
  3
ObjectDBX Classes
 90
     1024
280
     0
281
     0
  0
CLASS
  1
VISUALSTYLE
  2
AcDbVisualStyle
  3
ObjectDBX Classes
 90
     4095
280
     0
281
     0
  0
ENDSEC
  0
SECTION
  2
TABLES
  0
TABLE
  2
VPORT
  5
7
102
{ACAD_XDICTIONARY
360
73B
102
}
330
0
100
AcDbSymbolTable
 70
     1
  0
VPORT
  5
612
330
7
100
AcDbSymbolTableRecord
100
AcDbViewportTableRecord
  2
*Active
 70
     0
 10
0.0
 20
0.0
 11
1.0
 21
1.0
 12
2.26834170667137
 22
2.778284180455981
 13
0.0
 23
0.0
 14
1.0
 24
1.0
 15
0.0
 25
0.0
 16
0.0
 26
0.0
 36
1.0
 17
0.0
 27
0.0
 37
0.0
 40
8.207580206856059
 41
1.587064676616915
 42
50.0
 43
0.0
 44
0.0
 50
0.0
 51
0.0
 71
     0
 72
   100
 73
     1
 74
     1
 75
     0
 76
     0
 77
     0
 78
     0
281
     0
 65
     1
110
0.0
120
0.0
130
0.0
111
1.0
121
0.0
131
0.0
112
0.0
122
1.0
132
0.0
 79
     0
146
0.0
  0
ENDTAB
  0
TABLE
  2
LTYPE
  5
4
330
0
100
AcDbSymbolTable
 70
     2
  0
LTYPE
  5
11
330
4
100
AcDbSymbolTableRecord
100
AcDbLinetypeTableRecord
  2
BYBLOCK
 70
     0
  3

 72
    65
 73
     0
 40
0.0
  0
LTYPE
  5
12
330
4
100
AcDbSymbolTableRecord
100
AcDbLinetypeTableRecord
  2
BYLAYER
 70
     0
  3

 72
    65
 73
     0
 40
0.0
  0
LTYPE
  5
13
330
4
100
AcDbSymbolTableRecord
100
AcDbLinetypeTableRecord
  2
CONTINUOUS
 70
     0
  3
Solid line
 72
    65
 73
     0
 40
0.0
  0
LTYPE
  5
5D9
330
4
100
AcDbSymbolTableRecord
100
AcDbLinetypeTableRecord
  2
PHANTOM
 70
     0
  3
Phantom ______  __  __  ______  __  __  ______
 72
    65
 73
     6
 40
2.5
 49
1.25
 74
     0
 49
-0.25
 74
     0
 49
0.25
 74
     0
 49
-0.25
 74
     0
 49
0.25
 74
     0
 49
-0.25
 74
     0
  0
ENDTAB
  0
TABLE
  2
LAYER
  5
2
102
{ACAD_XDICTIONARY
360
60A
102
}
330
0
100
AcDbSymbolTable
 70
    12
  0
LAYER
  5
14
330
2
100
AcDbSymbolTableRecord
100
AcDbLayerTableRecord
  2
0
 70
     0
 62
     7
  6
CONTINUOUS
370
    -3
390
C5
  0
LAYER
  5
2E
330
2
100
AcDbSymbolTableRecord
100
AcDbLayerTableRecord
  2
R-SWTS-DET1
 70
     0
 62
     1
  6
CONTINUOUS
370
    -3
390
C5
  0
LAYER
  5
2F
330
2
100
AcDbSymbolTableRecord
100
AcDbLayerTableRecord
  2
R-ANNO-DIMS
 70
     0
 62
     3
  6
CONTINUOUS
370
    -3
390
C5
  0
LAYER
  5
32
330
2
100
AcDbSymbolTableRecord
100
AcDbLayerTableRecord
  2
R-ANNO-TEXT
 70
     0
 62
     6
  6
CONTINUOUS
370
    -3
390
C5
  0
LAYER
  5
33
330
2
100
AcDbSymbolTableRecord
100
AcDbLayerTableRecord
  2
R-SWTS-PAT3
 70
     0
 62
     4
  6
CONTINUOUS
370
    -3
390
C5
  0
LAYER
  5
34
330
2
100
AcDbSymbolTableRecord
100
AcDbLayerTableRecord
  2
R-SWTS-PAT2
 70
     0
 62
     1
  6
CONTINUOUS
370
    -3
390
C5
  0
LAYER
  5
35
330
2
100
AcDbSymbolTableRecord
100
AcDbLayerTableRecord
  2
R-SWTS-PAT1
 70
     0
 62
     5
  6
PHANTOM
370
    -3
390
C5
  0
LAYER
  5
36
330
2
100
AcDbSymbolTableRecord
100
AcDbLayerTableRecord
  2
R-SWTS-DET3
 70
     0
 62
     5
  6
CONTINUOUS
370
    -3
390
C5
  0
LAYER
  5
37
330
2
100
AcDbSymbolTableRecord
100
AcDbLayerTableRecord
  2
R-SWTS-DET2
 70
     0
 62
     4
  6
CONTINUOUS
370
    -3
390
C5
  0
LAYER
  5
D8
330
2
100
AcDbSymbolTableRecord
100
AcDbLayerTableRecord
  2
Defpoints
 70
     0
 62
     7
  6
CONTINUOUS
290
     0
370
    -3
390
C5
  0
LAYER
  5
4C6
330
2
100
AcDbSymbolTableRecord
100
AcDbLayerTableRecord
  2
R-SWTS-OTLN
 70
     0
 62
     2
  6
CONTINUOUS
370
    -3
390
C5
  0
LAYER
  5
C55
330
2
100
AcDbSymbolTableRecord
100
AcDbLayerTableRecord
  2
Part
 70
     0
 62
     7
  6
CONTINUOUS
370
    -3
390
C5
  0
ENDTAB
  0
TABLE
  2
STYLE
  5
3
330
0
100
AcDbSymbolTable
 70
     3
  0
STYLE
  5
17
330
3
100
AcDbSymbolTableRecord
100
AcDbTextStyleTableRecord
  2
STANDARD
 70
     0
 40
0.0
 41
1.0
 50
0.0
 71
     0
 42
0.0
  3
txt
  4

  0
STYLE
  5
506
330
3
100
AcDbSymbolTableRecord
100
AcDbTextStyleTableRecord
  2
SWTSTEXT
 70
     0
 40
0.125
 41
1.0
 50
0.0
 71
     0
 42
0.1
  3
simplex.shx
  4

  0
ENDTAB
  0
TABLE
  2
VIEW
  5
5
330
0
100
AcDbSymbolTable
 70
     0
  0
ENDTAB
  0
TABLE
  2
UCS
  5
6
330
0
100
AcDbSymbolTable
 70
     0
  0
ENDTAB
  0
TABLE
  2
APPID
  5
8
330
0
100
AcDbSymbolTable
 70
     3
  0
APPID
  5
16
330
8
100
AcDbSymbolTableRecord
100
AcDbRegAppTableRecord
  2
ACAD
 70
     0
  0
APPID
  5
257
330
8
100
AcDbSymbolTableRecord
100
AcDbRegAppTableRecord
  2
DCO15
 70
     0
  0
APPID
  5
678
330
8
100
AcDbSymbolTableRecord
100
AcDbRegAppTableRecord
  2
ACAD_PSEXT
 70
     0
  0
ENDTAB
  0
TABLE
  2
DIMSTYLE
  5
9
330
0
100
AcDbSymbolTable
 70
     3
100
AcDbDimStyleTable
 71
     1
340
18
  0
DIMSTYLE
105
18
102
{ACAD_REACTORS
330
68F
330
6AB
330
6B9
330
C68
102
}
330
9
100
AcDbSymbolTableRecord
100
AcDbDimStyleTableRecord
  2
SCADMECH
 70
     0
 41
0.125
 44
0.125
140
0.125
141
0.04
174
     1
277
     5
289
     1
340
506
  0
DIMSTYLE
105
630
330
9
100
AcDbSymbolTableRecord
100
AcDbDimStyleTableRecord
  2
Standard
 70
     0
 40
0.5
 41
0.125
 44
0.125
140
0.125
141
0.0
271
     3
272
     3
340
17
  0
ENDTAB
  0
TABLE
  2
BLOCK_RECORD
  5
1
330
0
100
AcDbSymbolTable
 70
     8
  0
BLOCK_RECORD
  5
A
102
{ACAD_XDICTIONARY
360
77D
102
}
330
1
100
AcDbSymbolTableRecord
100
AcDbBlockTableRecord
  2
*MODEL_SPACE
340
C8
  0
BLOCK_RECORD
  5
B
330
1
100
AcDbSymbolTableRecord
100
AcDbBlockTableRecord
  2
*PAPER_SPACE
340
C9
  0
BLOCK_RECORD
  5
4C7
330
1
100
AcDbSymbolTableRecord
100
AcDbBlockTableRecord
  2
Logo
340
0
  0
BLOCK_RECORD
  5
690
330
1
100
AcDbSymbolTableRecord
100
AcDbBlockTableRecord
  2
*D1
340
0
  0
BLOCK_RECORD
  5
6AC
330
1
100
AcDbSymbolTableRecord
100
AcDbBlockTableRecord
  2
*D2
340
0
  0
BLOCK_RECORD
  5
6BA
330
1
100
AcDbSymbolTableRecord
100
AcDbBlockTableRecord
  2
*D3
340
0
  0
BLOCK_RECORD
  5
890
102
{ACAD_XDICTIONARY
360
BDF
102
}
330
1
100
AcDbSymbolTableRecord
100
AcDbBlockTableRecord
  2
PEMKO_ASSA LOGO
340
0
102
{BLKREFS
331
BE3
102
}
1001
ACAD
1000
DesignCenter Data
1002
{
1070
     1
1070
     1
1002
}
  0
BLOCK_RECORD
  5
C69
330
1
100
AcDbSymbolTableRecord
100
AcDbBlockTableRecord
  2
*D6
340
0
  0
ENDTAB
  0
ENDSEC
  0
SECTION
  2
BLOCKS
  0
BLOCK
  5
D
330
A
100
AcDbEntity
  8
0
100
AcDbBlockBegin
  2
*MODEL_SPACE
 70
     0
 10
0.0
 20
0.0
 30
0.0
  3
*MODEL_SPACE
  1

  0
ENDBLK
  5
E
330
A
100
AcDbEntity
  8
0
100
AcDbBlockEnd
  0
BLOCK
  5
F
330
B
100
AcDbEntity
 67
     1
  8
0
100
AcDbBlockBegin
  2
*PAPER_SPACE
 70
     0
 10
0.0
 20
0.0
 30
0.0
  3
*PAPER_SPACE
  1

  0
ENDBLK
  5
10
330
B
100
AcDbEntity
 67
     1
  8
0
100
AcDbBlockEnd
  0
BLOCK
  5
501
330
4C7
100
AcDbEntity
  8
0
100
AcDbBlockBegin
  2
Logo
 70
     0
 10
0.0
 20
0.0
 30
0.0
  3
Logo
  1

  0
ARC
  5
4C8
102
{ACAD_REACTORS
330
4FE
102
}
330
4C7
100
AcDbEntity
  8
R-SWTS-DET1
  6
Continuous
 62
     6
100
AcDbCircle
 10
0.0941740410091869
 20
0.0124999999999993
 30
0.0
 40
0.005
100
AcDbArc
 50
270.0
 51
7.560843176671826
  0
ARC
  5
4C9
102
{ACAD_REACTORS
330
4FF
102
}
330
4C7
100
AcDbEntity
  8
R-SWTS-DET2
  6
Continuous
 62
     6
100
AcDbCircle
 10
0.0941740410091869
 20
-0.0125000000000002
 30
0.0
 40
0.005
100
AcDbArc
 50
352.4391568233282
 51
90.0
  0
ARC
  5
4CA
102
{ACAD_REACTORS
330
4F9
102
}
330
4C7
100
AcDbEntity
  8
R-ANNO-TEXT
  6
Continuous
 62
     6
100
AcDbCircle
 10
0.0577522682445042
 20
0.0754299377741674
 30
0.0
 40
0.005
100
AcDbArc
 50
314.9999999999991
 51
52.56084317667283
  0
ARC
  5
4CB
102
{ACAD_REACTORS
330
4F9
102
}
330
4C7
100
AcDbEntity
  8
R-ANNO-TEXT
  6
Continuous
 62
     6
100
AcDbCircle
 10
0.0124999999999997
 20
0.0941740410091869
 30
0.0
 40
0.005
100
AcDbArc
 50
82.43915682332817
 51
180.0
  0
ARC
  5
4CC
102
{ACAD_REACTORS
330
4F8
102
}
330
4C7
100
AcDbEntity
  8
R-ANNO-DIMS
  6
Continuous
 62
     6
100
AcDbCircle
 10
-0.0124999999999997
 20
0.0941740410091869
 30
0.0
 40
0.005
100
AcDbArc
 50
0.0
 51
97.56084317667179
  0
ARC
  5
4CD
102
{ACAD_REACTORS
330
4F9
102
}
330
4C7
100
AcDbEntity
  8
R-ANNO-TEXT
  6
Continuous
 62
     6
100
AcDbCircle
 10
0.0
 20
0.0
 30
0.0
 40
0.1
100
AcDbArc
 50
52.56084317667203
 51
82.43915682332799
  0
ARC
  5
4CE
102
{ACAD_REACTORS
330
4F8
102
}
330
4C7
100
AcDbEntity
  8
R-ANNO-DIMS
  6
Continuous
 62
     6
100
AcDbCircle
 10
-0.0577522682445042
 20
0.0754299377741674
 30
0.0
 40
0.005
100
AcDbArc
 50
127.4391568233271
 51
224.9999999999982
  0
ARC
  5
4CF
102
{ACAD_REACTORS
330
4F8
102
}
330
4C7
100
AcDbEntity
  8
R-ANNO-DIMS
  6
Continuous
 62
     6
100
AcDbCircle
 10
0.0
 20
0.0
 30
0.0
 40
0.1
100
AcDbArc
 50
97.56084317667193
 51
127.439156823328
  0
ARC
  5
4D0
102
{ACAD_REACTORS
330
4FE
102
}
330
4C7
100
AcDbEntity
  8
R-SWTS-DET1
  6
Continuous
 62
     6
100
AcDbCircle
 10
0.0754299377741679
 20
0.0577522682445042
 30
0.0
 40
0.005
100
AcDbArc
 50
37.43915682332774
 51
135.0000000000018
  0
LINE
  5
4D1
102
{ACAD_REACTORS
330
4FE
102
}
330
4C7
100
AcDbEntity
  8
R-SWTS-DET1
  6
Continuous
 62
     6
100
AcDbLine
 10
0.0266421356237312
 20
0.0160355339059333
 30
0.0
 11
0.071894403868235
 21
0.0612878021504368
 31
0.0
  0
ARC
  5
4D2
102
{ACAD_REACTORS
330
4FF
102
}
330
4C7
100
AcDbEntity
  8
R-SWTS-DET2
  6
Continuous
 62
     6
100
AcDbCircle
 10
0.0301776695296634
 20
-0.0125000000000002
 30
0.0
 40
0.005
100
AcDbArc
 50
90.0
 51
225.0000000000018
  0
ARC
  5
4D3
102
{ACAD_REACTORS
330
4FE
102
}
330
4C7
100
AcDbEntity
  8
R-SWTS-DET1
  6
Continuous
 62
     6
100
AcDbCircle
 10
0.0301776695296641
 20
0.0125000000000002
 30
0.0
 40
0.005
100
AcDbArc
 50
135.0
 51
270.0
  0
ARC
  5
4D4
102
{ACAD_REACTORS
330
4F9
102
}
330
4C7
100
AcDbEntity
  8
R-ANNO-TEXT
  6
Continuous
 62
     6
100
AcDbCircle
 10
0.0124999999999997
 20
0.0301776695296634
 30
0.0
 40
0.005
100
AcDbArc
 50
180.0
 51
315.0000000000018
  0
ARC
  5
4D5
102
{ACAD_REACTORS
330
4F8
102
}
330
4C7
100
AcDbEntity
  8
R-ANNO-DIMS
  6
Continuous
 62
     6
100
AcDbCircle
 10
-0.0124999999999997
 20
0.030177669529663
 30
0.0
 40
0.005
100
AcDbArc
 50
225.0000000000018
 51
0.0
  0
ARC
  5
4D6
102
{ACAD_REACTORS
330
4E3
102
}
330
4C7
100
AcDbEntity
  8
R-SWTS-DET3
  6
Continuous
 62
     6
100
AcDbCircle
 10
0.0125
 20
-0.0301776695296638
 30
0.0
 40
0.005
100
AcDbArc
 50
45.00000000000089
 51
180.0
  0
ARC
  5
4D7
102
{ACAD_REACTORS
330
4F2
102
}
330
4C7
100
AcDbEntity
  8
R-SWTS-PAT1
  6
Continuous
 62
     6
100
AcDbCircle
 10
-0.0301776695296634
 20
-0.0125000000000002
 30
0.0
 40
0.005
100
AcDbArc
 50
314.9999999999991
 51
90.0
  0
ARC
  5
4D8
102
{ACAD_REACTORS
330
4F1
102
}
330
4C7
100
AcDbEntity
  8
R-SWTS-OTLN
  6
Continuous
 62
     6
100
AcDbCircle
 10
-0.0124999999999997
 20
-0.0301776695296638
 30
0.0
 40
0.005
100
AcDbArc
 50
0.0
 51
134.9999999999973
  0
ARC
  5
4D9
102
{ACAD_REACTORS
330
4F3
102
}
330
4C7
100
AcDbEntity
  8
R-SWTS-PAT2
  6
Continuous
 62
     6
100
AcDbCircle
 10
-0.0301776695296634
 20
0.0124999999999993
 30
0.0
 40
0.005
100
AcDbArc
 50
270.0
 51
44.9999999999991
  0
ARC
  5
4DA
102
{ACAD_REACTORS
330
4FF
102
}
330
4C7
100
AcDbEntity
  8
R-SWTS-DET2
  6
Continuous
 62
     6
100
AcDbCircle
 10
0.0754299377741679
 20
-0.0577522682445046
 30
0.0
 40
0.005
100
AcDbArc
 50
225.0000000000018
 51
322.5608431766723
  0
ARC
  5
4DB
102
{ACAD_REACTORS
330
4E3
102
}
330
4C7
100
AcDbEntity
  8
R-SWTS-DET3
  6
Continuous
 62
     6
100
AcDbCircle
 10
0.0577522682445042
 20
-0.0754299377741683
 30
0.0
 40
0.005
100
AcDbArc
 50
307.4391568233271
 51
44.9999999999982
  0
ARC
  5
4DC
102
{ACAD_REACTORS
330
4E3
102
}
330
4C7
100
AcDbEntity
  8
R-SWTS-DET3
  6
Continuous
 62
     6
100
AcDbCircle
 10
0.0124999999999997
 20
-0.0941740410091869
 30
0.0
 40
0.005
100
AcDbArc
 50
180.0
 51
277.5608431766718
  0
ARC
  5
4DD
102
{ACAD_REACTORS
330
4F1
102
}
330
4C7
100
AcDbEntity
  8
R-SWTS-OTLN
  6
Continuous
 62
     6
100
AcDbCircle
 10
-0.0124999999999997
 20
-0.0941740410091869
 30
0.0
 40
0.005
100
AcDbArc
 50
262.4391568233282
 51
0.0
  0
ARC
  5
4DE
102
{ACAD_REACTORS
330
4E3
102
}
330
4C7
100
AcDbEntity
  8
R-SWTS-DET3
  6
Continuous
 62
     6
100
AcDbCircle
 10
0.0
 20
0.0
 30
0.0
 40
0.1
100
AcDbArc
 50
277.5608431766719
 51
307.439156823328
  0
LINE
  5
4DF
102
{ACAD_REACTORS
330
4FF
102
}
330
4C7
100
AcDbEntity
  8
R-SWTS-DET2
  6
Continuous
 62
     6
100
AcDbLine
 10
0.0266421356237303
 20
-0.0160355339059324
 30
0.0
 11
0.071894403868235
 21
-0.0612878021504373
 31
0.0
  0
LINE
  5
4E0
102
{ACAD_REACTORS
330
4E3
102
}
330
4C7
100
AcDbEntity
  8
R-SWTS-DET3
  6
Continuous
 62
     6
100
AcDbLine
 10
0.0160355339059328
 20
-0.0266421356237308
 30
0.0
 11
0.0612878021504373
 21
-0.0718944038682352
 31
0.0
  0
LINE
  5
4E1
102
{ACAD_REACTORS
330
4E3
102
}
330
4C7
100
AcDbEntity
  8
R-SWTS-DET3
  6
Continuous
 62
     6
100
AcDbLine
 10
0.0074999999999998
 20
-0.0301776695296638
 30
0.0
 11
0.0074999999999998
 21
-0.0941740410091869
 31
0.0
  0
LINE
  5
4E2
102
{ACAD_REACTORS
330
4F1
102
}
330
4C7
100
AcDbEntity
  8
R-SWTS-OTLN
  6
Continuous
 62
     6
100
AcDbLine
 10
-0.0074999999999998
 20
-0.0301776695296638
 30
0.0
 11
-0.0074999999999998
 21
-0.0941740410091869
 31
0.0
  0
HATCH
  5
4E3
330
4C7
100
AcDbEntity
  8
R-SWTS-DET3
  6
Continuous
 62
     6
100
AcDbHatch
 10
0.0
 20
0.0
 30
0.0
210
0.0
220
0.0
230
1.0
  2
SOLID
 70
     1
 71
     1
 91
        1
 92
        7
 72
     1
 73
     1
 93
        6
 10
0.0160355339059329
 20
-0.0266421356237308
 42
0.6681786379193446
 10
0.0074999999999998
 20
-0.0301776695296634
 42
0.0
 10
0.0074999999999998
 20
-0.0941740410091869
 42
0.4534141234453589
 10
0.0131578947368419
 20
-0.0991305694833544
 42
0.1311123756655087
 10
0.0607918613100043
 20
-0.0793999344991243
 42
0.4534141234454098
 10
0.0612878021504371
 20
-0.071894403868235
 42
0.0
 97
        6
330
4D6
330
4E1
330
4DC
330
4DE
330
4DB
330
4E0
 75
     0
 76
     1
 47
0.0008898326864094
 98
        1
 10
0.0452949310457915
 20
-0.066915027358724
  0
ARC
  5
4E4
102
{ACAD_REACTORS
330
4F3
102
}
330
4C7
100
AcDbEntity
  8
R-SWTS-PAT2
  6
Continuous
 62
     6
100
AcDbCircle
 10
-0.0754299377741679
 20
0.0577522682445038
 30
0.0
 40
0.005
100
AcDbArc
 50
45.00000000000089
 51
142.5608431766718
  0
ARC
  5
4E5
102
{ACAD_REACTORS
330
4F2
102
}
330
4C7
100
AcDbEntity
  8
R-SWTS-PAT1
  6
Continuous
 62
     6
100
AcDbCircle
 10
-0.0941740410091869
 20
-0.0125000000000002
 30
0.0
 40
0.005
100
AcDbArc
 50
90.0
 51
187.5608431766716
  0
ARC
  5
4E6
102
{ACAD_REACTORS
330
4F3
102
}
330
4C7
100
AcDbEntity
  8
R-SWTS-PAT2
  6
Continuous
 62
     6
100
AcDbCircle
 10
-0.0941740410091869
 20
0.0124999999999993
 30
0.0
 40
0.005
100
AcDbArc
 50
172.4391568233283
 51
270.0
  0
ARC
  5
4E7
102
{ACAD_REACTORS
330
4F3
102
}
330
4C7
100
AcDbEntity
  8
R-SWTS-PAT2
  6
Continuous
 62
     6
100
AcDbCircle
 10
0.0
 20
0.0
 30
0.0
 40
0.1
100
AcDbArc
 50
142.560843176672
 51
172.439156823328
  0
ARC
  5
4E8
102
{ACAD_REACTORS
330
4F1
102
}
330
4C7
100
AcDbEntity
  8
R-SWTS-OTLN
  6
Continuous
 62
     6
100
AcDbCircle
 10
-0.0577522682445042
 20
-0.0754299377741683
 30
0.0
 40
0.005
100
AcDbArc
 50
135.0000000000018
 51
232.5608431766728
  0
ARC
  5
4E9
102
{ACAD_REACTORS
330
4F2
102
}
330
4C7
100
AcDbEntity
  8
R-SWTS-PAT1
  6
Continuous
 62
     6
100
AcDbCircle
 10
-0.0754299377741679
 20
-0.0577522682445046
 30
0.0
 40
0.005
100
AcDbArc
 50
217.4391568233282
 51
314.9999999999991
  0
ARC
  5
4EA
102
{ACAD_REACTORS
330
4F2
102
}
330
4C7
100
AcDbEntity
  8
R-SWTS-PAT1
  6
Continuous
 62
     6
100
AcDbCircle
 10
0.0
 20
0.0
 30
0.0
 40
0.1
100
AcDbArc
 50
187.5608431766719
 51
217.4391568233279
  0
ARC
  5
4EB
102
{ACAD_REACTORS
330
4F1
102
}
330
4C7
100
AcDbEntity
  8
R-SWTS-OTLN
  6
Continuous
 62
     6
100
AcDbCircle
 10
0.0
 20
0.0
 30
0.0
 40
0.1
100
AcDbArc
 50
232.560843176672
 51
262.4391568233281
  0
LINE
  5
4EC
102
{ACAD_REACTORS
330
4F1
102
}
330
4C7
100
AcDbEntity
  8
R-SWTS-OTLN
  6
Continuous
 62
     6
100
AcDbLine
 10
-0.0160355339059324
 20
-0.0266421356237308
 30
0.0
 11
-0.0612878021504373
 21
-0.0718944038682352
 31
0.0
  0
LINE
  5
4ED
102
{ACAD_REACTORS
330
4F2
102
}
330
4C7
100
AcDbEntity
  8
R-SWTS-PAT1
  6
Continuous
 62
     6
100
AcDbLine
 10
-0.0266421356237308
 20
-0.0160355339059333
 30
0.0
 11
-0.0718944038682352
 21
-0.0612878021504368
 31
0.0
  0
LINE
  5
4EE
102
{ACAD_REACTORS
330
4F2
102
}
330
4C7
100
AcDbEntity
  8
R-SWTS-PAT1
  6
Continuous
 62
     6
100
AcDbLine
 10
-0.0301776695296634
 20
-0.0075000000000003
 30
0.0
 11
-0.0941740410091869
 21
-0.0075000000000003
 31
0.0
  0
LINE
  5
4EF
102
{ACAD_REACTORS
330
4F3
102
}
330
4C7
100
AcDbEntity
  8
R-SWTS-PAT2
  6
Continuous
 62
     6
100
AcDbLine
 10
-0.0266421356237308
 20
0.0160355339059324
 30
0.0
 11
-0.0718944038682352
 21
0.0612878021504368
 31
0.0
  0
LINE
  5
4F0
102
{ACAD_REACTORS
330
4F3
102
}
330
4C7
100
AcDbEntity
  8
R-SWTS-PAT2
  6
Continuous
 62
     6
100
AcDbLine
 10
-0.0301776695296634
 20
0.0074999999999994
 30
0.0
 11
-0.0941740410091869
 21
0.0074999999999994
 31
0.0
  0
HATCH
  5
4F1
330
4C7
100
AcDbEntity
  8
R-SWTS-OTLN
  6
Continuous
 62
     6
100
AcDbHatch
 10
0.0
 20
0.0
 30
0.0
210
0.0
220
0.0
230
1.0
  2
SOLID
 70
     1
 71
     1
 91
        1
 92
        7
 72
     1
 73
     1
 93
        6
 10
-0.0612878021504372
 20
-0.0718944038682352
 42
0.4534141234453476
 10
-0.0607918613100047
 20
-0.0793999344991239
 42
0.1311123756655101
 10
-0.0131578947368419
 20
-0.0991305694833546
 42
0.4534141234453685
 10
-0.0074999999999998
 20
-0.0941740410091869
 42
0.0
 10
-0.0074999999999998
 20
-0.0301776695296638
 42
0.6681786379193112
 10
-0.0160355339059326
 20
-0.026642135623731
 42
0.0
 97
        6
330
4D8
330
4EC
330
4E8
330
4EB
330
4DD
330
4E2
 75
     0
 76
     1
 47
0.0008898326864094
 98
        1
 10
-0.0232853322002938
 20
-0.0491183732070368
  0
HATCH
  5
4F2
330
4C7
100
AcDbEntity
  8
R-SWTS-PAT1
  6
Continuous
 62
     6
100
AcDbHatch
 10
0.0
 20
0.0
 30
0.0
210
0.0
220
0.0
230
1.0
  2
SOLID
 70
     1
 71
     1
 91
        1
 92
        7
 72
     1
 73
     1
 93
        6
 10
-0.0941740410091869
 20
-0.0075000000000003
 42
0.453414123445365
 10
-0.0991305694833545
 20
-0.0131578947368423
 42
0.1311123756655095
 10
-0.0793999344991238
 20
-0.0607918613100047
 42
0.4534141234453342
 10
-0.0718944038682353
 20
-0.0612878021504368
 42
0.0
 10
-0.0266421356237305
 20
-0.0160355339059331
 42
0.6681786379193052
 10
-0.0301776695296632
 20
-0.0075000000000003
 42
0.0
 97
        6
330
4EE
330
4E5
330
4EA
330
4E9
330
4ED
330
4D7
 75
     0
 76
     1
 47
0.0008898326864094
 98
        1
 10
-0.0606927519483949
 20
-0.0161945603424947
  0
HATCH
  5
4F3
330
4C7
100
AcDbEntity
  8
R-SWTS-PAT2
  6
Continuous
 62
     6
100
AcDbHatch
 10
0.0
 20
0.0
 30
0.0
210
0.0
220
0.0
230
1.0
  2
SOLID
 70
     1
 71
     1
 91
        1
 92
        7
 72
     1
 73
     1
 93
        6
 10
-0.0991305694833546
 20
0.0131578947368414
 42
0.4534141234453686
 10
-0.094174041009187
 20
0.0074999999999994
 42
0.0
 10
-0.0301776695296634
 20
0.0074999999999994
 42
0.6681786379193361
 10
-0.0266421356237305
 20
0.0160355339059322
 42
0.0
 10
-0.071894403868235
 20
0.0612878021504366
 42
0.4534141234454016
 10
-0.0793999344991243
 20
0.0607918613100043
 42
0.13111237566551
 97
        6
330
4E4
330
4E7
330
4E6
330
4F0
330
4D9
330
4EF
 75
     0
 76
     1
 47
0.0008898326864094
 98
        1
 10
-0.0865216783395087
 20
0.0300767364260093
  0
LINE
  5
4F4
102
{ACAD_REACTORS
330
4F9
102
}
330
4C7
100
AcDbEntity
  8
R-ANNO-TEXT
  6
Continuous
 62
     6
100
AcDbLine
 10
0.0160355339059328
 20
0.0266421356237308
 30
0.0
 11
0.0612878021504373
 21
0.0718944038682348
 31
0.0
  0
LINE
  5
4F5
102
{ACAD_REACTORS
330
4F9
102
}
330
4C7
100
AcDbEntity
  8
R-ANNO-TEXT
  6
Continuous
 62
     6
100
AcDbLine
 10
0.0074999999999998
 20
0.0301776695296634
 30
0.0
 11
0.0074999999999998
 21
0.0941740410091869
 31
0.0
  0
LINE
  5
4F6
102
{ACAD_REACTORS
330
4F8
102
}
330
4C7
100
AcDbEntity
  8
R-ANNO-DIMS
  6
Continuous
 62
     6
100
AcDbLine
 10
-0.0074999999999998
 20
0.030177669529663
 30
0.0
 11
-0.0074999999999998
 21
0.0941740410091869
 31
0.0
  0
LINE
  5
4F7
102
{ACAD_REACTORS
330
4F8
102
}
330
4C7
100
AcDbEntity
  8
R-ANNO-DIMS
  6
Continuous
 62
     6
100
AcDbLine
 10
-0.0160355339059324
 20
0.0266421356237303
 30
0.0
 11
-0.0612878021504373
 21
0.0718944038682348
 31
0.0
  0
HATCH
  5
4F8
330
4C7
100
AcDbEntity
  8
R-ANNO-DIMS
  6
Continuous
 62
     6
100
AcDbHatch
 10
0.0
 20
0.0
 30
0.0
210
0.0
220
0.0
230
1.0
  2
SOLID
 70
     1
 71
     1
 91
        1
 92
        7
 72
     1
 73
     1
 93
        6
 10
-0.0074999999999998
 20
0.0941740410091869
 42
0.4534141234453656
 10
-0.0131578947368419
 20
0.0991305694833545
 42
0.1311123756655101
 10
-0.0607918613100047
 20
0.0793999344991241
 42
0.4534141234453891
 10
-0.0612878021504375
 20
0.071894403868235
 42
0.0
 10
-0.0160355339059324
 20
0.0266421356237303
 42
0.6681786379192679
 10
-0.0074999999999998
 20
0.0301776695296632
 42
0.0
 97
        6
330
4CC
330
4CF
330
4CE
330
4F7
330
4D5
330
4F6
 75
     0
 76
     1
 47
0.0008898326864094
 98
        1
 10
-0.0286292493071659
 20
0.0718988763663955
  0
HATCH
  5
4F9
330
4C7
100
AcDbEntity
  8
R-ANNO-TEXT
  6
Continuous
 62
     6
100
AcDbHatch
 10
0.0
 20
0.0
 30
0.0
210
0.0
220
0.0
230
1.0
  2
SOLID
 70
     1
 71
     1
 91
        1
 92
        7
 72
     1
 73
     1
 93
        6
 10
0.061287802150437
 20
0.0718944038682345
 42
0.4534141234454016
 10
0.0607918613100048
 20
0.0793999344991239
 42
0.1311123756655107
 10
0.0131578947368418
 20
0.0991305694833545
 42
0.453414123445365
 10
0.0074999999999998
 20
0.0941740410091868
 42
0.0
 10
0.0074999999999998
 20
0.0301776695296634
 42
0.6681786379193165
 10
0.0160355339059327
 20
0.0266421356237305
 42
0.0
 97
        6
330
4CA
330
4CD
330
4CB
330
4F5
330
4D4
330
4F4
 75
     0
 76
     1
 47
0.0008898326864094
 98
        1
 10
0.0328257911297578
 20
0.0701192082673048
  0
ARC
  5
4FA
102
{ACAD_REACTORS
330
4FE
102
}
330
4C7
100
AcDbEntity
  8
R-SWTS-DET1
  6
Continuous
 62
     6
100
AcDbCircle
 10
0.0
 20
0.0
 30
0.0
 40
0.1
100
AcDbArc
 50
7.560843176671929
 51
37.43915682332803
  0
LINE
  5
4FB
102
{ACAD_REACTORS
330
4FE
102
}
330
4C7
100
AcDbEntity
  8
R-SWTS-DET1
  6
Continuous
 62
     6
100
AcDbLine
 10
0.0301776695296641
 20
0.0074999999999994
 30
0.0
 11
0.0941740410091869
 21
0.0074999999999994
 31
0.0
  0
ARC
  5
4FC
102
{ACAD_REACTORS
330
4FF
102
}
330
4C7
100
AcDbEntity
  8
R-SWTS-DET2
  6
Continuous
 62
     6
100
AcDbCircle
 10
0.0
 20
0.0
 30
0.0
 40
0.1
100
AcDbArc
 50
322.5608431766719
 51
352.439156823328
  0
LINE
  5
4FD
102
{ACAD_REACTORS
330
4FF
102
}
330
4C7
100
AcDbEntity
  8
R-SWTS-DET2
  6
Continuous
 62
     6
100
AcDbLine
 10
0.0301776695296634
 20
-0.0075000000000003
 30
0.0
 11
0.0941740410091869
 21
-0.0075000000000003
 31
0.0
  0
HATCH
  5
4FE
330
4C7
100
AcDbEntity
  8
R-SWTS-DET1
  6
Continuous
 62
     6
100
AcDbHatch
 10
0.0
 20
0.0
 30
0.0
210
0.0
220
0.0
230
1.0
  2
SOLID
 70
     1
 71
     1
 91
        1
 92
        7
 72
     1
 73
     1
 93
        6
 10
0.0793999344991241
 20
0.0607918613100045
 42
0.4534141234453706
 10
0.0718944038682352
 20
0.0612878021504371
 42
0.0
 10
0.0266421356237311
 20
0.0160355339059331
 42
0.6681786379194726
 10
0.0301776695296636
 20
0.0074999999999994
 42
0.0
 10
0.094174041009187
 20
0.0074999999999994
 42
0.4534141234453691
 10
0.0991305694833546
 20
0.0131578947368414
 42
0.1311123756655111
 97
        6
330
4D0
330
4D1
330
4D3
330
4FB
330
4C8
330
4FA
 75
     0
 76
     1
 47
0.0008898326864094
 98
        1
 10
0.0827023382096958
 20
0.0318564045251
  0
HATCH
  5
4FF
330
4C7
100
AcDbEntity
  8
R-SWTS-DET2
  6
Continuous
 62
     6
100
AcDbHatch
 10
0.0
 20
0.0
 30
0.0
210
0.0
220
0.0
230
1.0
  2
SOLID
 70
     1
 71
     1
 91
        1
 92
        7
 72
     1
 73
     1
 93
        6
 10
0.0991305694833546
 20
-0.0131578947368423
 42
0.4534141234453724
 10
0.0941740410091869
 20
-0.0075000000000003
 42
0.0
 10
0.0301776695296634
 20
-0.0075000000000003
 42
0.6681786379192715
 10
0.0266421356237308
 20
-0.0160355339059328
 42
0.0
 10
0.0718944038682351
 20
-0.0612878021504375
 42
0.4534141234453565
 10
0.0793999344991239
 20
-0.0607918613100047
 42
0.1311123756655093
 97
        6
330
4C9
330
4FD
330
4D2
330
4DF
330
4DA
330
4FC
 75
     0
 76
     1
 47
0.0008898326864094
 98
        1
 10
0.0889369144598111
 20
-0.0250928874183378
  0
MTEXT
  5
500
330
4C7
100
AcDbEntity
  8
R-SWTS-PAT3
  6
Continuous
 62
     6
100
AcDbMText
 10
0.1939806497453276
 20
0.0
 30
0.0
 40
0.15
 41
0.9182999999999999
 71
     4
 72
     5
  1
{\fArial|b1|i0|c0|p34;PEMKO}
  7
SWTSTEXT
 73
     1
 44
1.0
1001
ACAD
1000
MTEXTBEGIN
1070
    73
1070
     1
1070
    44
1040
1.0
1070
    74
1070
     0
1000
MTEXTEND
  0
ENDBLK
  5
502
330
4C7
100
AcDbEntity
  8
0
100
AcDbBlockEnd
  0
BLOCK
  5
69B
330
690
100
AcDbEntity
  8
0
100
AcDbBlockBegin
  2
*D1
 70
     1
 10
0.0
 20
0.0
 30
0.0
  3
*D1
  1

  0
LINE
  5
C5E
330
690
100
AcDbEntity
  8
R-ANNO-DIMS
  6
Continuous
 62
     0
370
    -2
100
AcDbLine
 10
-0.4697267149219773
 20
2.448328968740399
 30
0.0
 11
-0.4697267149219774
 21
1.795143255357766
 31
0.0
  0
LINE
  5
C5F
330
690
100
AcDbEntity
  8
R-ANNO-DIMS
  6
Continuous
 62
     0
370
    -2
100
AcDbLine
 10
5.15527328507802
 20
2.511979515281991
 30
0.0
 11
5.15527328507802
 21
1.795143255357766
 31
0.0
  0
LINE
  5
C60
330
690
100
AcDbEntity
  8
R-ANNO-DIMS
  6
Continuous
 62
     0
370
    -2
100
AcDbLine
 10
-0.3447267149219773
 20
1.920143255357766
 30
0.0
 11
2.151582808887545
 21
1.920143255357766
 31
0.0
  0
LINE
  5
C61
330
690
100
AcDbEntity
  8
R-ANNO-DIMS
  6
Continuous
 62
     0
370
    -2
100
AcDbLine
 10
5.03027328507802
 20
1.920143255357766
 30
0.0
 11
2.533963761268497
 21
1.920143255357766
 31
0.0
  0
SOLID
  5
C62
330
690
100
AcDbEntity
  8
R-ANNO-DIMS
  6
Continuous
 62
     0
100
AcDbTrace
 10
-0.3447267149219773
 20
1.940976588691099
 30
0.0
 11
-0.3447267149219773
 21
1.899309922024433
 31
0.0
 12
-0.4697267149219774
 22
1.920143255357766
 32
0.0
 13
-0.4697267149219774
 23
1.920143255357766
 33
0.0
  0
SOLID
  5
C63
330
690
100
AcDbEntity
  8
R-ANNO-DIMS
  6
Continuous
 62
     0
100
AcDbTrace
 10
5.03027328507802
 20
1.940976588691099
 30
0.0
 11
5.03027328507802
 21
1.899309922024433
 31
0.0
 12
5.15527328507802
 22
1.920143255357766
 32
0.0
 13
5.15527328507802
 23
1.920143255357766
 33
0.0
  0
MTEXT
  5
C64
330
690
100
AcDbEntity
  8
R-ANNO-DIMS
  6
Continuous
 62
     0
100
AcDbMText
 10
2.342773285078021
 20
1.920143255357766
 30
0.0
 40
0.125
 41
0.0
 71
     5
 72
     1
  1
\A1;5{\H1.000000x;\S5/8;}
  7
SWTSTEXT
 73
     1
 44
1.0
1001
ACAD
1000
MTEXTBEGIN
1070
    73
1070
     1
1070
    44
1040
1.0
1070
    74
1070
     0
1000
MTEXTEND
  0
POINT
  5
C65
330
690
100
AcDbEntity
  8
Defpoints
  6
Continuous
 62
     0
100
AcDbPoint
 10
-0.4697267149219773
 20
2.510828968740399
 30
0.0
  0
POINT
  5
C66
330
690
100
AcDbEntity
  8
Defpoints
  6
Continuous
 62
     0
100
AcDbPoint
 10
5.15527328507802
 20
2.574479515281991
 30
0.0
  0
POINT
  5
C67
330
690
100
AcDbEntity
  8
Defpoints
  6
Continuous
 62
     0
100
AcDbPoint
 10
5.15527328507802
 20
1.920143255357766
 30
0.0
  0
ENDBLK
  5
69C
330
690
100
AcDbEntity
  8
0
100
AcDbBlockEnd
  0
BLOCK
  5
6B7
330
6AC
100
AcDbEntity
  8
0
100
AcDbBlockBegin
  2
*D2
 70
     1
 10
0.0
 20
0.0
 30
0.0
  3
*D2
  1

  0
LINE
  5
7B5
330
6AC
100
AcDbEntity
  8
R-ANNO-DIMS
  6
Continuous
 62
     0
370
    -2
100
AcDbLine
 10
-0.5222267149219757
 20
2.500828968740398
 30
0.0
 11
-1.342256326572346
 21
2.500828968740398
 31
0.0
  0
LINE
  5
7B6
330
6AC
100
AcDbEntity
  8
R-ANNO-DIMS
  6
Continuous
 62
     0
370
    -2
100
AcDbLine
 10
-0.3286664786377198
 20
3.750828968740401
 30
0.0
 11
-1.342256326572346
 21
3.750828968740402
 31
0.0
  0
LINE
  5
7B7
330
6AC
100
AcDbEntity
  8
R-ANNO-DIMS
  6
Continuous
 62
     0
370
    -2
100
AcDbLine
 10
-1.217256326572346
 20
2.625828968740398
 30
0.0
 11
-1.217256326572346
 21
2.873949350625756
 31
0.0
  0
LINE
  5
7B8
330
6AC
100
AcDbEntity
  8
R-ANNO-DIMS
  6
Continuous
 62
     0
370
    -2
100
AcDbLine
 10
-1.217256326572346
 20
3.625828968740402
 30
0.0
 11
-1.217256326572346
 21
3.345616017292423
 31
0.0
  0
SOLID
  5
7B9
330
6AC
100
AcDbEntity
  8
R-ANNO-DIMS
  6
Continuous
 62
     0
100
AcDbTrace
 10
-1.238089659905679
 20
2.625828968740398
 30
0.0
 11
-1.196422993239013
 21
2.625828968740398
 31
0.0
 12
-1.217256326572346
 22
2.500828968740398
 32
0.0
 13
-1.217256326572346
 23
2.500828968740398
 33
0.0
  0
SOLID
  5
7BA
330
6AC
100
AcDbEntity
  8
R-ANNO-DIMS
  6
Continuous
 62
     0
100
AcDbTrace
 10
-1.238089659905679
 20
3.625828968740402
 30
0.0
 11
-1.196422993239012
 21
3.625828968740402
 31
0.0
 12
-1.217256326572346
 22
3.750828968740402
 32
0.0
 13
-1.217256326572346
 23
3.750828968740402
 33
0.0
  0
MTEXT
  5
7BB
330
6AC
100
AcDbEntity
  8
R-ANNO-DIMS
  6
Continuous
 62
     0
100
AcDbMText
 10
-1.217256326572346
 20
3.109782683959089
 30
0.0
 40
0.125
 41
0.0
 71
     5
 72
     1
  1
\A1;1{\H1.000000x;\S1/4;}
  7
SWTSTEXT
 73
     1
 44
1.0
1001
ACAD
1000
MTEXTBEGIN
1070
    73
1070
     1
1070
    44
1040
1.0
1070
    74
1070
     0
1000
MTEXTEND
  0
POINT
  5
7BC
330
6AC
100
AcDbEntity
  8
Defpoints
  6
Continuous
 62
     0
100
AcDbPoint
 10
-0.4597267149219757
 20
2.500828968740398
 30
0.0
  0
POINT
  5
7BD
330
6AC
100
AcDbEntity
  8
Defpoints
  6
Continuous
 62
     0
100
AcDbPoint
 10
-0.2661664786377198
 20
3.750828968740401
 30
0.0
  0
POINT
  5
7BE
330
6AC
100
AcDbEntity
  8
Defpoints
  6
Continuous
 62
     0
100
AcDbPoint
 10
-1.217256326572346
 20
3.750828968740402
 30
0.0
  0
ENDBLK
  5
6B8
330
6AC
100
AcDbEntity
  8
0
100
AcDbBlockEnd
  0
BLOCK
  5
6C5
330
6BA
100
AcDbEntity
  8
0
100
AcDbBlockBegin
  2
*D3
 70
     1
 10
0.0
 20
0.0
 30
0.0
  3
*D3
  1

  0
LINE
  5
6DB
330
6BA
100
AcDbEntity
  8
R-ANNO-DIMS
  6
Continuous
 62
     0
370
    -2
100
AcDbLine
 10
-0.4697267149219915
 20
3.625626903998638
 30
0.0
 11
-0.4697267149219914
 21
4.198061591810963
 31
0.0
  0
LINE
  5
6DC
330
6BA
100
AcDbEntity
  8
R-ANNO-DIMS
  6
Continuous
 62
     0
370
    -2
100
AcDbLine
 10
0.9033551136813061
 20
3.756260123873812
 30
0.0
 11
0.9033551136813061
 21
4.198061591810963
 31
0.0
  0
LINE
  5
6DD
330
6BA
100
AcDbEntity
  8
R-ANNO-DIMS
  6
Continuous
 62
     0
370
    -2
100
AcDbLine
 10
-0.3447267149219914
 20
4.073061591810963
 30
0.0
 11
0.0375284850939431
 21
4.073061591810963
 31
0.0
  0
LINE
  5
6DE
330
6BA
100
AcDbEntity
  8
R-ANNO-DIMS
  6
Continuous
 62
     0
370
    -2
100
AcDbLine
 10
0.7783551136813062
 20
4.073061591810963
 30
0.0
 11
0.3960999136653717
 21
4.073061591810963
 31
0.0
  0
SOLID
  5
6DF
330
6BA
100
AcDbEntity
  8
R-ANNO-DIMS
  6
Continuous
 62
     0
100
AcDbTrace
 10
-0.3447267149219914
 20
4.093894925144296
 30
0.0
 11
-0.3447267149219914
 21
4.05222825847763
 31
0.0
 12
-0.4697267149219914
 22
4.073061591810963
 32
0.0
 13
-0.4697267149219914
 23
4.073061591810963
 33
0.0
  0
SOLID
  5
6E0
330
6BA
100
AcDbEntity
  8
R-ANNO-DIMS
  6
Continuous
 62
     0
100
AcDbTrace
 10
0.7783551136813062
 20
4.093894925144296
 30
0.0
 11
0.7783551136813062
 21
4.05222825847763
 31
0.0
 12
0.9033551136813061
 22
4.073061591810963
 32
0.0
 13
0.9033551136813061
 23
4.073061591810963
 33
0.0
  0
MTEXT
  5
6E1
330
6BA
100
AcDbEntity
  8
R-ANNO-DIMS
  6
Continuous
 62
     0
100
AcDbMText
 10
0.2168141993796574
 20
4.073061591810963
 30
0.0
 40
0.125
 41
0.0
 71
     5
 72
     1
  1
\A1;1{\H1.000000x;\S3/8;}
  7
SWTSTEXT
 73
     1
 44
1.0
1001
ACAD
1000
MTEXTBEGIN
1070
    73
1070
     1
1070
    44
1040
1.0
1070
    74
1070
     0
1000
MTEXTEND
  0
POINT
  5
6E2
330
6BA
100
AcDbEntity
  8
Defpoints
  6
Continuous
 62
     0
100
AcDbPoint
 10
-0.4697267149219915
 20
3.563126903998638
 30
0.0
  0
POINT
  5
6E3
330
6BA
100
AcDbEntity
  8
Defpoints
  6
Continuous
 62
     0
100
AcDbPoint
 10
0.9033551136813061
 20
3.693760123873812
 30
0.0
  0
POINT
  5
6E4
330
6BA
100
AcDbEntity
  8
Defpoints
  6
Continuous
 62
     0
100
AcDbPoint
 10
0.9033551136813061
 20
4.073061591810963
 30
0.0
  0
ENDBLK
  5
6C6
330
6BA
100
AcDbEntity
  8
0
100
AcDbBlockEnd
  0
BLOCK
  5
BE1
330
890
100
AcDbEntity
  8
0
100
AcDbBlockBegin
  2
PEMKO_ASSA LOGO
 70
     0
 10
0.0
 20
0.0
 30
0.0
  3
PEMKO_ASSA LOGO
  1

  0
LWPOLYLINE
  5
891
330
890
100
AcDbEntity
  8
0
370
    20
100
AcDbPolyline
 90
        8
 70
     1
 43
0.0
 10
10.07409187715059
 20
0.7449467398020106
 10
10.05447710729207
 20
0.6935397565189305
 10
10.01358231799451
 20
0.6935397565189305
 10
10.10361533805189
 20
0.9113007718636083
 10
10.13702684486522
 20
0.9113007718636083
 10
10.22240182553753
 20
0.6935397565189306
 10
10.18454330560515
 20
0.6935397565189306
 10
10.16548672349025
 20
0.7449467398020104
  0
LWPOLYLINE
  5
892
330
890
100
AcDbEntity
  8
0
370
    20
100
AcDbPolyline
 90
        3
 70
     1
 43
0.0
 10
10.15720835826138
 20
0.7672784349803833
 10
10.12044890336575
 20
0.8664406389853382
 10
10.0826127245822
 20
0.7672784349803835
  0
POLYLINE
  5
893
330
890
100
AcDbEntity
  8
0
370
    20
100
AcDb2dPolyline
 66
     1
 10
0.0
 20
0.0
 30
0.0
 70
     4
 75
     6
  0
VERTEX
  5
894
330
893
100
AcDbEntity
  8
0
370
    20
100
AcDbVertex
100
AcDb2dVertex
 10
10.34327236758816
 20
0.853667274448604
 30
0.0
 70
    16
  0
VERTEX
  5
895
330
893
100
AcDbEntity
  8
0
370
    20
100
AcDbVertex
100
AcDb2dVertex
 10
10.34327236758816
 20
0.853667274448604
 30
0.0
 70
     8
  0
VERTEX
  5
896
330
893
100
AcDbEntity
  8
0
370
    20
100
AcDbVertex
100
AcDb2dVertex
 10
10.35625643468891
 20
0.8541196630049189
 30
0.0
 70
     8
  0
VERTEX
  5
897
330
893
100
AcDbEntity
  8
0
370
    20
100
AcDbVertex
100
AcDb2dVertex
 10
10.36575685796363
 20
0.8553843696502992
 30
0.0
 70
     8
  0
VERTEX
  5
898
330
893
100
AcDbEntity
  8
0
370
    20
100
AcDbVertex
100
AcDb2dVertex
 10
10.37226014119281
 20
0.8573227058493987
 30
0.0
 70
     8
  0
VERTEX
  5
899
330
893
100
AcDbEntity
  8
0
370
    20
100
AcDbVertex
100
AcDb2dVertex
 10
10.37625278815689
 20
0.8597959830668706
 30
0.0
 70
     8
  0
VERTEX
  5
89A
330
893
100
AcDbEntity
  8
0
370
    20
100
AcDbVertex
100
AcDb2dVertex
 10
10.37822130263633
 20
0.8626655127673682
 30
0.0
 70
     8
  0
VERTEX
  5
89B
330
893
100
AcDbEntity
  8
0
370
    20
100
AcDbVertex
100
AcDb2dVertex
 10
10.37865218841161
 20
0.8657926064155455
 30
0.0
 70
     8
  0
VERTEX
  5
89C
330
893
100
AcDbEntity
  8
0
370
    20
100
AcDbVertex
100
AcDb2dVertex
 10
10.37803194926318
 20
0.8690385754760553
 30
0.0
 70
     8
  0
VERTEX
  5
89D
330
893
100
AcDbEntity
  8
0
370
    20
100
AcDbVertex
100
AcDb2dVertex
 10
10.3768470889715
 20
0.8722647314135514
 30
0.0
 70
     8
  0
VERTEX
  5
89E
330
893
100
AcDbEntity
  8
0
370
    20
100
AcDbVertex
100
AcDb2dVertex
 10
10.3755005383818
 20
0.8753566968814897
 30
0.0
 70
     8
  0
VERTEX
  5
89F
330
893
100
AcDbEntity
  8
0
370
    20
100
AcDbVertex
100
AcDb2dVertex
 10
10.37406093659843
 20
0.8782973392885356
 30
0.0
 70
     8
  0
VERTEX
  5
8A0
330
893
100
AcDbEntity
  8
0
370
    20
100
AcDbVertex
100
AcDb2dVertex
 10
10.37251334979048
 20
0.8810938372321572
 30
0.0
 70
     8
  0
VERTEX
  5
8A1
330
893
100
AcDbEntity
  8
0
370
    20
100
AcDbVertex
100
AcDb2dVertex
 10
10.37084284412706
 20
0.8837533693098226
 30
0.0
 70
     8
  0
VERTEX
  5
8A2
330
893
100
AcDbEntity
  8
0
370
    20
100
AcDbVertex
100
AcDb2dVertex
 10
10.36903448577727
 20
0.8862831141189996
 30
0.0
 70
     8
  0
VERTEX
  5
8A3
330
893
100
AcDbEntity
  8
0
370
    20
100
AcDbVertex
100
AcDb2dVertex
 10
10.36707334091023
 20
0.8886902502571562
 30
0.0
 70
     8
  0
VERTEX
  5
8A4
330
893
100
AcDbEntity
  8
0
370
    20
100
AcDbVertex
100
AcDb2dVertex
 10
10.36494447569504
 20
0.8909819563217604
 30
0.0
 70
     8
  0
VERTEX
  5
8A5
330
893
100
AcDbEntity
  8
0
370
    20
100
AcDbVertex
100
AcDb2dVertex
 10
10.3626329563008
 20
0.8931654109102803
 30
0.0
 70
     8
  0
VERTEX
  5
8A6
330
893
100
AcDbEntity
  8
0
370
    20
100
AcDbVertex
100
AcDb2dVertex
 10
10.3601312201426
 20
0.895246979041185
 30
0.0
 70
     8
  0
VERTEX
  5
8A7
330
893
100
AcDbEntity
  8
0
370
    20
100
AcDbVertex
100
AcDb2dVertex
 10
10.35746118961947
 20
0.8972297714169487
 30
0.0
 70
     8
  0
VERTEX
  5
8A8
330
893
100
AcDbEntity
  8
0
370
    20
100
AcDbVertex
100
AcDb2dVertex
 10
10.35465215837644
 20
0.8991160851610462
 30
0.0
 70
     8
  0
VERTEX
  5
8A9
330
893
100
AcDbEntity
  8
0
370
    20
100
AcDbVertex
100
AcDb2dVertex
 10
10.3517334200585
 20
0.9009082173969531
 30
0.0
 70
     8
  0
VERTEX
  5
8AA
330
893
100
AcDbEntity
  8
0
370
    20
100
AcDbVertex
100
AcDb2dVertex
 10
10.34873426831069
 20
0.9026084652481443
 30
0.0
 70
     8
  0
VERTEX
  5
8AB
330
893
100
AcDbEntity
  8
0
370
    20
100
AcDbVertex
100
AcDb2dVertex
 10
10.34568399677801
 20
0.9042191258380954
 30
0.0
 70
     8
  0
VERTEX
  5
8AC
330
893
100
AcDbEntity
  8
0
370
    20
100
AcDbVertex
100
AcDb2dVertex
 10
10.34261189910548
 20
0.9057424962902814
 30
0.0
 70
     8
  0
VERTEX
  5
8AD
330
893
100
AcDbEntity
  8
0
370
    20
100
AcDbVertex
100
AcDb2dVertex
 10
10.3395472689381
 20
0.9071808737281775
 30
0.0
 70
     8
  0
VERTEX
  5
8AE
330
893
100
AcDbEntity
  8
0
370
    20
100
AcDbVertex
100
AcDb2dVertex
 10
10.33651365603864
 20
0.908535119567313
 30
0.0
 70
     8
  0
VERTEX
  5
8AF
330
893
100
AcDbEntity
  8
0
370
    20
100
AcDbVertex
100
AcDb2dVertex
 10
10.33351163464077
 20
0.9098003523914339
 30
0.0
 70
     8
  0
VERTEX
  5
8B0
330
893
100
AcDbEntity
  8
0
370
    20
100
AcDbVertex
100
AcDb2dVertex
 10
10.33053603509591
 20
0.9109702550763399
 30
0.0
 70
     8
  0
VERTEX
  5
8B1
330
893
100
AcDbEntity
  8
0
370
    20
100
AcDbVertex
100
AcDb2dVertex
 10
10.32758168775546
 20
0.9120385104978316
 30
0.0
 70
     8
  0
VERTEX
  5
8B2
330
893
100
AcDbEntity
  8
0
370
    20
100
AcDbVertex
100
AcDb2dVertex
 10
10.32464342297085
 20
0.9129988015317083
 30
0.0
 70
     8
  0
VERTEX
  5
8B3
330
893
100
AcDbEntity
  8
0
370
    20
100
AcDbVertex
100
AcDb2dVertex
 10
10.32171607109348
 20
0.9138448110537705
 30
0.0
 70
     8
  0
VERTEX
  5
8B4
330
893
100
AcDbEntity
  8
0
370
    20
100
AcDbVertex
100
AcDb2dVertex
 10
10.31879446247477
 20
0.9145702219398181
 30
0.0
 70
     8
  0
VERTEX
  5
8B5
330
893
100
AcDbEntity
  8
0
370
    20
100
AcDbVertex
100
AcDb2dVertex
 10
10.31587342746614
 20
0.9151687170656508
 30
0.0
 70
     8
  0
VERTEX
  5
8B6
330
893
100
AcDbEntity
  8
0
370
    20
100
AcDbVertex
100
AcDb2dVertex
 10
10.31294521175738
 20
0.9156363721382483
 30
0.0
 70
     8
  0
VERTEX
  5
8B7
330
893
100
AcDbEntity
  8
0
370
    20
100
AcDbVertex
100
AcDb2dVertex
 10
10.30999172239184
 20
0.9159788341893078
 30
0.0
 70
     8
  0
VERTEX
  5
8B8
330
893
100
AcDbEntity
  8
0
370
    20
100
AcDbVertex
100
AcDb2dVertex
 10
10.30699228175126
 20
0.916204143081706
 30
0.0
 70
     8
  0
VERTEX
  5
8B9
330
893
100
AcDbEntity
  8
0
370
    20
100
AcDbVertex
100
AcDb2dVertex
 10
10.30392621221738
 20
0.9163203386783195
 30
0.0
 70
     8
  0
VERTEX
  5
8BA
330
893
100
AcDbEntity
  8
0
370
    20
100
AcDbVertex
100
AcDb2dVertex
 10
10.30077283617192
 20
0.9163354608420251
 30
0.0
 70
     8
  0
VERTEX
  5
8BB
330
893
100
AcDbEntity
  8
0
370
    20
100
AcDbVertex
100
AcDb2dVertex
 10
10.29751147599663
 20
0.9162575494356991
 30
0.0
 70
     8
  0
VERTEX
  5
8BC
330
893
100
AcDbEntity
  8
0
370
    20
100
AcDbVertex
100
AcDb2dVertex
 10
10.29412145407324
 20
0.9160946443222188
 30
0.0
 70
     8
  0
VERTEX
  5
8BD
330
893
100
AcDbEntity
  8
0
370
    20
100
AcDbVertex
100
AcDb2dVertex
 10
10.29058209278349
 20
0.9158547853644604
 30
0.0
 70
     8
  0
VERTEX
  5
8BE
330
893
100
AcDbEntity
  8
0
370
    20
100
AcDbVertex
100
AcDb2dVertex
 10
10.28688429786176
 20
0.9155425667862788
 30
0.0
 70
     8
  0
VERTEX
  5
8BF
330
893
100
AcDbEntity
  8
0
370
    20
100
AcDbVertex
100
AcDb2dVertex
 10
10.28306530845308
 20
0.9151488002554419
 30
0.0
 70
     8
  0
VERTEX
  5
8C0
330
893
100
AcDbEntity
  8
0
370
    20
100
AcDbVertex
100
AcDb2dVertex
 10
10.27917394705511
 20
0.9146608518006955
 30
0.0
 70
     8
  0
VERTEX
  5
8C1
330
893
100
AcDbEntity
  8
0
370
    20
100
AcDbVertex
100
AcDb2dVertex
 10
10.27525903616552
 20
0.9140660874507855
 30
0.0
 70
     8
  0
VERTEX
  5
8C2
330
893
100
AcDbEntity
  8
0
370
    20
100
AcDbVertex
100
AcDb2dVertex
 10
10.271369398282
 20
0.9133518732344578
 30
0.0
 70
     8
  0
VERTEX
  5
8C3
330
893
100
AcDbEntity
  8
0
370
    20
100
AcDbVertex
100
AcDb2dVertex
 10
10.2675538559022
 20
0.912505575180458
 30
0.0
 70
     8
  0
VERTEX
  5
8C4
330
893
100
AcDbEntity
  8
0
370
    20
100
AcDbVertex
100
AcDb2dVertex
 10
10.2638612315238
 20
0.9115145593175327
 30
0.0
 70
     8
  0
VERTEX
  5
8C5
330
893
100
AcDbEntity
  8
0
370
    20
100
AcDbVertex
100
AcDb2dVertex
 10
10.26034034764447
 20
0.9103661916744272
 30
0.0
 70
     8
  0
VERTEX
  5
8C6
330
893
100
AcDbEntity
  8
0
370
    20
100
AcDbVertex
100
AcDb2dVertex
 10
10.2570280604738
 20
0.9090500396379198
 30
0.0
 70
     8
  0
VERTEX
  5
8C7
330
893
100
AcDbEntity
  8
0
370
    20
100
AcDbVertex
100
AcDb2dVertex
 10
10.25391336106906
 20
0.9075644760269174
 30
0.0
 70
     8
  0
VERTEX
  5
8C8
330
893
100
AcDbEntity
  8
0
370
    20
100
AcDbVertex
100
AcDb2dVertex
 10
10.25097327419941
 20
0.905910075018359
 30
0.0
 70
     8
  0
VERTEX
  5
8C9
330
893
100
AcDbEntity
  8
0
370
    20
100
AcDbVertex
100
AcDb2dVertex
 10
10.24818482463404
 20
0.9040874107891839
 30
0.0
 70
     8
  0
VERTEX
  5
8CA
330
893
100
AcDbEntity
  8
0
370
    20
100
AcDbVertex
100
AcDb2dVertex
 10
10.24552503714214
 20
0.902097057516331
 30
0.0
 70
     8
  0
VERTEX
  5
8CB
330
893
100
AcDbEntity
  8
0
370
    20
100
AcDbVertex
100
AcDb2dVertex
 10
10.24297093649287
 20
0.8999395893767395
 30
0.0
 70
     8
  0
VERTEX
  5
8CC
330
893
100
AcDbEntity
  8
0
370
    20
100
AcDbVertex
100
AcDb2dVertex
 10
10.24049954745542
 20
0.8976155805473487
 30
0.0
 70
     8
  0
VERTEX
  5
8CD
330
893
100
AcDbEntity
  8
0
370
    20
100
AcDbVertex
100
AcDb2dVertex
 10
10.23808789479897
 20
0.8951256052050974
 30
0.0
 70
     8
  0
VERTEX
  5
8CE
330
893
100
AcDbEntity
  8
0
370
    20
100
AcDbVertex
100
AcDb2dVertex
 10
10.23572190621937
 20
0.892471864661827
 30
0.0
 70
     8
  0
VERTEX
  5
8CF
330
893
100
AcDbEntity
  8
0
370
    20
100
AcDbVertex
100
AcDb2dVertex
 10
10.23342312111924
 20
0.8896630687689871
 30
0.0
 70
     8
  0
VERTEX
  5
8D0
330
893
100
AcDbEntity
  8
0
370
    20
100
AcDbVertex
100
AcDb2dVertex
 10
10.23122198182786
 20
0.8867095545129297
 30
0.0
 70
     8
  0
VERTEX
  5
8D1
330
893
100
AcDbEntity
  8
0
370
    20
100
AcDbVertex
100
AcDb2dVertex
 10
10.22914893067449
 20
0.8836216588800064
 30
0.0
 70
     8
  0
VERTEX
  5
8D2
330
893
100
AcDbEntity
  8
0
370
    20
100
AcDbVertex
100
AcDb2dVertex
 10
10.22723440998844
 20
0.8804097188565695
 30
0.0
 70
     8
  0
VERTEX
  5
8D3
330
893
100
AcDbEntity
  8
0
370
    20
100
AcDbVertex
100
AcDb2dVertex
 10
10.22550886209898
 20
0.8770840714289702
 30
0.0
 70
     8
  0
VERTEX
  5
8D4
330
893
100
AcDbEntity
  8
0
370
    20
100
AcDbVertex
100
AcDb2dVertex
 10
10.22400272933539
 20
0.8736550535835609
 30
0.0
 70
     8
  0
VERTEX
  5
8D5
330
893
100
AcDbEntity
  8
0
370
    20
100
AcDbVertex
100
AcDb2dVertex
 10
10.22274645402696
 20
0.8701330023066931
 30
0.0
 70
     8
  0
VERTEX
  5
8D6
330
893
100
AcDbEntity
  8
0
370
    20
100
AcDbVertex
100
AcDb2dVertex
 10
10.22176234139291
 20
0.8665312217083151
 30
0.0
 70
     8
  0
VERTEX
  5
8D7
330
893
100
AcDbEntity
  8
0
370
    20
100
AcDbVertex
100
AcDb2dVertex
 10
10.22104014821223
 20
0.8628748843927581
 30
0.0
 70
     8
  0
VERTEX
  5
8D8
330
893
100
AcDbEntity
  8
0
370
    20
100
AcDbVertex
100
AcDb2dVertex
 10
10.22056149415385
 20
0.8591921300879501
 30
0.0
 70
     8
  0
VERTEX
  5
8D9
330
893
100
AcDbEntity
  8
0
370
    20
100
AcDbVertex
100
AcDb2dVertex
 10
10.22030799888671
 20
0.8555110985218188
 30
0.0
 70
     8
  0
VERTEX
  5
8DA
330
893
100
AcDbEntity
  8
0
370
    20
100
AcDbVertex
100
AcDb2dVertex
 10
10.22026128207973
 20
0.8518599294222921
 30
0.0
 70
     8
  0
VERTEX
  5
8DB
330
893
100
AcDbEntity
  8
0
370
    20
100
AcDbVertex
100
AcDb2dVertex
 10
10.22040296340185
 20
0.8482667625172975
 30
0.0
 70
     8
  0
VERTEX
  5
8DC
330
893
100
AcDbEntity
  8
0
370
    20
100
AcDbVertex
100
AcDb2dVertex
 10
10.220714662522
 20
0.844759737534763
 30
0.0
 70
     8
  0
VERTEX
  5
8DD
330
893
100
AcDbEntity
  8
0
370
    20
100
AcDbVertex
100
AcDb2dVertex
 10
10.22117799910911
 20
0.841366994202616
 30
0.0
 70
     8
  0
VERTEX
  5
8DE
330
893
100
AcDbEntity
  8
0
370
    20
100
AcDbVertex
100
AcDb2dVertex
 10
10.22178234704741
 20
0.8381102594515235
 30
0.0
 70
     8
  0
VERTEX
  5
8DF
330
893
100
AcDbEntity
  8
0
370
    20
100
AcDbVertex
100
AcDb2dVertex
 10
10.22254809708236
 20
0.8349856090231082
 30
0.0
 70
     8
  0
VERTEX
  5
8E0
330
893
100
AcDbEntity
  8
0
370
    20
100
AcDbVertex
100
AcDb2dVertex
 10
10.22350339417468
 20
0.8319827058617315
 30
0.0
 70
     8
  0
VERTEX
  5
8E1
330
893
100
AcDbEntity
  8
0
370
    20
100
AcDbVertex
100
AcDb2dVertex
 10
10.22467638328514
 20
0.8290912129117554
 30
0.0
 70
     8
  0
VERTEX
  5
8E2
330
893
100
AcDbEntity
  8
0
370
    20
100
AcDbVertex
100
AcDb2dVertex
 10
10.22609520937448
 20
0.8263007931175412
 30
0.0
 70
     8
  0
VERTEX
  5
8E3
330
893
100
AcDbEntity
  8
0
370
    20
100
AcDbVertex
100
AcDb2dVertex
 10
10.22778801740344
 20
0.8236011094234507
 30
0.0
 70
     8
  0
VERTEX
  5
8E4
330
893
100
AcDbEntity
  8
0
370
    20
100
AcDbVertex
100
AcDb2dVertex
 10
10.22978295233278
 20
0.8209818247738457
 30
0.0
 70
     8
  0
VERTEX
  5
8E5
330
893
100
AcDbEntity
  8
0
370
    20
100
AcDbVertex
100
AcDb2dVertex
 10
10.23210815912323
 20
0.8184326021130878
 30
0.0
 70
     8
  0
VERTEX
  5
8E6
330
893
100
AcDbEntity
  8
0
370
    20
100
AcDbVertex
100
AcDb2dVertex
 10
10.23478297546478
 20
0.8159451143628055
 30
0.0
 70
     8
  0
VERTEX
  5
8E7
330
893
100
AcDbEntity
  8
0
370
    20
100
AcDbVertex
100
AcDb2dVertex
 10
10.23779150996427
 20
0.813519074353695
 30
0.0
 70
     8
  0
VERTEX
  5
8E8
330
893
100
AcDbEntity
  8
0
370
    20
100
AcDbVertex
100
AcDb2dVertex
 10
10.24110906395777
 20
0.8111562048937198
 30
0.0
 70
     8
  0
VERTEX
  5
8E9
330
893
100
AcDbEntity
  8
0
370
    20
100
AcDbVertex
100
AcDb2dVertex
 10
10.24471093878138
 20
0.8088582287908426
 30
0.0
 70
     8
  0
VERTEX
  5
8EA
330
893
100
AcDbEntity
  8
0
370
    20
100
AcDbVertex
100
AcDb2dVertex
 10
10.24857243577116
 20
0.806626868853027
 30
0.0
 70
     8
  0
VERTEX
  5
8EB
330
893
100
AcDbEntity
  8
0
370
    20
100
AcDbVertex
100
AcDb2dVertex
 10
10.2526688562632
 20
0.8044638478882358
 30
0.0
 70
     8
  0
VERTEX
  5
8EC
330
893
100
AcDbEntity
  8
0
370
    20
100
AcDbVertex
100
AcDb2dVertex
 10
10.25697550159356
 20
0.8023708887044326
 30
0.0
 70
     8
  0
VERTEX
  5
8ED
330
893
100
AcDbEntity
  8
0
370
    20
100
AcDbVertex
100
AcDb2dVertex
 10
10.26146767309833
 20
0.8003497141095804
 30
0.0
 70
     8
  0
VERTEX
  5
8EE
330
893
100
AcDbEntity
  8
0
370
    20
100
AcDbVertex
100
AcDb2dVertex
 10
10.2661212465235
 20
0.7984001326651752
 30
0.0
 70
     8
  0
VERTEX
  5
8EF
330
893
100
AcDbEntity
  8
0
370
    20
100
AcDbVertex
100
AcDb2dVertex
 10
10.27091439525474
 20
0.7965142959468441
 30
0.0
 70
     8
  0
VERTEX
  5
8F0
330
893
100
AcDbEntity
  8
0
370
    20
100
AcDbVertex
100
AcDb2dVertex
 10
10.27582586708763
 20
0.7946824412837476
 30
0.0
 70
     8
  0
VERTEX
  5
8F1
330
893
100
AcDbEntity
  8
0
370
    20
100
AcDbVertex
100
AcDb2dVertex
 10
10.28083440981774
 20
0.7928948060050455
 30
0.0
 70
     8
  0
VERTEX
  5
8F2
330
893
100
AcDbEntity
  8
0
370
    20
100
AcDbVertex
100
AcDb2dVertex
 10
10.28591877124067
 20
0.7911416274398984
 30
0.0
 70
     8
  0
VERTEX
  5
8F3
330
893
100
AcDbEntity
  8
0
370
    20
100
AcDbVertex
100
AcDb2dVertex
 10
10.29105769915198
 20
0.7894131429174661
 30
0.0
 70
     8
  0
VERTEX
  5
8F4
330
893
100
AcDbEntity
  8
0
370
    20
100
AcDbVertex
100
AcDb2dVertex
 10
10.29622994134727
 20
0.7876995897669091
 30
0.0
 70
     8
  0
VERTEX
  5
8F5
330
893
100
AcDbEntity
  8
0
370
    20
100
AcDbVertex
100
AcDb2dVertex
 10
10.30141424562211
 20
0.7859912053173872
 30
0.0
 70
     8
  0
VERTEX
  5
8F6
330
893
100
AcDbEntity
  8
0
370
    20
100
AcDbVertex
100
AcDb2dVertex
 10
10.30658380736432
 20
0.7842788968750862
 30
0.0
 70
     8
  0
VERTEX
  5
8F7
330
893
100
AcDbEntity
  8
0
370
    20
100
AcDbVertex
100
AcDb2dVertex
 10
10.31168961233058
 20
0.7825562516542926
 30
0.0
 70
     8
  0
VERTEX
  5
8F8
330
893
100
AcDbEntity
  8
0
370
    20
100
AcDbVertex
100
AcDb2dVertex
 10
10.31667709386984
 20
0.7808175268463185
 30
0.0
 70
     8
  0
VERTEX
  5
8F9
330
893
100
AcDbEntity
  8
0
370
    20
100
AcDbVertex
100
AcDb2dVertex
 10
10.32149168533102
 20
0.7790569796424762
 30
0.0
 70
     8
  0
VERTEX
  5
8FA
330
893
100
AcDbEntity
  8
0
370
    20
100
AcDbVertex
100
AcDb2dVertex
 10
10.32607882006305
 20
0.7772688672340773
 30
0.0
 70
     8
  0
VERTEX
  5
8FB
330
893
100
AcDbEntity
  8
0
370
    20
100
AcDbVertex
100
AcDb2dVertex
 10
10.33038393141486
 20
0.7754474468124344
 30
0.0
 70
     8
  0
VERTEX
  5
8FC
330
893
100
AcDbEntity
  8
0
370
    20
100
AcDbVertex
100
AcDb2dVertex
 10
10.33435245273538
 20
0.773586975568859
 30
0.0
 70
     8
  0
VERTEX
  5
8FD
330
893
100
AcDbEntity
  8
0
370
    20
100
AcDbVertex
100
AcDb2dVertex
 10
10.33792981737353
 20
0.7716817106946638
 30
0.0
 70
     8
  0
VERTEX
  5
8FE
330
893
100
AcDbEntity
  8
0
370
    20
100
AcDbVertex
100
AcDb2dVertex
 10
10.34107572260599
 20
0.7697283022123398
 30
0.0
 70
     8
  0
VERTEX
  5
8FF
330
893
100
AcDbEntity
  8
0
370
    20
100
AcDbVertex
100
AcDb2dVertex
 10
10.34380692142045
 20
0.7677329714690964
 30
0.0
 70
     8
  0
VERTEX
  5
900
330
893
100
AcDbEntity
  8
0
370
    20
100
AcDbVertex
100
AcDb2dVertex
 10
10.34615443073236
 20
0.7657043326433223
 30
0.0
 70
     8
  0
VERTEX
  5
901
330
893
100
AcDbEntity
  8
0
370
    20
100
AcDbVertex
100
AcDb2dVertex
 10
10.34814926745713
 20
0.7636509999134064
 30
0.0
 70
     8
  0
VERTEX
  5
902
330
893
100
AcDbEntity
  8
0
370
    20
100
AcDbVertex
100
AcDb2dVertex
 10
10.34982244851022
 20
0.7615815874577371
 30
0.0
 70
     8
  0
VERTEX
  5
903
330
893
100
AcDbEntity
  8
0
370
    20
100
AcDbVertex
100
AcDb2dVertex
 10
10.35120499080705
 20
0.7595047094547031
 30
0.0
 70
     8
  0
VERTEX
  5
904
330
893
100
AcDbEntity
  8
0
370
    20
100
AcDbVertex
100
AcDb2dVertex
 10
10.35232791126307
 20
0.7574289800826933
 30
0.0
 70
     8
  0
VERTEX
  5
905
330
893
100
AcDbEntity
  8
0
370
    20
100
AcDbVertex
100
AcDb2dVertex
 10
10.35322222679371
 20
0.7553630135200962
 30
0.0
 70
     8
  0
VERTEX
  5
906
330
893
100
AcDbEntity
  8
0
370
    20
100
AcDbVertex
100
AcDb2dVertex
 10
10.35391311470846
 20
0.753313509675738
 30
0.0
 70
     8
  0
VERTEX
  5
907
330
893
100
AcDbEntity
  8
0
370
    20
100
AcDbVertex
100
AcDb2dVertex
 10
10.35440239389296
 20
0.751279511380194
 30
0.0
 70
     8
  0
VERTEX
  5
908
330
893
100
AcDbEntity
  8
0
370
    20
100
AcDbVertex
100
AcDb2dVertex
 10
10.35468604362693
 20
0.7492581471944772
 30
0.0
 70
     8
  0
VERTEX
  5
909
330
893
100
AcDbEntity
  8
0
370
    20
100
AcDbVertex
100
AcDb2dVertex
 10
10.35476004319006
 20
0.7472465456796002
 30
0.0
 70
     8
  0
VERTEX
  5
90A
330
893
100
AcDbEntity
  8
0
370
    20
100
AcDbVertex
100
AcDb2dVertex
 10
10.35462037186206
 20
0.7452418353965756
 30
0.0
 70
     8
  0
VERTEX
  5
90B
330
893
100
AcDbEntity
  8
0
370
    20
100
AcDbVertex
100
AcDb2dVertex
 10
10.35426300892263
 20
0.7432411449064166
 30
0.0
 70
     8
  0
VERTEX
  5
90C
330
893
100
AcDbEntity
  8
0
370
    20
100
AcDbVertex
100
AcDb2dVertex
 10
10.35368393365146
 20
0.7412416027701357
 30
0.0
 70
     8
  0
VERTEX
  5
90D
330
893
100
AcDbEntity
  8
0
370
    20
100
AcDbVertex
100
AcDb2dVertex
 10
10.35287912532828
 20
0.7392403375487456
 30
0.0
 70
     8
  0
VERTEX
  5
90E
330
893
100
AcDbEntity
  8
0
370
    20
100
AcDbVertex
100
AcDb2dVertex
 10
10.35184638211841
 20
0.7372373492191512
 30
0.0
 70
     8
  0
VERTEX
  5
90F
330
893
100
AcDbEntity
  8
0
370
    20
100
AcDbVertex
100
AcDb2dVertex
 10
10.35059077772988
 20
0.7352441234218233
 30
0.0
 70
     8
  0
VERTEX
  5
910
330
893
100
AcDbEntity
  8
0
370
    20
100
AcDbVertex
100
AcDb2dVertex
 10
10.34911920475631
 20
0.7332750172131256
 30
0.0
 70
     8
  0
VERTEX
  5
911
330
893
100
AcDbEntity
  8
0
370
    20
100
AcDbVertex
100
AcDb2dVertex
 10
10.34743855579136
 20
0.731344387649421
 30
0.0
 70
     8
  0
VERTEX
  5
912
330
893
100
AcDbEntity
  8
0
370
    20
100
AcDbVertex
100
AcDb2dVertex
 10
10.34555572342868
 20
0.7294665917870727
 30
0.0
 70
     8
  0
VERTEX
  5
913
330
893
100
AcDbEntity
  8
0
370
    20
100
AcDbVertex
100
AcDb2dVertex
 10
10.34347760026191
 20
0.7276559866824436
 30
0.0
 70
     8
  0
VERTEX
  5
914
330
893
100
AcDbEntity
  8
0
370
    20
100
AcDbVertex
100
AcDb2dVertex
 10
10.3412110788847
 20
0.725926929391897
 30
0.0
 70
     8
  0
VERTEX
  5
915
330
893
100
AcDbEntity
  8
0
370
    20
100
AcDbVertex
100
AcDb2dVertex
 10
10.33876305189071
 20
0.724293776971796
 30
0.0
 70
     8
  0
VERTEX
  5
916
330
893
100
AcDbEntity
  8
0
370
    20
100
AcDbVertex
100
AcDb2dVertex
 10
10.33614366670946
 20
0.7227691636128019
 30
0.0
 70
     8
  0
VERTEX
  5
917
330
893
100
AcDbEntity
  8
0
370
    20
100
AcDbVertex
100
AcDb2dVertex
 10
10.33337609011406
 20
0.7213588320427684
 30
0.0
 70
     8
  0
VERTEX
  5
918
330
893
100
AcDbEntity
  8
0
370
    20
100
AcDbVertex
100
AcDb2dVertex
 10
10.33048674371349
 20
0.7200668021238474
 30
0.0
 70
     8
  0
VERTEX
  5
919
330
893
100
AcDbEntity
  8
0
370
    20
100
AcDbVertex
100
AcDb2dVertex
 10
10.32750204911673
 20
0.7188970937181906
 30
0.0
 70
     8
  0
VERTEX
  5
91A
330
893
100
AcDbEntity
  8
0
370
    20
100
AcDbVertex
100
AcDb2dVertex
 10
10.32444842793276
 20
0.7178537266879501
 30
0.0
 70
     8
  0
VERTEX
  5
91B
330
893
100
AcDbEntity
  8
0
370
    20
100
AcDbVertex
100
AcDb2dVertex
 10
10.32135230177058
 20
0.7169407208952774
 30
0.0
 70
     8
  0
VERTEX
  5
91C
330
893
100
AcDbEntity
  8
0
370
    20
100
AcDbVertex
100
AcDb2dVertex
 10
10.31824009223917
 20
0.7161620962023249
 30
0.0
 70
     8
  0
VERTEX
  5
91D
330
893
100
AcDbEntity
  8
0
370
    20
100
AcDbVertex
100
AcDb2dVertex
 10
10.31513822094751
 20
0.7155218724712439
 30
0.0
 70
     8
  0
VERTEX
  5
91E
330
893
100
AcDbEntity
  8
0
370
    20
100
AcDbVertex
100
AcDb2dVertex
 10
10.31206707850548
 20
0.7150228253062925
 30
0.0
 70
     8
  0
VERTEX
  5
91F
330
893
100
AcDbEntity
  8
0
370
    20
100
AcDbVertex
100
AcDb2dVertex
 10
10.30902293152653
 20
0.7146627532801518
 30
0.0
 70
     8
  0
VERTEX
  5
920
330
893
100
AcDbEntity
  8
0
370
    20
100
AcDbVertex
100
AcDb2dVertex
 10
10.30599601562499
 20
0.7144382107076094
 30
0.0
 70
     8
  0
VERTEX
  5
921
330
893
100
AcDbEntity
  8
0
370
    20
100
AcDbVertex
100
AcDb2dVertex
 10
10.30297656641522
 20
0.7143457519034522
 30
0.0
 70
     8
  0
VERTEX
  5
922
330
893
100
AcDbEntity
  8
0
370
    20
100
AcDbVertex
100
AcDb2dVertex
 10
10.29995481951155
 20
0.7143819311824675
 30
0.0
 70
     8
  0
VERTEX
  5
923
330
893
100
AcDbEntity
  8
0
370
    20
100
AcDbVertex
100
AcDb2dVertex
 10
10.29692101052833
 20
0.7145433028594427
 30
0.0
 70
     8
  0
VERTEX
  5
924
330
893
100
AcDbEntity
  8
0
370
    20
100
AcDbVertex
100
AcDb2dVertex
 10
10.2938653750799
 20
0.7148264212491648
 30
0.0
 70
     8
  0
VERTEX
  5
925
330
893
100
AcDbEntity
  8
0
370
    20
100
AcDbVertex
100
AcDb2dVertex
 10
10.29077814878059
 20
0.7152278406664211
 30
0.0
 70
     8
  0
VERTEX
  5
926
330
893
100
AcDbEntity
  8
0
370
    20
100
AcDbVertex
100
AcDb2dVertex
 10
10.28765550252017
 20
0.7157453597185364
 30
0.0
 70
     8
  0
VERTEX
  5
927
330
893
100
AcDbEntity
  8
0
370
    20
100
AcDbVertex
100
AcDb2dVertex
 10
10.28451734829008
 20
0.7163817541829843
 30
0.0
 70
     8
  0
VERTEX
  5
928
330
893
100
AcDbEntity
  8
0
370
    20
100
AcDbVertex
100
AcDb2dVertex
 10
10.28138953335716
 20
0.7171410441297761
 30
0.0
 70
     8
  0
VERTEX
  5
929
330
893
100
AcDbEntity
  8
0
370
    20
100
AcDbVertex
100
AcDb2dVertex
 10
10.27829790498826
 20
0.7180272496289232
 30
0.0
 70
     8
  0
VERTEX
  5
92A
330
893
100
AcDbEntity
  8
0
370
    20
100
AcDbVertex
100
AcDb2dVertex
 10
10.27526831045023
 20
0.7190443907504368
 30
0.0
 70
     8
  0
VERTEX
  5
92B
330
893
100
AcDbEntity
  8
0
370
    20
100
AcDbVertex
100
AcDb2dVertex
 10
10.27232659700993
 20
0.7201964875643282
 30
0.0
 70
     8
  0
VERTEX
  5
92C
330
893
100
AcDbEntity
  8
0
370
    20
100
AcDbVertex
100
AcDb2dVertex
 10
10.26949861193421
 20
0.7214875601406085
 30
0.0
 70
     8
  0
VERTEX
  5
92D
330
893
100
AcDbEntity
  8
0
370
    20
100
AcDbVertex
100
AcDb2dVertex
 10
10.26681020248991
 20
0.7229216285492891
 30
0.0
 70
     8
  0
VERTEX
  5
92E
330
893
100
AcDbEntity
  8
0
370
    20
100
AcDbVertex
100
AcDb2dVertex
 10
10.26428290806608
 20
0.7244972571748062
 30
0.0
 70
     8
  0
VERTEX
  5
92F
330
893
100
AcDbEntity
  8
0
370
    20
100
AcDbVertex
100
AcDb2dVertex
 10
10.26192103654053
 20
0.7261911876592948
 30
0.0
 70
     8
  0
VERTEX
  5
930
330
893
100
AcDbEntity
  8
0
370
    20
100
AcDbVertex
100
AcDb2dVertex
 10
10.25972458791325
 20
0.7279747059593156
 30
0.0
 70
     8
  0
VERTEX
  5
931
330
893
100
AcDbEntity
  8
0
370
    20
100
AcDbVertex
100
AcDb2dVertex
 10
10.25769356218425
 20
0.7298190980314287
 30
0.0
 70
     8
  0
VERTEX
  5
932
330
893
100
AcDbEntity
  8
0
370
    20
100
AcDbVertex
100
AcDb2dVertex
 10
10.25582795935352
 20
0.7316956498321942
 30
0.0
 70
     8
  0
VERTEX
  5
933
330
893
100
AcDbEntity
  8
0
370
    20
100
AcDbVertex
100
AcDb2dVertex
 10
10.25412777942108
 20
0.7335756473181726
 30
0.0
 70
     8
  0
VERTEX
  5
934
330
893
100
AcDbEntity
  8
0
370
    20
100
AcDbVertex
100
AcDb2dVertex
 10
10.25259302238691
 20
0.7354303764459242
 30
0.0
 70
     8
  0
VERTEX
  5
935
330
893
100
AcDbEntity
  8
0
370
    20
100
AcDbVertex
100
AcDb2dVertex
 10
10.25122368825101
 20
0.737231123172009
 30
0.0
 70
     8
  0
VERTEX
  5
936
330
893
100
AcDbEntity
  8
0
370
    20
100
AcDbVertex
100
AcDb2dVertex
 10
10.25001795812774
 20
0.738954629127015
 30
0.0
 70
     8
  0
VERTEX
  5
937
330
893
100
AcDbEntity
  8
0
370
    20
100
AcDbVertex
100
AcDb2dVertex
 10
10.24896673758879
 20
0.7405994586376391
 30
0.0
 70
     8
  0
VERTEX
  5
938
330
893
100
AcDbEntity
  8
0
370
    20
100
AcDbVertex
100
AcDb2dVertex
 10
10.24805911332023
 20
0.7421696317046066
 30
0.0
 70
     8
  0
VERTEX
  5
939
330
893
100
AcDbEntity
  8
0
370
    20
100
AcDbVertex
100
AcDb2dVertex
 10
10.24728417200811
 20
0.743669168328642
 30
0.0
 70
     8
  0
VERTEX
  5
93A
330
893
100
AcDbEntity
  8
0
370
    20
100
AcDbVertex
100
AcDb2dVertex
 10
10.24663100033848
 20
0.7451020885104702
 30
0.0
 70
     8
  0
VERTEX
  5
93B
330
893
100
AcDbEntity
  8
0
370
    20
100
AcDbVertex
100
AcDb2dVertex
 10
10.24608868499739
 20
0.7464724122508156
 30
0.0
 70
     8
  0
VERTEX
  5
93C
330
893
100
AcDbEntity
  8
0
370
    20
100
AcDbVertex
100
AcDb2dVertex
 10
10.2456463126709
 20
0.7477841595504035
 30
0.0
 70
     8
  0
VERTEX
  5
93D
330
893
100
AcDbEntity
  8
0
370
    20
100
AcDbVertex
100
AcDb2dVertex
 10
10.24529297004507
 20
0.7490413504099584
 30
0.0
 70
     8
  0
VERTEX
  5
93E
330
893
100
AcDbEntity
  8
0
370
    20
100
AcDbVertex
100
AcDb2dVertex
 10
10.24500462868446
 20
0.7502457077067298
 30
0.0
 70
     8
  0
VERTEX
  5
93F
330
893
100
AcDbEntity
  8
0
370
    20
100
AcDbVertex
100
AcDb2dVertex
 10
10.24470479966778
 20
0.7513897658240669
 30
0.0
 70
     8
  0
VERTEX
  5
940
330
893
100
AcDbEntity
  8
0
370
    20
100
AcDbVertex
100
AcDb2dVertex
 10
10.24430387895223
 20
0.7524637620218431
 30
0.0
 70
     8
  0
VERTEX
  5
941
330
893
100
AcDbEntity
  8
0
370
    20
100
AcDbVertex
100
AcDb2dVertex
 10
10.24371226249503
 20
0.7534579335599325
 30
0.0
 70
     8
  0
VERTEX
  5
942
330
893
100
AcDbEntity
  8
0
370
    20
100
AcDbVertex
100
AcDb2dVertex
 10
10.24284034625338
 20
0.7543625176982083
 30
0.0
 70
     8
  0
VERTEX
  5
943
330
893
100
AcDbEntity
  8
0
370
    20
100
AcDbVertex
100
AcDb2dVertex
 10
10.24159852618451
 20
0.7551677516965447
 30
0.0
 70
     8
  0
VERTEX
  5
944
330
893
100
AcDbEntity
  8
0
370
    20
100
AcDbVertex
100
AcDb2dVertex
 10
10.23989719824563
 20
0.7558638728148153
 30
0.0
 70
     8
  0
VERTEX
  5
945
330
893
100
AcDbEntity
  8
0
370
    20
100
AcDbVertex
100
AcDb2dVertex
 10
10.23764675839395
 20
0.7564411183128938
 30
0.0
 70
     8
  0
VERTEX
  5
946
330
893
100
AcDbEntity
  8
0
370
    20
100
AcDbVertex
100
AcDb2dVertex
 10
10.23479734990522
 20
0.7568933268926488
 30
0.0
 70
     8
  0
VERTEX
  5
947
330
893
100
AcDbEntity
  8
0
370
    20
100
AcDbVertex
100
AcDb2dVertex
 10
10.2314581053293
 20
0.757228743023929
 30
0.0
 70
     8
  0
VERTEX
  5
948
330
893
100
AcDbEntity
  8
0
370
    20
100
AcDbVertex
100
AcDb2dVertex
 10
10.22777790453459
 20
0.7574592126185779
 30
0.0
 70
     8
  0
VERTEX
  5
949
330
893
100
AcDbEntity
  8
0
370
    20
100
AcDbVertex
100
AcDb2dVertex
 10
10.2239056273895
 20
0.7575965815884392
 30
0.0
 70
     8
  0
VERTEX
  5
94A
330
893
100
AcDbEntity
  8
0
370
    20
100
AcDbVertex
100
AcDb2dVertex
 10
10.21999015376242
 20
0.7576526958453567
 30
0.0
 70
     8
  0
VERTEX
  5
94B
330
893
100
AcDbEntity
  8
0
370
    20
100
AcDbVertex
100
AcDb2dVertex
 10
10.21618036352176
 20
0.7576394013011735
 30
0.0
 70
     8
  0
VERTEX
  5
94C
330
893
100
AcDbEntity
  8
0
370
    20
100
AcDbVertex
100
AcDb2dVertex
 10
10.21262513653591
 20
0.7575685438677337
 30
0.0
 70
     8
  0
VERTEX
  5
94D
330
893
100
AcDbEntity
  8
0
370
    20
100
AcDbVertex
100
AcDb2dVertex
 10
10.20947335267327
 20
0.7574519694568807
 30
0.0
 70
     8
  0
VERTEX
  5
94E
330
893
100
AcDbEntity
  8
0
370
    20
100
AcDbVertex
100
AcDb2dVertex
 10
10.20684713189175
 20
0.7572892689336518
 30
0.0
 70
     8
  0
VERTEX
  5
94F
330
893
100
AcDbEntity
  8
0
370
    20
100
AcDbVertex
100
AcDb2dVertex
 10
10.20476155450719
 20
0.7570310129758595
 30
0.0
 70
     8
  0
VERTEX
  5
950
330
893
100
AcDbEntity
  8
0
370
    20
100
AcDbVertex
100
AcDb2dVertex
 10
10.20320494092495
 20
0.7566155172145101
 30
0.0
 70
     8
  0
VERTEX
  5
951
330
893
100
AcDbEntity
  8
0
370
    20
100
AcDbVertex
100
AcDb2dVertex
 10
10.20216561155039
 20
0.7559810972806101
 30
0.0
 70
     8
  0
VERTEX
  5
952
330
893
100
AcDbEntity
  8
0
370
    20
100
AcDbVertex
100
AcDb2dVertex
 10
10.20163188678885
 20
0.7550660688051655
 30
0.0
 70
     8
  0
VERTEX
  5
953
330
893
100
AcDbEntity
  8
0
370
    20
100
AcDbVertex
100
AcDb2dVertex
 10
10.2015920870457
 20
0.7538087474191829
 30
0.0
 70
     8
  0
VERTEX
  5
954
330
893
100
AcDbEntity
  8
0
370
    20
100
AcDbVertex
100
AcDb2dVertex
 10
10.20203453272628
 20
0.7521474487536685
 30
0.0
 70
     8
  0
VERTEX
  5
955
330
893
100
AcDbEntity
  8
0
370
    20
100
AcDbVertex
100
AcDb2dVertex
 10
10.20294754423594
 20
0.7500204884396285
 30
0.0
 70
     8
  0
VERTEX
  5
956
330
893
100
AcDbEntity
  8
0
370
    20
100
AcDbVertex
100
AcDb2dVertex
 10
10.20431396450559
 20
0.7473911773554446
 30
0.0
 70
     8
  0
VERTEX
  5
957
330
893
100
AcDbEntity
  8
0
370
    20
100
AcDbVertex
100
AcDb2dVertex
 10
10.20609472656828
 20
0.7443228073690002
 30
0.0
 70
     8
  0
VERTEX
  5
958
330
893
100
AcDbEntity
  8
0
370
    20
100
AcDbVertex
100
AcDb2dVertex
 10
10.2082452859826
 20
0.7409036655955537
 30
0.0
 70
     8
  0
VERTEX
  5
959
330
893
100
AcDbEntity
  8
0
370
    20
100
AcDbVertex
100
AcDb2dVertex
 10
10.21072109830716
 20
0.7372220391503638
 30
0.0
 70
     8
  0
VERTEX
  5
95A
330
893
100
AcDbEntity
  8
0
370
    20
100
AcDbVertex
100
AcDb2dVertex
 10
10.21347761910056
 20
0.7333662151486889
 30
0.0
 70
     8
  0
VERTEX
  5
95B
330
893
100
AcDbEntity
  8
0
370
    20
100
AcDbVertex
100
AcDb2dVertex
 10
10.21647030392138
 20
0.729424480705788
 30
0.0
 70
     8
  0
VERTEX
  5
95C
330
893
100
AcDbEntity
  8
0
370
    20
100
AcDbVertex
100
AcDb2dVertex
 10
10.21965460832824
 20
0.7254851229369192
 30
0.0
 70
     8
  0
VERTEX
  5
95D
330
893
100
AcDbEntity
  8
0
370
    20
100
AcDbVertex
100
AcDb2dVertex
 10
10.22298598787972
 20
0.7216364289573415
 30
0.0
 70
     8
  0
VERTEX
  5
95E
330
893
100
AcDbEntity
  8
0
370
    20
100
AcDbVertex
100
AcDb2dVertex
 10
10.22642244797427
 20
0.7179540867935629
 30
0.0
 70
     8
  0
VERTEX
  5
95F
330
893
100
AcDbEntity
  8
0
370
    20
100
AcDbVertex
100
AcDb2dVertex
 10
10.22993219336968
 20
0.7144633881170904
 30
0.0
 70
     8
  0
VERTEX
  5
960
330
893
100
AcDbEntity
  8
0
370
    20
100
AcDbVertex
100
AcDb2dVertex
 10
10.23348597866356
 20
0.7111770255106804
 30
0.0
 70
     8
  0
VERTEX
  5
961
330
893
100
AcDbEntity
  8
0
370
    20
100
AcDbVertex
100
AcDb2dVertex
 10
10.23705455845355
 20
0.7081076915570891
 30
0.0
 70
     8
  0
VERTEX
  5
962
330
893
100
AcDbEntity
  8
0
370
    20
100
AcDbVertex
100
AcDb2dVertex
 10
10.24060868733727
 20
0.7052680788390733
 30
0.0
 70
     8
  0
VERTEX
  5
963
330
893
100
AcDbEntity
  8
0
370
    20
100
AcDbVertex
100
AcDb2dVertex
 10
10.24411911991235
 20
0.7026708799393893
 30
0.0
 70
     8
  0
VERTEX
  5
964
330
893
100
AcDbEntity
  8
0
370
    20
100
AcDbVertex
100
AcDb2dVertex
 10
10.24755661077642
 20
0.7003287874407937
 30
0.0
 70
     8
  0
VERTEX
  5
965
330
893
100
AcDbEntity
  8
0
370
    20
100
AcDbVertex
100
AcDb2dVertex
 10
10.2508919145271
 20
0.6982544939260423
 30
0.0
 70
     8
  0
VERTEX
  5
966
330
893
100
AcDbEntity
  8
0
370
    20
100
AcDbVertex
100
AcDb2dVertex
 10
10.25411180424768
 20
0.6964548532775443
 30
0.0
 70
     8
  0
VERTEX
  5
967
330
893
100
AcDbEntity
  8
0
370
    20
100
AcDbVertex
100
AcDb2dVertex
 10
10.25726712696402
 20
0.6949133645763143
 30
0.0
 70
     8
  0
VERTEX
  5
968
330
893
100
AcDbEntity
  8
0
370
    20
100
AcDbVertex
100
AcDb2dVertex
 10
10.26042474818765
 20
0.6936076882030199
 30
0.0
 70
     8
  0
VERTEX
  5
969
330
893
100
AcDbEntity
  8
0
370
    20
100
AcDbVertex
100
AcDb2dVertex
 10
10.26365153343012
 20
0.6925154845383279
 30
0.0
 70
     8
  0
VERTEX
  5
96A
330
893
100
AcDbEntity
  8
0
370
    20
100
AcDbVertex
100
AcDb2dVertex
 10
10.26701434820294
 20
0.6916144139629056
 30
0.0
 70
     8
  0
VERTEX
  5
96B
330
893
100
AcDbEntity
  8
0
370
    20
100
AcDbVertex
100
AcDb2dVertex
 10
10.27058005801763
 20
0.6908821368574202
 30
0.0
 70
     8
  0
VERTEX
  5
96C
330
893
100
AcDbEntity
  8
0
370
    20
100
AcDbVertex
100
AcDb2dVertex
 10
10.27441552838574
 20
0.6902963136025386
 30
0.0
 70
     8
  0
VERTEX
  5
96D
330
893
100
AcDbEntity
  8
0
370
    20
100
AcDbVertex
100
AcDb2dVertex
 10
10.27858762481879
 20
0.689834604578928
 30
0.0
 70
     8
  0
VERTEX
  5
96E
330
893
100
AcDbEntity
  8
0
370
    20
100
AcDbVertex
100
AcDb2dVertex
 10
10.28314008641343
 20
0.6894804622039774
 30
0.0
 70
     8
  0
VERTEX
  5
96F
330
893
100
AcDbEntity
  8
0
370
    20
100
AcDbVertex
100
AcDb2dVertex
 10
10.28802414660684
 20
0.6892405070419616
 30
0.0
 70
     8
  0
VERTEX
  5
970
330
893
100
AcDbEntity
  8
0
370
    20
100
AcDbVertex
100
AcDb2dVertex
 10
10.29316791242133
 20
0.6891271516938783
 30
0.0
 70
     8
  0
VERTEX
  5
971
330
893
100
AcDbEntity
  8
0
370
    20
100
AcDbVertex
100
AcDb2dVertex
 10
10.29849949087918
 20
0.6891528087607242
 30
0.0
 70
     8
  0
VERTEX
  5
972
330
893
100
AcDbEntity
  8
0
370
    20
100
AcDbVertex
100
AcDb2dVertex
 10
10.30394698900273
 20
0.6893298908434963
 30
0.0
 70
     8
  0
VERTEX
  5
973
330
893
100
AcDbEntity
  8
0
370
    20
100
AcDbVertex
100
AcDb2dVertex
 10
10.30943851381424
 20
0.6896708105431917
 30
0.0
 70
     8
  0
VERTEX
  5
974
330
893
100
AcDbEntity
  8
0
370
    20
100
AcDbVertex
100
AcDb2dVertex
 10
10.31490217233605
 20
0.6901879804608072
 30
0.0
 70
     8
  0
VERTEX
  5
975
330
893
100
AcDbEntity
  8
0
370
    20
100
AcDbVertex
100
AcDb2dVertex
 10
10.32026607159044
 20
0.6908938131973402
 30
0.0
 70
     8
  0
VERTEX
  5
976
330
893
100
AcDbEntity
  8
0
370
    20
100
AcDbVertex
100
AcDb2dVertex
 10
10.32546902451008
 20
0.6917988358150126
 30
0.0
 70
     8
  0
VERTEX
  5
977
330
893
100
AcDbEntity
  8
0
370
    20
100
AcDbVertex
100
AcDb2dVertex
 10
10.33049266766908
 20
0.6929060332209464
 30
0.0
 70
     8
  0
VERTEX
  5
978
330
893
100
AcDbEntity
  8
0
370
    20
100
AcDbVertex
100
AcDb2dVertex
 10
10.3353293435519
 20
0.6942165047834888
 30
0.0
 70
     8
  0
VERTEX
  5
979
330
893
100
AcDbEntity
  8
0
370
    20
100
AcDbVertex
100
AcDb2dVertex
 10
10.33997139464302
 20
0.6957313498709868
 30
0.0
 70
     8
  0
VERTEX
  5
97A
330
893
100
AcDbEntity
  8
0
370
    20
100
AcDbVertex
100
AcDb2dVertex
 10
10.34441116342689
 20
0.6974516678517877
 30
0.0
 70
     8
  0
VERTEX
  5
97B
330
893
100
AcDbEntity
  8
0
370
    20
100
AcDbVertex
100
AcDb2dVertex
 10
10.34864099238799
 20
0.6993785580942387
 30
0.0
 70
     8
  0
VERTEX
  5
97C
330
893
100
AcDbEntity
  8
0
370
    20
100
AcDbVertex
100
AcDb2dVertex
 10
10.35265322401079
 20
0.7015131199666867
 30
0.0
 70
     8
  0
VERTEX
  5
97D
330
893
100
AcDbEntity
  8
0
370
    20
100
AcDbVertex
100
AcDb2dVertex
 10
10.35644020077974
 20
0.7038564528374791
 30
0.0
 70
     8
  0
VERTEX
  5
97E
330
893
100
AcDbEntity
  8
0
370
    20
100
AcDbVertex
100
AcDb2dVertex
 10
10.35999544629115
 20
0.7064051956779159
 30
0.0
 70
     8
  0
VERTEX
  5
97F
330
893
100
AcDbEntity
  8
0
370
    20
100
AcDbVertex
100
AcDb2dVertex
 10
10.36331720858869
 20
0.7091381458711101
 30
0.0
 70
     8
  0
VERTEX
  5
980
330
893
100
AcDbEntity
  8
0
370
    20
100
AcDbVertex
100
AcDb2dVertex
 10
10.36640491682782
 20
0.7120296404031273
 30
0.0
 70
     8
  0
VERTEX
  5
981
330
893
100
AcDbEntity
  8
0
370
    20
100
AcDbVertex
100
AcDb2dVertex
 10
10.36925800016405
 20
0.7150540162600336
 30
0.0
 70
     8
  0
VERTEX
  5
982
330
893
100
AcDbEntity
  8
0
370
    20
100
AcDbVertex
100
AcDb2dVertex
 10
10.37187588775286
 20
0.7181856104278947
 30
0.0
 70
     8
  0
VERTEX
  5
983
330
893
100
AcDbEntity
  8
0
370
    20
100
AcDbVertex
100
AcDb2dVertex
 10
10.37425800874974
 20
0.7213987598927766
 30
0.0
 70
     8
  0
VERTEX
  5
984
330
893
100
AcDbEntity
  8
0
370
    20
100
AcDbVertex
100
AcDb2dVertex
 10
10.37640379231017
 20
0.7246678016407452
 30
0.0
 70
     8
  0
VERTEX
  5
985
330
893
100
AcDbEntity
  8
0
370
    20
100
AcDbVertex
100
AcDb2dVertex
 10
10.37831266758965
 20
0.7279670726578664
 30
0.0
 70
     8
  0
VERTEX
  5
986
330
893
100
AcDbEntity
  8
0
370
    20
100
AcDbVertex
100
AcDb2dVertex
 10
10.37998691804757
 20
0.731271762546354
 30
0.0
 70
     8
  0
VERTEX
  5
987
330
893
100
AcDbEntity
  8
0
370
    20
100
AcDbVertex
100
AcDb2dVertex
 10
10.38144024435889
 20
0.7345604713730151
 30
0.0
 70
     8
  0
VERTEX
  5
988
330
893
100
AcDbEntity
  8
0
370
    20
100
AcDbVertex
100
AcDb2dVertex
 10
10.3826892015025
 20
0.7378126518208049
 30
0.0
 70
     8
  0
VERTEX
  5
989
330
893
100
AcDbEntity
  8
0
370
    20
100
AcDbVertex
100
AcDb2dVertex
 10
10.38375034445728
 20
0.7410077565726785
 30
0.0
 70
     8
  0
VERTEX
  5
98A
330
893
100
AcDbEntity
  8
0
370
    20
100
AcDbVertex
100
AcDb2dVertex
 10
10.38464022820209
 20
0.7441252383115909
 30
0.0
 70
     8
  0
VERTEX
  5
98B
330
893
100
AcDbEntity
  8
0
370
    20
100
AcDbVertex
100
AcDb2dVertex
 10
10.38537540771582
 20
0.7471445497204972
 30
0.0
 70
     8
  0
VERTEX
  5
98C
330
893
100
AcDbEntity
  8
0
370
    20
100
AcDbVertex
100
AcDb2dVertex
 10
10.38597243797735
 20
0.7500451434823527
 30
0.0
 70
     8
  0
VERTEX
  5
98D
330
893
100
AcDbEntity
  8
0
370
    20
100
AcDbVertex
100
AcDb2dVertex
 10
10.38644787396554
 20
0.7528064722801121
 30
0.0
 70
     8
  0
VERTEX
  5
98E
330
893
100
AcDbEntity
  8
0
370
    20
100
AcDbVertex
100
AcDb2dVertex
 10
10.38681218146136
 20
0.7554175014358126
 30
0.0
 70
     8
  0
VERTEX
  5
98F
330
893
100
AcDbEntity
  8
0
370
    20
100
AcDbVertex
100
AcDb2dVertex
 10
10.3870514694541
 20
0.7579052468278166
 30
0.0
 70
     8
  0
VERTEX
  5
990
330
893
100
AcDbEntity
  8
0
370
    20
100
AcDbVertex
100
AcDb2dVertex
 10
10.38714575773513
 20
0.7603062369735688
 30
0.0
 70
     8
  0
VERTEX
  5
991
330
893
100
AcDbEntity
  8
0
370
    20
100
AcDbVertex
100
AcDb2dVertex
 10
10.38707506609583
 20
0.7626570003905134
 30
0.0
 70
     8
  0
VERTEX
  5
992
330
893
100
AcDbEntity
  8
0
370
    20
100
AcDbVertex
100
AcDb2dVertex
 10
10.38681941432757
 20
0.7649940655960946
 30
0.0
 70
     8
  0
VERTEX
  5
993
330
893
100
AcDbEntity
  8
0
370
    20
100
AcDbVertex
100
AcDb2dVertex
 10
10.38635882222173
 20
0.7673539611077573
 30
0.0
 70
     8
  0
VERTEX
  5
994
330
893
100
AcDbEntity
  8
0
370
    20
100
AcDbVertex
100
AcDb2dVertex
 10
10.38567330956968
 20
0.7697732154429452
 30
0.0
 70
     8
  0
VERTEX
  5
995
330
893
100
AcDbEntity
  8
0
370
    20
100
AcDbVertex
100
AcDb2dVertex
 10
10.38474289616279
 20
0.7722883571191032
 30
0.0
 70
     8
  0
VERTEX
  5
996
330
893
100
AcDbEntity
  8
0
370
    20
100
AcDbVertex
100
AcDb2dVertex
 10
10.38355007553332
 20
0.7749246897497212
 30
0.0
 70
     8
  0
VERTEX
  5
997
330
893
100
AcDbEntity
  8
0
370
    20
100
AcDbVertex
100
AcDb2dVertex
 10
10.38208723617711
 20
0.7776626173324726
 30
0.0
 70
     8
  0
VERTEX
  5
998
330
893
100
AcDbEntity
  8
0
370
    20
100
AcDbVertex
100
AcDb2dVertex
 10
10.38034924033087
 20
0.7804713189610766
 30
0.0
 70
     8
  0
VERTEX
  5
999
330
893
100
AcDbEntity
  8
0
370
    20
100
AcDbVertex
100
AcDb2dVertex
 10
10.37833095023132
 20
0.7833199737292521
 30
0.0
 70
     8
  0
VERTEX
  5
99A
330
893
100
AcDbEntity
  8
0
370
    20
100
AcDbVertex
100
AcDb2dVertex
 10
10.37602722811516
 20
0.7861777607307187
 30
0.0
 70
     8
  0
VERTEX
  5
99B
330
893
100
AcDbEntity
  8
0
370
    20
100
AcDbVertex
100
AcDb2dVertex
 10
10.37343293621912
 20
0.789013859059195
 30
0.0
 70
     8
  0
VERTEX
  5
99C
330
893
100
AcDbEntity
  8
0
370
    20
100
AcDbVertex
100
AcDb2dVertex
 10
10.3705429367799
 20
0.7917974478084004
 30
0.0
 70
     8
  0
VERTEX
  5
99D
330
893
100
AcDbEntity
  8
0
370
    20
100
AcDbVertex
100
AcDb2dVertex
 10
10.36735209203424
 20
0.794497706072054
 30
0.0
 70
     8
  0
VERTEX
  5
99E
330
893
100
AcDbEntity
  8
0
370
    20
100
AcDbVertex
100
AcDb2dVertex
 10
10.36385954568824
 20
0.7970891399991271
 30
0.0
 70
     8
  0
VERTEX
  5
99F
330
893
100
AcDbEntity
  8
0
370
    20
100
AcDbVertex
100
AcDb2dVertex
 10
10.36008156732564
 20
0.7995675639595988
 30
0.0
 70
     8
  0
VERTEX
  5
9A0
330
893
100
AcDbEntity
  8
0
370
    20
100
AcDbVertex
100
AcDb2dVertex
 10
10.35603870799958
 20
0.8019341193787013
 30
0.0
 70
     8
  0
VERTEX
  5
9A1
330
893
100
AcDbEntity
  8
0
370
    20
100
AcDbVertex
100
AcDb2dVertex
 10
10.35175151876319
 20
0.8041899476816663
 30
0.0
 70
     8
  0
VERTEX
  5
9A2
330
893
100
AcDbEntity
  8
0
370
    20
100
AcDbVertex
100
AcDb2dVertex
 10
10.34724055066961
 20
0.8063361902937252
 30
0.0
 70
     8
  0
VERTEX
  5
9A3
330
893
100
AcDbEntity
  8
0
370
    20
100
AcDbVertex
100
AcDb2dVertex
 10
10.34252635477199
 20
0.8083739886401094
 30
0.0
 70
     8
  0
VERTEX
  5
9A4
330
893
100
AcDbEntity
  8
0
370
    20
100
AcDbVertex
100
AcDb2dVertex
 10
10.33762948212345
 20
0.8103044841460512
 30
0.0
 70
     8
  0
VERTEX
  5
9A5
330
893
100
AcDbEntity
  8
0
370
    20
100
AcDbVertex
100
AcDb2dVertex
 10
10.33257048377714
 20
0.8121288182367814
 30
0.0
 70
     8
  0
VERTEX
  5
9A6
330
893
100
AcDbEntity
  8
0
370
    20
100
AcDbVertex
100
AcDb2dVertex
 10
10.32737447773207
 20
0.8138497495182791
 30
0.0
 70
     8
  0
VERTEX
  5
9A7
330
893
100
AcDbEntity
  8
0
370
    20
100
AcDbVertex
100
AcDb2dVertex
 10
10.32208484977083
 20
0.8154765053195085
 30
0.0
 70
     8
  0
VERTEX
  5
9A8
330
893
100
AcDbEntity
  8
0
370
    20
100
AcDbVertex
100
AcDb2dVertex
 10
10.31674955262185
 20
0.8170199301501806
 30
0.0
 70
     8
  0
VERTEX
  5
9A9
330
893
100
AcDbEntity
  8
0
370
    20
100
AcDbVertex
100
AcDb2dVertex
 10
10.31141653901361
 20
0.818490868520007
 30
0.0
 70
     8
  0
VERTEX
  5
9AA
330
893
100
AcDbEntity
  8
0
370
    20
100
AcDbVertex
100
AcDb2dVertex
 10
10.30613376167454
 20
0.8199001649386991
 30
0.0
 70
     8
  0
VERTEX
  5
9AB
330
893
100
AcDbEntity
  8
0
370
    20
100
AcDbVertex
100
AcDb2dVertex
 10
10.30094917333311
 20
0.8212586639159674
 30
0.0
 70
     8
  0
VERTEX
  5
9AC
330
893
100
AcDbEntity
  8
0
370
    20
100
AcDbVertex
100
AcDb2dVertex
 10
10.29591072671777
 20
0.8225772099615237
 30
0.0
 70
     8
  0
VERTEX
  5
9AD
330
893
100
AcDbEntity
  8
0
370
    20
100
AcDbVertex
100
AcDb2dVertex
 10
10.29106637455697
 20
0.823866647585079
 30
0.0
 70
     8
  0
VERTEX
  5
9AE
330
893
100
AcDbEntity
  8
0
370
    20
100
AcDbVertex
100
AcDb2dVertex
 10
10.2864582092315
 20
0.8251379632758599
 30
0.0
 70
     8
  0
VERTEX
  5
9AF
330
893
100
AcDbEntity
  8
0
370
    20
100
AcDbVertex
100
AcDb2dVertex
 10
10.28210488173147
 20
0.8264027114411547
 30
0.0
 70
     8
  0
VERTEX
  5
9B0
330
893
100
AcDbEntity
  8
0
370
    20
100
AcDbVertex
100
AcDb2dVertex
 10
10.2780191826993
 20
0.8276725884677674
 30
0.0
 70
     8
  0
VERTEX
  5
9B1
330
893
100
AcDbEntity
  8
0
370
    20
100
AcDbVertex
100
AcDb2dVertex
 10
10.27421390277744
 20
0.8289592907425017
 30
0.0
 70
     8
  0
VERTEX
  5
9B2
330
893
100
AcDbEntity
  8
0
370
    20
100
AcDbVertex
100
AcDb2dVertex
 10
10.27070183260831
 20
0.8302745146521612
 30
0.0
 70
     8
  0
VERTEX
  5
9B3
330
893
100
AcDbEntity
  8
0
370
    20
100
AcDbVertex
100
AcDb2dVertex
 10
10.26749576283435
 20
0.8316299565835496
 30
0.0
 70
     8
  0
VERTEX
  5
9B4
330
893
100
AcDbEntity
  8
0
370
    20
100
AcDbVertex
100
AcDb2dVertex
 10
10.264608484098
 20
0.8330373129234709
 30
0.0
 70
     8
  0
VERTEX
  5
9B5
330
893
100
AcDbEntity
  8
0
370
    20
100
AcDbVertex
100
AcDb2dVertex
 10
10.26205278704168
 20
0.834508280058729
 30
0.0
 70
     8
  0
VERTEX
  5
9B6
330
893
100
AcDbEntity
  8
0
370
    20
100
AcDbVertex
100
AcDb2dVertex
 10
10.25983478151013
 20
0.836051027579559
 30
0.0
 70
     8
  0
VERTEX
  5
9B7
330
893
100
AcDbEntity
  8
0
370
    20
100
AcDbVertex
100
AcDb2dVertex
 10
10.2579338541573
 20
0.837659617889923
 30
0.0
 70
     8
  0
VERTEX
  5
9B8
330
893
100
AcDbEntity
  8
0
370
    20
100
AcDbVertex
100
AcDb2dVertex
 10
10.25632271083941
 20
0.8393245865972151
 30
0.0
 70
     8
  0
VERTEX
  5
9B9
330
893
100
AcDbEntity
  8
0
370
    20
100
AcDbVertex
100
AcDb2dVertex
 10
10.2549740574127
 20
0.8410364693088293
 30
0.0
 70
     8
  0
VERTEX
  5
9BA
330
893
100
AcDbEntity
  8
0
370
    20
100
AcDbVertex
100
AcDb2dVertex
 10
10.25386059973341
 20
0.8427858016321595
 30
0.0
 70
     8
  0
VERTEX
  5
9BB
330
893
100
AcDbEntity
  8
0
370
    20
100
AcDbVertex
100
AcDb2dVertex
 10
10.25295504365778
 20
0.8445631191745993
 30
0.0
 70
     8
  0
VERTEX
  5
9BC
330
893
100
AcDbEntity
  8
0
370
    20
100
AcDbVertex
100
AcDb2dVertex
 10
10.25223009504204
 20
0.8463589575435429
 30
0.0
 70
     8
  0
VERTEX
  5
9BD
330
893
100
AcDbEntity
  8
0
370
    20
100
AcDbVertex
100
AcDb2dVertex
 10
10.25165845974243
 20
0.8481638523463837
 30
0.0
 70
     8
  0
VERTEX
  5
9BE
330
893
100
AcDbEntity
  8
0
370
    20
100
AcDbVertex
100
AcDb2dVertex
 10
10.25121861306535
 20
0.8499715272109117
 30
0.0
 70
     8
  0
VERTEX
  5
9BF
330
893
100
AcDbEntity
  8
0
370
    20
100
AcDbVertex
100
AcDb2dVertex
 10
10.25091210811781
 20
0.8517884578464983
 30
0.0
 70
     8
  0
VERTEX
  5
9C0
330
893
100
AcDbEntity
  8
0
370
    20
100
AcDbVertex
100
AcDb2dVertex
 10
10.25074626745701
 20
0.8536243079829105
 30
0.0
 70
     8
  0
VERTEX
  5
9C1
330
893
100
AcDbEntity
  8
0
370
    20
100
AcDbVertex
100
AcDb2dVertex
 10
10.25072841364012
 20
0.8554887413499161
 30
0.0
 70
     8
  0
VERTEX
  5
9C2
330
893
100
AcDbEntity
  8
0
370
    20
100
AcDbVertex
100
AcDb2dVertex
 10
10.25086586922433
 20
0.8573914216772816
 30
0.0
 70
     8
  0
VERTEX
  5
9C3
330
893
100
AcDbEntity
  8
0
370
    20
100
AcDbVertex
100
AcDb2dVertex
 10
10.25116595676683
 20
0.8593420126947744
 30
0.0
 70
     8
  0
VERTEX
  5
9C4
330
893
100
AcDbEntity
  8
0
370
    20
100
AcDbVertex
100
AcDb2dVertex
 10
10.25163599882478
 20
0.8613501781321621
 30
0.0
 70
     8
  0
VERTEX
  5
9C5
330
893
100
AcDbEntity
  8
0
370
    20
100
AcDbVertex
100
AcDb2dVertex
 10
10.25228331795539
 20
0.8634255817192114
 30
0.0
 70
     8
  0
VERTEX
  5
9C6
330
893
100
AcDbEntity
  8
0
370
    20
100
AcDbVertex
100
AcDb2dVertex
 10
10.25311220018309
 20
0.8655720042335776
 30
0.0
 70
     8
  0
VERTEX
  5
9C7
330
893
100
AcDbEntity
  8
0
370
    20
100
AcDbVertex
100
AcDb2dVertex
 10
10.25411478540139
 20
0.8677696946444678
 30
0.0
 70
     8
  0
VERTEX
  5
9C8
330
893
100
AcDbEntity
  8
0
370
    20
100
AcDbVertex
100
AcDb2dVertex
 10
10.25528017697105
 20
0.8699930189689768
 30
0.0
 70
     8
  0
VERTEX
  5
9C9
330
893
100
AcDbEntity
  8
0
370
    20
100
AcDbVertex
100
AcDb2dVertex
 10
10.25659747825284
 20
0.8722163432241991
 30
0.0
 70
     8
  0
VERTEX
  5
9CA
330
893
100
AcDbEntity
  8
0
370
    20
100
AcDbVertex
100
AcDb2dVertex
 10
10.25805579260752
 20
0.87441403342723
 30
0.0
 70
     8
  0
VERTEX
  5
9CB
330
893
100
AcDbEntity
  8
0
370
    20
100
AcDbVertex
100
AcDb2dVertex
 10
10.25964422339586
 20
0.8765604555951641
 30
0.0
 70
     8
  0
VERTEX
  5
9CC
330
893
100
AcDbEntity
  8
0
370
    20
100
AcDbVertex
100
AcDb2dVertex
 10
10.26135187397861
 20
0.8786299757450963
 30
0.0
 70
     8
  0
VERTEX
  5
9CD
330
893
100
AcDbEntity
  8
0
370
    20
100
AcDbVertex
100
AcDb2dVertex
 10
10.26316784771656
 20
0.8805969598941215
 30
0.0
 70
     8
  0
VERTEX
  5
9CE
330
893
100
AcDbEntity
  8
0
370
    20
100
AcDbVertex
100
AcDb2dVertex
 10
10.26508498701015
 20
0.8824390851093971
 30
0.0
 70
     8
  0
VERTEX
  5
9CF
330
893
100
AcDbEntity
  8
0
370
    20
100
AcDbVertex
100
AcDb2dVertex
 10
10.26711109041856
 20
0.8841472726583319
 30
0.0
 70
     8
  0
VERTEX
  5
9D0
330
893
100
AcDbEntity
  8
0
370
    20
100
AcDbVertex
100
AcDb2dVertex
 10
10.26925769554067
 20
0.8857157548583961
 30
0.0
 70
     8
  0
VERTEX
  5
9D1
330
893
100
AcDbEntity
  8
0
370
    20
100
AcDbVertex
100
AcDb2dVertex
 10
10.27153633997536
 20
0.8871387640270613
 30
0.0
 70
     8
  0
VERTEX
  5
9D2
330
893
100
AcDbEntity
  8
0
370
    20
100
AcDbVertex
100
AcDb2dVertex
 10
10.2739585613215
 20
0.8884105324817982
 30
0.0
 70
     8
  0
VERTEX
  5
9D3
330
893
100
AcDbEntity
  8
0
370
    20
100
AcDbVertex
100
AcDb2dVertex
 10
10.27653589717796
 20
0.8895252925400779
 30
0.0
 70
     8
  0
VERTEX
  5
9D4
330
893
100
AcDbEntity
  8
0
370
    20
100
AcDbVertex
100
AcDb2dVertex
 10
10.27927988514363
 20
0.8904772765193712
 30
0.0
 70
     8
  0
VERTEX
  5
9D5
330
893
100
AcDbEntity
  8
0
370
    20
100
AcDbVertex
100
AcDb2dVertex
 10
10.28220206281736
 20
0.8912607167371492
 30
0.0
 70
     8
  0
VERTEX
  5
9D6
330
893
100
AcDbEntity
  8
0
370
    20
100
AcDbVertex
100
AcDb2dVertex
 10
10.28530675685298
 20
0.8918681899743038
 30
0.0
 70
     8
  0
VERTEX
  5
9D7
330
893
100
AcDbEntity
  8
0
370
    20
100
AcDbVertex
100
AcDb2dVertex
 10
10.288569450124
 20
0.8922856508654104
 30
0.0
 70
     8
  0
VERTEX
  5
9D8
330
893
100
AcDbEntity
  8
0
370
    20
100
AcDbVertex
100
AcDb2dVertex
 10
10.29195841455889
 20
0.8924973985084658
 30
0.0
 70
     8
  0
VERTEX
  5
9D9
330
893
100
AcDbEntity
  8
0
370
    20
100
AcDbVertex
100
AcDb2dVertex
 10
10.29544192208608
 20
0.8924877320014662
 30
0.0
 70
     8
  0
VERTEX
  5
9DA
330
893
100
AcDbEntity
  8
0
370
    20
100
AcDbVertex
100
AcDb2dVertex
 10
10.29898824463405
 20
0.8922409504424081
 30
0.0
 70
     8
  0
VERTEX
  5
9DB
330
893
100
AcDbEntity
  8
0
370
    20
100
AcDbVertex
100
AcDb2dVertex
 10
10.30256565413123
 20
0.8917413529292877
 30
0.0
 70
     8
  0
VERTEX
  5
9DC
330
893
100
AcDbEntity
  8
0
370
    20
100
AcDbVertex
100
AcDb2dVertex
 10
10.30614242250611
 20
0.8909732385601019
 30
0.0
 70
     8
  0
VERTEX
  5
9DD
330
893
100
AcDbEntity
  8
0
370
    20
100
AcDbVertex
100
AcDb2dVertex
 10
10.30968682168711
 20
0.889920906432847
 30
0.0
 70
     8
  0
VERTEX
  5
9DE
330
893
100
AcDbEntity
  8
0
370
    20
100
AcDbVertex
100
AcDb2dVertex
 10
10.31318705136055
 20
0.8885379544200599
 30
0.0
 70
     8
  0
VERTEX
  5
9DF
330
893
100
AcDbEntity
  8
0
370
    20
100
AcDbVertex
100
AcDb2dVertex
 10
10.31671102224412
 20
0.886655175492439
 30
0.0
 70
     8
  0
VERTEX
  5
9E0
330
893
100
AcDbEntity
  8
0
370
    20
100
AcDbVertex
100
AcDb2dVertex
 10
10.32034657281335
 20
0.8840726613952242
 30
0.0
 70
     8
  0
VERTEX
  5
9E1
330
893
100
AcDbEntity
  8
0
370
    20
100
AcDbVertex
100
AcDb2dVertex
 10
10.32418154154378
 20
0.880590503873654
 30
0.0
 70
     8
  0
VERTEX
  5
9E2
330
893
100
AcDbEntity
  8
0
370
    20
100
AcDbVertex
100
AcDb2dVertex
 10
10.32830376691094
 20
0.8760087946729676
 30
0.0
 70
     8
  0
VERTEX
  5
9E3
330
893
100
AcDbEntity
  8
0
370
    20
100
AcDbVertex
100
AcDb2dVertex
 10
10.33280108739036
 20
0.8701276255384044
 30
0.0
 70
     8
  0
VERTEX
  5
9E4
330
893
100
AcDbEntity
  8
0
370
    20
100
AcDbVertex
100
AcDb2dVertex
 10
10.33776134145759
 20
0.8627470882152033
 30
0.0
 70
     8
  0
VERTEX
  5
9E5
330
893
100
AcDbEntity
  8
0
370
    20
100
AcDbVertex
100
AcDb2dVertex
 10
10.34327236758816
 20
0.853667274448604
 30
0.0
 70
     8
  0
VERTEX
  5
9E6
330
893
100
AcDbEntity
  8
0
370
    20
100
AcDbVertex
100
AcDb2dVertex
 10
10.38297385276302
 20
0.853667274448604
 30
0.0
 70
    16
  0
VERTEX
  5
9E7
330
893
100
AcDbEntity
  8
0
370
    20
100
AcDbVertex
100
AcDb2dVertex
 10
10.37768034084122
 20
0.8739554157693945
 30
0.0
 70
    16
  0
VERTEX
  5
9E8
330
893
100
AcDbEntity
  8
0
370
    20
100
AcDbVertex
100
AcDb2dVertex
 10
10.36474056174017
 20
0.8942435216155217
 30
0.0
 70
    16
  0
VERTEX
  5
9E9
330
893
100
AcDbEntity
  8
0
370
    20
100
AcDbVertex
100
AcDb2dVertex
 10
10.33915515000288
 20
0.9080629632302006
 30
0.0
 70
    16
  0
VERTEX
  5
9EA
330
893
100
AcDbEntity
  8
0
370
    20
100
AcDbVertex
100
AcDb2dVertex
 10
10.31592245187694
 20
0.9165898678327408
 30
0.0
 70
    16
  0
VERTEX
  5
9EB
330
893
100
AcDbEntity
  8
0
370
    20
100
AcDbVertex
100
AcDb2dVertex
 10
10.29239560728619
 20
0.9165898678327408
 30
0.0
 70
    16
  0
VERTEX
  5
9EC
330
893
100
AcDbEntity
  8
0
370
    20
100
AcDbVertex
100
AcDb2dVertex
 10
10.25798767567923
 20
0.9121793730230578
 30
0.0
 70
    16
  0
VERTEX
  5
9ED
330
893
100
AcDbEntity
  8
0
370
    20
100
AcDbVertex
100
AcDb2dVertex
 10
10.23769577586374
 20
0.896889790121591
 30
0.0
 70
    16
  0
VERTEX
  5
9EE
330
893
100
AcDbEntity
  8
0
370
    20
100
AcDbVertex
100
AcDb2dVertex
 10
10.2197565896596
 20
0.8710150977211625
 30
0.0
 70
    16
  0
VERTEX
  5
9EF
330
893
100
AcDbEntity
  8
0
370
    20
100
AcDbVertex
100
AcDb2dVertex
 10
10.2197565896596
 20
0.839847832833918
 30
0.0
 70
    16
  0
VERTEX
  5
9F0
330
893
100
AcDbEntity
  8
0
370
    20
100
AcDbVertex
100
AcDb2dVertex
 10
10.22828504635666
 20
0.8177955361588615
 30
0.0
 70
    16
  0
VERTEX
  5
9F1
330
893
100
AcDbEntity
  8
0
370
    20
100
AcDbVertex
100
AcDb2dVertex
 10
10.25975217965317
 20
0.7995656352091629
 30
0.0
 70
    16
  0
VERTEX
  5
9F2
330
893
100
AcDbEntity
  8
0
370
    20
100
AcDbVertex
100
AcDb2dVertex
 10
10.30151227362066
 20
0.7860402076619693
 30
0.0
 70
    16
  0
VERTEX
  5
9F3
330
893
100
AcDbEntity
  8
0
370
    20
100
AcDbVertex
100
AcDb2dVertex
 10
10.34268419959685
 20
0.7722207660472833
 30
0.0
 70
    16
  0
VERTEX
  5
9F4
330
893
100
AcDbEntity
  8
0
370
    20
100
AcDbVertex
100
AcDb2dVertex
 10
10.35532983223309
 20
0.7551669923168803
 30
0.0
 70
    16
  0
VERTEX
  5
9F5
330
893
100
AcDbEntity
  8
0
370
    20
100
AcDbVertex
100
AcDb2dVertex
 10
10.35532983223309
 20
0.7392893458057728
 30
0.0
 70
    16
  0
VERTEX
  5
9F6
330
893
100
AcDbEntity
  8
0
370
    20
100
AcDbVertex
100
AcDb2dVertex
 10
10.34062559080421
 20
0.7231176497525027
 30
0.0
 70
    16
  0
VERTEX
  5
9F7
330
893
100
AcDbEntity
  8
0
370
    20
100
AcDbVertex
100
AcDb2dVertex
 10
10.31474611589432
 20
0.7140027170149921
 30
0.0
 70
    16
  0
VERTEX
  5
9F8
330
893
100
AcDbEntity
  8
0
370
    20
100
AcDbVertex
100
AcDb2dVertex
 10
10.29121927130357
 20
0.7140027170149921
 30
0.0
 70
    16
  0
VERTEX
  5
9F9
330
893
100
AcDbEntity
  8
0
370
    20
100
AcDbVertex
100
AcDb2dVertex
 10
10.26504569157496
 20
0.7213534589235664
 30
0.0
 70
    16
  0
VERTEX
  5
9FA
330
893
100
AcDbEntity
  8
0
370
    20
100
AcDbVertex
100
AcDb2dVertex
 10
10.24945917733606
 20
0.7381132185864772
 30
0.0
 70
    16
  0
VERTEX
  5
9FB
330
893
100
AcDbEntity
  8
0
370
    20
100
AcDbVertex
100
AcDb2dVertex
 10
10.24445972858686
 20
0.749580405762579
 30
0.0
 70
    16
  0
VERTEX
  5
9FC
330
893
100
AcDbEntity
  8
0
370
    20
100
AcDbVertex
100
AcDb2dVertex
 10
10.24445972858686
 20
0.7578132608229567
 30
0.0
 70
    16
  0
VERTEX
  5
9FD
330
893
100
AcDbEntity
  8
0
370
    20
100
AcDbVertex
100
AcDb2dVertex
 10
10.20358190742939
 20
0.7578132608229567
 30
0.0
 70
    16
  0
VERTEX
  5
9FE
330
893
100
AcDbEntity
  8
0
370
    20
100
AcDbVertex
100
AcDb2dVertex
 10
10.19805275773524
 20
0.7556455126265003
 30
0.0
 70
    16
  0
VERTEX
  5
9FF
330
893
100
AcDbEntity
  8
0
370
    20
100
AcDbVertex
100
AcDb2dVertex
 10
10.22189232704531
 20
0.7197276193088129
 30
0.0
 70
    16
  0
VERTEX
  5
A00
330
893
100
AcDbEntity
  8
0
370
    20
100
AcDbVertex
100
AcDb2dVertex
 10
10.25229386136188
 20
0.6952625838822968
 30
0.0
 70
    16
  0
VERTEX
  5
A01
330
893
100
AcDbEntity
  8
0
370
    20
100
AcDbVertex
100
AcDb2dVertex
 10
10.27428371466981
 20
0.6887490087182542
 30
0.0
 70
    16
  0
VERTEX
  5
A02
330
893
100
AcDbEntity
  8
0
370
    20
100
AcDbVertex
100
AcDb2dVertex
 10
10.32209702887161
 20
0.6887490087182542
 30
0.0
 70
    16
  0
VERTEX
  5
A03
330
893
100
AcDbEntity
  8
0
370
    20
100
AcDbVertex
100
AcDb2dVertex
 10
10.35892459938638
 20
0.7016178355927707
 30
0.0
 70
    16
  0
VERTEX
  5
A04
330
893
100
AcDbEntity
  8
0
370
    20
100
AcDbVertex
100
AcDb2dVertex
 10
10.38084577826129
 20
0.7279183659355369
 30
0.0
 70
    16
  0
VERTEX
  5
A05
330
893
100
AcDbEntity
  8
0
370
    20
100
AcDbVertex
100
AcDb2dVertex
 10
10.38756829310639
 20
0.7545111366122797
 30
0.0
 70
    16
  0
VERTEX
  5
A06
330
893
100
AcDbEntity
  8
0
370
    20
100
AcDbVertex
100
AcDb2dVertex
 10
10.38756829310639
 20
0.7708759212960175
 30
0.0
 70
    16
  0
VERTEX
  5
A07
330
893
100
AcDbEntity
  8
0
370
    20
100
AcDbVertex
100
AcDb2dVertex
 10
10.37061591144478
 20
0.7957153209182693
 30
0.0
 70
    16
  0
VERTEX
  5
A08
330
893
100
AcDbEntity
  8
0
370
    20
100
AcDbVertex
100
AcDb2dVertex
 10
10.33408061331993
 20
0.8132490314632292
 30
0.0
 70
    16
  0
VERTEX
  5
A09
330
893
100
AcDbEntity
  8
0
370
    20
100
AcDbVertex
100
AcDb2dVertex
 10
10.28848453793831
 20
0.824061462649503
 30
0.0
 70
    16
  0
VERTEX
  5
A0A
330
893
100
AcDbEntity
  8
0
370
    20
100
AcDbVertex
100
AcDb2dVertex
 10
10.25837948226864
 20
0.8337050034492321
 30
0.0
 70
    16
  0
VERTEX
  5
A0B
330
893
100
AcDbEntity
  8
0
370
    20
100
AcDbVertex
100
AcDb2dVertex
 10
10.25031425523719
 20
0.8481682039059421
 30
0.0
 70
    16
  0
VERTEX
  5
A0C
330
893
100
AcDbEntity
  8
0
370
    20
100
AcDbVertex
100
AcDb2dVertex
 10
10.25031425523719
 20
0.8626052950053022
 30
0.0
 70
    16
  0
VERTEX
  5
A0D
330
893
100
AcDbEntity
  8
0
370
    20
100
AcDbVertex
100
AcDb2dVertex
 10
10.2621286315464
 20
0.8819641063881178
 30
0.0
 70
    16
  0
VERTEX
  5
A0E
330
893
100
AcDbEntity
  8
0
370
    20
100
AcDbVertex
100
AcDb2dVertex
 10
10.28017830487658
 20
0.8931200388069555
 30
0.0
 70
    16
  0
VERTEX
  5
A0F
330
893
100
AcDbEntity
  8
0
370
    20
100
AcDbVertex
100
AcDb2dVertex
 10
10.31037052585148
 20
0.8931200388069555
 30
0.0
 70
    16
  0
VERTEX
  5
A10
330
893
100
AcDbEntity
  8
0
370
    20
100
AcDbVertex
100
AcDb2dVertex
 10
10.32776385651061
 20
0.8803235093105215
 30
0.0
 70
    16
  0
VERTEX
  5
A11
330
893
100
AcDbEntity
  8
0
370
    20
100
AcDbVertex
100
AcDb2dVertex
 10
10.34327236758816
 20
0.853667274448604
 30
0.0
 70
    16
  0
SEQEND
  5
A12
330
893
100
AcDbEntity
  8
0
370
    20
  0
POLYLINE
  5
A13
330
890
100
AcDbEntity
  8
0
370
    20
100
AcDb2dPolyline
 66
     1
 10
0.0
 20
0.0
 30
0.0
 70
     4
 75
     6
  0
VERTEX
  5
A14
330
A13
100
AcDbEntity
  8
0
370
    20
100
AcDbVertex
100
AcDb2dVertex
 10
10.52124642950947
 20
0.853667274448604
 30
0.0
 70
    16
  0
VERTEX
  5
A15
330
A13
100
AcDbEntity
  8
0
370
    20
100
AcDbVertex
100
AcDb2dVertex
 10
10.52124642950947
 20
0.853667274448604
 30
0.0
 70
     8
  0
VERTEX
  5
A16
330
A13
100
AcDbEntity
  8
0
370
    20
100
AcDbVertex
100
AcDb2dVertex
 10
10.53423049661022
 20
0.8541196630049189
 30
0.0
 70
     8
  0
VERTEX
  5
A17
330
A13
100
AcDbEntity
  8
0
370
    20
100
AcDbVertex
100
AcDb2dVertex
 10
10.54373091988495
 20
0.8553843696502992
 30
0.0
 70
     8
  0
VERTEX
  5
A18
330
A13
100
AcDbEntity
  8
0
370
    20
100
AcDbVertex
100
AcDb2dVertex
 10
10.55023420311412
 20
0.8573227058493987
 30
0.0
 70
     8
  0
VERTEX
  5
A19
330
A13
100
AcDbEntity
  8
0
370
    20
100
AcDbVertex
100
AcDb2dVertex
 10
10.5542268500782
 20
0.8597959830668706
 30
0.0
 70
     8
  0
VERTEX
  5
A1A
330
A13
100
AcDbEntity
  8
0
370
    20
100
AcDbVertex
100
AcDb2dVertex
 10
10.55619536455765
 20
0.8626655127673682
 30
0.0
 70
     8
  0
VERTEX
  5
A1B
330
A13
100
AcDbEntity
  8
0
370
    20
100
AcDbVertex
100
AcDb2dVertex
 10
10.55662625033292
 20
0.8657926064155455
 30
0.0
 70
     8
  0
VERTEX
  5
A1C
330
A13
100
AcDbEntity
  8
0
370
    20
100
AcDbVertex
100
AcDb2dVertex
 10
10.55600601118449
 20
0.8690385754760553
 30
0.0
 70
     8
  0
VERTEX
  5
A1D
330
A13
100
AcDbEntity
  8
0
370
    20
100
AcDbVertex
100
AcDb2dVertex
 10
10.55482115089281
 20
0.8722647314135514
 30
0.0
 70
     8
  0
VERTEX
  5
A1E
330
A13
100
AcDbEntity
  8
0
370
    20
100
AcDbVertex
100
AcDb2dVertex
 10
10.55347460030311
 20
0.8753566968814897
 30
0.0
 70
     8
  0
VERTEX
  5
A1F
330
A13
100
AcDbEntity
  8
0
370
    20
100
AcDbVertex
100
AcDb2dVertex
 10
10.55203499851974
 20
0.8782973392885356
 30
0.0
 70
     8
  0
VERTEX
  5
A20
330
A13
100
AcDbEntity
  8
0
370
    20
100
AcDbVertex
100
AcDb2dVertex
 10
10.55048741171179
 20
0.8810938372321572
 30
0.0
 70
     8
  0
VERTEX
  5
A21
330
A13
100
AcDbEntity
  8
0
370
    20
100
AcDbVertex
100
AcDb2dVertex
 10
10.54881690604837
 20
0.8837533693098226
 30
0.0
 70
     8
  0
VERTEX
  5
A22
330
A13
100
AcDbEntity
  8
0
370
    20
100
AcDbVertex
100
AcDb2dVertex
 10
10.54700854769858
 20
0.8862831141189996
 30
0.0
 70
     8
  0
VERTEX
  5
A23
330
A13
100
AcDbEntity
  8
0
370
    20
100
AcDbVertex
100
AcDb2dVertex
 10
10.54504740283154
 20
0.8886902502571562
 30
0.0
 70
     8
  0
VERTEX
  5
A24
330
A13
100
AcDbEntity
  8
0
370
    20
100
AcDbVertex
100
AcDb2dVertex
 10
10.54291853761635
 20
0.8909819563217604
 30
0.0
 70
     8
  0
VERTEX
  5
A25
330
A13
100
AcDbEntity
  8
0
370
    20
100
AcDbVertex
100
AcDb2dVertex
 10
10.54060701822211
 20
0.8931654109102803
 30
0.0
 70
     8
  0
VERTEX
  5
A26
330
A13
100
AcDbEntity
  8
0
370
    20
100
AcDbVertex
100
AcDb2dVertex
 10
10.53810528206391
 20
0.895246979041185
 30
0.0
 70
     8
  0
VERTEX
  5
A27
330
A13
100
AcDbEntity
  8
0
370
    20
100
AcDbVertex
100
AcDb2dVertex
 10
10.53543525154079
 20
0.8972297714169487
 30
0.0
 70
     8
  0
VERTEX
  5
A28
330
A13
100
AcDbEntity
  8
0
370
    20
100
AcDbVertex
100
AcDb2dVertex
 10
10.53262622029775
 20
0.8991160851610462
 30
0.0
 70
     8
  0
VERTEX
  5
A29
330
A13
100
AcDbEntity
  8
0
370
    20
100
AcDbVertex
100
AcDb2dVertex
 10
10.52970748197981
 20
0.9009082173969531
 30
0.0
 70
     8
  0
VERTEX
  5
A2A
330
A13
100
AcDbEntity
  8
0
370
    20
100
AcDbVertex
100
AcDb2dVertex
 10
10.526708330232
 20
0.9026084652481443
 30
0.0
 70
     8
  0
VERTEX
  5
A2B
330
A13
100
AcDbEntity
  8
0
370
    20
100
AcDbVertex
100
AcDb2dVertex
 10
10.52365805869932
 20
0.9042191258380954
 30
0.0
 70
     8
  0
VERTEX
  5
A2C
330
A13
100
AcDbEntity
  8
0
370
    20
100
AcDbVertex
100
AcDb2dVertex
 10
10.52058596102679
 20
0.9057424962902814
 30
0.0
 70
     8
  0
VERTEX
  5
A2D
330
A13
100
AcDbEntity
  8
0
370
    20
100
AcDbVertex
100
AcDb2dVertex
 10
10.51752133085942
 20
0.9071808737281775
 30
0.0
 70
     8
  0
VERTEX
  5
A2E
330
A13
100
AcDbEntity
  8
0
370
    20
100
AcDbVertex
100
AcDb2dVertex
 10
10.51448771795995
 20
0.908535119567313
 30
0.0
 70
     8
  0
VERTEX
  5
A2F
330
A13
100
AcDbEntity
  8
0
370
    20
100
AcDbVertex
100
AcDb2dVertex
 10
10.51148569656209
 20
0.9098003523914339
 30
0.0
 70
     8
  0
VERTEX
  5
A30
330
A13
100
AcDbEntity
  8
0
370
    20
100
AcDbVertex
100
AcDb2dVertex
 10
10.50851009701722
 20
0.9109702550763399
 30
0.0
 70
     8
  0
VERTEX
  5
A31
330
A13
100
AcDbEntity
  8
0
370
    20
100
AcDbVertex
100
AcDb2dVertex
 10
10.50555574967678
 20
0.9120385104978316
 30
0.0
 70
     8
  0
VERTEX
  5
A32
330
A13
100
AcDbEntity
  8
0
370
    20
100
AcDbVertex
100
AcDb2dVertex
 10
10.50261748489216
 20
0.9129988015317083
 30
0.0
 70
     8
  0
VERTEX
  5
A33
330
A13
100
AcDbEntity
  8
0
370
    20
100
AcDbVertex
100
AcDb2dVertex
 10
10.49969013301479
 20
0.9138448110537705
 30
0.0
 70
     8
  0
VERTEX
  5
A34
330
A13
100
AcDbEntity
  8
0
370
    20
100
AcDbVertex
100
AcDb2dVertex
 10
10.49676852439608
 20
0.9145702219398181
 30
0.0
 70
     8
  0
VERTEX
  5
A35
330
A13
100
AcDbEntity
  8
0
370
    20
100
AcDbVertex
100
AcDb2dVertex
 10
10.49384748938745
 20
0.9151687170656508
 30
0.0
 70
     8
  0
VERTEX
  5
A36
330
A13
100
AcDbEntity
  8
0
370
    20
100
AcDbVertex
100
AcDb2dVertex
 10
10.49091927367869
 20
0.9156363721382483
 30
0.0
 70
     8
  0
VERTEX
  5
A37
330
A13
100
AcDbEntity
  8
0
370
    20
100
AcDbVertex
100
AcDb2dVertex
 10
10.48796578431315
 20
0.9159788341893078
 30
0.0
 70
     8
  0
VERTEX
  5
A38
330
A13
100
AcDbEntity
  8
0
370
    20
100
AcDbVertex
100
AcDb2dVertex
 10
10.48496634367257
 20
0.916204143081706
 30
0.0
 70
     8
  0
VERTEX
  5
A39
330
A13
100
AcDbEntity
  8
0
370
    20
100
AcDbVertex
100
AcDb2dVertex
 10
10.48190027413869
 20
0.9163203386783195
 30
0.0
 70
     8
  0
VERTEX
  5
A3A
330
A13
100
AcDbEntity
  8
0
370
    20
100
AcDbVertex
100
AcDb2dVertex
 10
10.47874689809323
 20
0.9163354608420251
 30
0.0
 70
     8
  0
VERTEX
  5
A3B
330
A13
100
AcDbEntity
  8
0
370
    20
100
AcDbVertex
100
AcDb2dVertex
 10
10.47548553791794
 20
0.9162575494356991
 30
0.0
 70
     8
  0
VERTEX
  5
A3C
330
A13
100
AcDbEntity
  8
0
370
    20
100
AcDbVertex
100
AcDb2dVertex
 10
10.47209551599455
 20
0.9160946443222188
 30
0.0
 70
     8
  0
VERTEX
  5
A3D
330
A13
100
AcDbEntity
  8
0
370
    20
100
AcDbVertex
100
AcDb2dVertex
 10
10.4685561547048
 20
0.9158547853644604
 30
0.0
 70
     8
  0
VERTEX
  5
A3E
330
A13
100
AcDbEntity
  8
0
370
    20
100
AcDbVertex
100
AcDb2dVertex
 10
10.46485835978307
 20
0.9155425667862788
 30
0.0
 70
     8
  0
VERTEX
  5
A3F
330
A13
100
AcDbEntity
  8
0
370
    20
100
AcDbVertex
100
AcDb2dVertex
 10
10.46103937037439
 20
0.9151488002554419
 30
0.0
 70
     8
  0
VERTEX
  5
A40
330
A13
100
AcDbEntity
  8
0
370
    20
100
AcDbVertex
100
AcDb2dVertex
 10
10.45714800897642
 20
0.9146608518006955
 30
0.0
 70
     8
  0
VERTEX
  5
A41
330
A13
100
AcDbEntity
  8
0
370
    20
100
AcDbVertex
100
AcDb2dVertex
 10
10.45323309808684
 20
0.9140660874507855
 30
0.0
 70
     8
  0
VERTEX
  5
A42
330
A13
100
AcDbEntity
  8
0
370
    20
100
AcDbVertex
100
AcDb2dVertex
 10
10.44934346020331
 20
0.9133518732344578
 30
0.0
 70
     8
  0
VERTEX
  5
A43
330
A13
100
AcDbEntity
  8
0
370
    20
100
AcDbVertex
100
AcDb2dVertex
 10
10.44552791782351
 20
0.912505575180458
 30
0.0
 70
     8
  0
VERTEX
  5
A44
330
A13
100
AcDbEntity
  8
0
370
    20
100
AcDbVertex
100
AcDb2dVertex
 10
10.44183529344511
 20
0.9115145593175327
 30
0.0
 70
     8
  0
VERTEX
  5
A45
330
A13
100
AcDbEntity
  8
0
370
    20
100
AcDbVertex
100
AcDb2dVertex
 10
10.43831440956578
 20
0.9103661916744272
 30
0.0
 70
     8
  0
VERTEX
  5
A46
330
A13
100
AcDbEntity
  8
0
370
    20
100
AcDbVertex
100
AcDb2dVertex
 10
10.43500212239512
 20
0.9090500396379198
 30
0.0
 70
     8
  0
VERTEX
  5
A47
330
A13
100
AcDbEntity
  8
0
370
    20
100
AcDbVertex
100
AcDb2dVertex
 10
10.43188742299037
 20
0.9075644760269174
 30
0.0
 70
     8
  0
VERTEX
  5
A48
330
A13
100
AcDbEntity
  8
0
370
    20
100
AcDbVertex
100
AcDb2dVertex
 10
10.42894733612072
 20
0.905910075018359
 30
0.0
 70
     8
  0
VERTEX
  5
A49
330
A13
100
AcDbEntity
  8
0
370
    20
100
AcDbVertex
100
AcDb2dVertex
 10
10.42615888655535
 20
0.9040874107891839
 30
0.0
 70
     8
  0
VERTEX
  5
A4A
330
A13
100
AcDbEntity
  8
0
370
    20
100
AcDbVertex
100
AcDb2dVertex
 10
10.42349909906345
 20
0.902097057516331
 30
0.0
 70
     8
  0
VERTEX
  5
A4B
330
A13
100
AcDbEntity
  8
0
370
    20
100
AcDbVertex
100
AcDb2dVertex
 10
10.42094499841418
 20
0.8999395893767395
 30
0.0
 70
     8
  0
VERTEX
  5
A4C
330
A13
100
AcDbEntity
  8
0
370
    20
100
AcDbVertex
100
AcDb2dVertex
 10
10.41847360937673
 20
0.8976155805473487
 30
0.0
 70
     8
  0
VERTEX
  5
A4D
330
A13
100
AcDbEntity
  8
0
370
    20
100
AcDbVertex
100
AcDb2dVertex
 10
10.41606195672028
 20
0.8951256052050974
 30
0.0
 70
     8
  0
VERTEX
  5
A4E
330
A13
100
AcDbEntity
  8
0
370
    20
100
AcDbVertex
100
AcDb2dVertex
 10
10.41369596814069
 20
0.892471864661827
 30
0.0
 70
     8
  0
VERTEX
  5
A4F
330
A13
100
AcDbEntity
  8
0
370
    20
100
AcDbVertex
100
AcDb2dVertex
 10
10.41139718304055
 20
0.8896630687689871
 30
0.0
 70
     8
  0
VERTEX
  5
A50
330
A13
100
AcDbEntity
  8
0
370
    20
100
AcDbVertex
100
AcDb2dVertex
 10
10.40919604374917
 20
0.8867095545129297
 30
0.0
 70
     8
  0
VERTEX
  5
A51
330
A13
100
AcDbEntity
  8
0
370
    20
100
AcDbVertex
100
AcDb2dVertex
 10
10.4071229925958
 20
0.8836216588800064
 30
0.0
 70
     8
  0
VERTEX
  5
A52
330
A13
100
AcDbEntity
  8
0
370
    20
100
AcDbVertex
100
AcDb2dVertex
 10
10.40520847190975
 20
0.8804097188565695
 30
0.0
 70
     8
  0
VERTEX
  5
A53
330
A13
100
AcDbEntity
  8
0
370
    20
100
AcDbVertex
100
AcDb2dVertex
 10
10.40348292402029
 20
0.8770840714289702
 30
0.0
 70
     8
  0
VERTEX
  5
A54
330
A13
100
AcDbEntity
  8
0
370
    20
100
AcDbVertex
100
AcDb2dVertex
 10
10.4019767912567
 20
0.8736550535835609
 30
0.0
 70
     8
  0
VERTEX
  5
A55
330
A13
100
AcDbEntity
  8
0
370
    20
100
AcDbVertex
100
AcDb2dVertex
 10
10.40072051594827
 20
0.8701330023066931
 30
0.0
 70
     8
  0
VERTEX
  5
A56
330
A13
100
AcDbEntity
  8
0
370
    20
100
AcDbVertex
100
AcDb2dVertex
 10
10.39973640331422
 20
0.8665312217083151
 30
0.0
 70
     8
  0
VERTEX
  5
A57
330
A13
100
AcDbEntity
  8
0
370
    20
100
AcDbVertex
100
AcDb2dVertex
 10
10.39901421013354
 20
0.8628748843927581
 30
0.0
 70
     8
  0
VERTEX
  5
A58
330
A13
100
AcDbEntity
  8
0
370
    20
100
AcDbVertex
100
AcDb2dVertex
 10
10.39853555607516
 20
0.8591921300879501
 30
0.0
 70
     8
  0
VERTEX
  5
A59
330
A13
100
AcDbEntity
  8
0
370
    20
100
AcDbVertex
100
AcDb2dVertex
 10
10.39828206080802
 20
0.8555110985218188
 30
0.0
 70
     8
  0
VERTEX
  5
A5A
330
A13
100
AcDbEntity
  8
0
370
    20
100
AcDbVertex
100
AcDb2dVertex
 10
10.39823534400104
 20
0.8518599294222921
 30
0.0
 70
     8
  0
VERTEX
  5
A5B
330
A13
100
AcDbEntity
  8
0
370
    20
100
AcDbVertex
100
AcDb2dVertex
 10
10.39837702532316
 20
0.8482667625172975
 30
0.0
 70
     8
  0
VERTEX
  5
A5C
330
A13
100
AcDbEntity
  8
0
370
    20
100
AcDbVertex
100
AcDb2dVertex
 10
10.39868872444331
 20
0.844759737534763
 30
0.0
 70
     8
  0
VERTEX
  5
A5D
330
A13
100
AcDbEntity
  8
0
370
    20
100
AcDbVertex
100
AcDb2dVertex
 10
10.39915206103042
 20
0.841366994202616
 30
0.0
 70
     8
  0
VERTEX
  5
A5E
330
A13
100
AcDbEntity
  8
0
370
    20
100
AcDbVertex
100
AcDb2dVertex
 10
10.39975640896872
 20
0.8381102594515235
 30
0.0
 70
     8
  0
VERTEX
  5
A5F
330
A13
100
AcDbEntity
  8
0
370
    20
100
AcDbVertex
100
AcDb2dVertex
 10
10.40052215900367
 20
0.8349856090231082
 30
0.0
 70
     8
  0
VERTEX
  5
A60
330
A13
100
AcDbEntity
  8
0
370
    20
100
AcDbVertex
100
AcDb2dVertex
 10
10.40147745609599
 20
0.8319827058617315
 30
0.0
 70
     8
  0
VERTEX
  5
A61
330
A13
100
AcDbEntity
  8
0
370
    20
100
AcDbVertex
100
AcDb2dVertex
 10
10.40265044520645
 20
0.8290912129117554
 30
0.0
 70
     8
  0
VERTEX
  5
A62
330
A13
100
AcDbEntity
  8
0
370
    20
100
AcDbVertex
100
AcDb2dVertex
 10
10.40406927129579
 20
0.8263007931175412
 30
0.0
 70
     8
  0
VERTEX
  5
A63
330
A13
100
AcDbEntity
  8
0
370
    20
100
AcDbVertex
100
AcDb2dVertex
 10
10.40576207932475
 20
0.8236011094234507
 30
0.0
 70
     8
  0
VERTEX
  5
A64
330
A13
100
AcDbEntity
  8
0
370
    20
100
AcDbVertex
100
AcDb2dVertex
 10
10.40775701425409
 20
0.8209818247738457
 30
0.0
 70
     8
  0
VERTEX
  5
A65
330
A13
100
AcDbEntity
  8
0
370
    20
100
AcDbVertex
100
AcDb2dVertex
 10
10.41008222104454
 20
0.8184326021130878
 30
0.0
 70
     8
  0
VERTEX
  5
A66
330
A13
100
AcDbEntity
  8
0
370
    20
100
AcDbVertex
100
AcDb2dVertex
 10
10.41275703738609
 20
0.8159451143628055
 30
0.0
 70
     8
  0
VERTEX
  5
A67
330
A13
100
AcDbEntity
  8
0
370
    20
100
AcDbVertex
100
AcDb2dVertex
 10
10.41576557188558
 20
0.813519074353695
 30
0.0
 70
     8
  0
VERTEX
  5
A68
330
A13
100
AcDbEntity
  8
0
370
    20
100
AcDbVertex
100
AcDb2dVertex
 10
10.41908312587908
 20
0.8111562048937198
 30
0.0
 70
     8
  0
VERTEX
  5
A69
330
A13
100
AcDbEntity
  8
0
370
    20
100
AcDbVertex
100
AcDb2dVertex
 10
10.42268500070269
 20
0.8088582287908426
 30
0.0
 70
     8
  0
VERTEX
  5
A6A
330
A13
100
AcDbEntity
  8
0
370
    20
100
AcDbVertex
100
AcDb2dVertex
 10
10.42654649769247
 20
0.806626868853027
 30
0.0
 70
     8
  0
VERTEX
  5
A6B
330
A13
100
AcDbEntity
  8
0
370
    20
100
AcDbVertex
100
AcDb2dVertex
 10
10.43064291818451
 20
0.8044638478882358
 30
0.0
 70
     8
  0
VERTEX
  5
A6C
330
A13
100
AcDbEntity
  8
0
370
    20
100
AcDbVertex
100
AcDb2dVertex
 10
10.43494956351487
 20
0.8023708887044326
 30
0.0
 70
     8
  0
VERTEX
  5
A6D
330
A13
100
AcDbEntity
  8
0
370
    20
100
AcDbVertex
100
AcDb2dVertex
 10
10.43944173501964
 20
0.8003497141095804
 30
0.0
 70
     8
  0
VERTEX
  5
A6E
330
A13
100
AcDbEntity
  8
0
370
    20
100
AcDbVertex
100
AcDb2dVertex
 10
10.44409530844482
 20
0.7984001326651752
 30
0.0
 70
     8
  0
VERTEX
  5
A6F
330
A13
100
AcDbEntity
  8
0
370
    20
100
AcDbVertex
100
AcDb2dVertex
 10
10.44888845717605
 20
0.7965142959468441
 30
0.0
 70
     8
  0
VERTEX
  5
A70
330
A13
100
AcDbEntity
  8
0
370
    20
100
AcDbVertex
100
AcDb2dVertex
 10
10.45379992900894
 20
0.7946824412837476
 30
0.0
 70
     8
  0
VERTEX
  5
A71
330
A13
100
AcDbEntity
  8
0
370
    20
100
AcDbVertex
100
AcDb2dVertex
 10
10.45880847173905
 20
0.7928948060050455
 30
0.0
 70
     8
  0
VERTEX
  5
A72
330
A13
100
AcDbEntity
  8
0
370
    20
100
AcDbVertex
100
AcDb2dVertex
 10
10.46389283316198
 20
0.7911416274398984
 30
0.0
 70
     8
  0
VERTEX
  5
A73
330
A13
100
AcDbEntity
  8
0
370
    20
100
AcDbVertex
100
AcDb2dVertex
 10
10.46903176107329
 20
0.7894131429174661
 30
0.0
 70
     8
  0
VERTEX
  5
A74
330
A13
100
AcDbEntity
  8
0
370
    20
100
AcDbVertex
100
AcDb2dVertex
 10
10.47420400326858
 20
0.7876995897669091
 30
0.0
 70
     8
  0
VERTEX
  5
A75
330
A13
100
AcDbEntity
  8
0
370
    20
100
AcDbVertex
100
AcDb2dVertex
 10
10.47938830754342
 20
0.7859912053173872
 30
0.0
 70
     8
  0
VERTEX
  5
A76
330
A13
100
AcDbEntity
  8
0
370
    20
100
AcDbVertex
100
AcDb2dVertex
 10
10.48455786928563
 20
0.7842788968750862
 30
0.0
 70
     8
  0
VERTEX
  5
A77
330
A13
100
AcDbEntity
  8
0
370
    20
100
AcDbVertex
100
AcDb2dVertex
 10
10.48966367425189
 20
0.7825562516542926
 30
0.0
 70
     8
  0
VERTEX
  5
A78
330
A13
100
AcDbEntity
  8
0
370
    20
100
AcDbVertex
100
AcDb2dVertex
 10
10.49465115579115
 20
0.7808175268463185
 30
0.0
 70
     8
  0
VERTEX
  5
A79
330
A13
100
AcDbEntity
  8
0
370
    20
100
AcDbVertex
100
AcDb2dVertex
 10
10.49946574725233
 20
0.7790569796424762
 30
0.0
 70
     8
  0
VERTEX
  5
A7A
330
A13
100
AcDbEntity
  8
0
370
    20
100
AcDbVertex
100
AcDb2dVertex
 10
10.50405288198436
 20
0.7772688672340773
 30
0.0
 70
     8
  0
VERTEX
  5
A7B
330
A13
100
AcDbEntity
  8
0
370
    20
100
AcDbVertex
100
AcDb2dVertex
 10
10.50835799333617
 20
0.7754474468124344
 30
0.0
 70
     8
  0
VERTEX
  5
A7C
330
A13
100
AcDbEntity
  8
0
370
    20
100
AcDbVertex
100
AcDb2dVertex
 10
10.51232651465669
 20
0.773586975568859
 30
0.0
 70
     8
  0
VERTEX
  5
A7D
330
A13
100
AcDbEntity
  8
0
370
    20
100
AcDbVertex
100
AcDb2dVertex
 10
10.51590387929484
 20
0.7716817106946638
 30
0.0
 70
     8
  0
VERTEX
  5
A7E
330
A13
100
AcDbEntity
  8
0
370
    20
100
AcDbVertex
100
AcDb2dVertex
 10
10.5190497845273
 20
0.7697283022123398
 30
0.0
 70
     8
  0
VERTEX
  5
A7F
330
A13
100
AcDbEntity
  8
0
370
    20
100
AcDbVertex
100
AcDb2dVertex
 10
10.52178098334177
 20
0.7677329714690964
 30
0.0
 70
     8
  0
VERTEX
  5
A80
330
A13
100
AcDbEntity
  8
0
370
    20
100
AcDbVertex
100
AcDb2dVertex
 10
10.52412849265367
 20
0.7657043326433223
 30
0.0
 70
     8
  0
VERTEX
  5
A81
330
A13
100
AcDbEntity
  8
0
370
    20
100
AcDbVertex
100
AcDb2dVertex
 10
10.52612332937844
 20
0.7636509999134064
 30
0.0
 70
     8
  0
VERTEX
  5
A82
330
A13
100
AcDbEntity
  8
0
370
    20
100
AcDbVertex
100
AcDb2dVertex
 10
10.52779651043153
 20
0.7615815874577371
 30
0.0
 70
     8
  0
VERTEX
  5
A83
330
A13
100
AcDbEntity
  8
0
370
    20
100
AcDbVertex
100
AcDb2dVertex
 10
10.52917905272837
 20
0.7595047094547031
 30
0.0
 70
     8
  0
VERTEX
  5
A84
330
A13
100
AcDbEntity
  8
0
370
    20
100
AcDbVertex
100
AcDb2dVertex
 10
10.53030197318438
 20
0.7574289800826933
 30
0.0
 70
     8
  0
VERTEX
  5
A85
330
A13
100
AcDbEntity
  8
0
370
    20
100
AcDbVertex
100
AcDb2dVertex
 10
10.53119628871503
 20
0.7553630135200962
 30
0.0
 70
     8
  0
VERTEX
  5
A86
330
A13
100
AcDbEntity
  8
0
370
    20
100
AcDbVertex
100
AcDb2dVertex
 10
10.53188717662977
 20
0.753313509675738
 30
0.0
 70
     8
  0
VERTEX
  5
A87
330
A13
100
AcDbEntity
  8
0
370
    20
100
AcDbVertex
100
AcDb2dVertex
 10
10.53237645581428
 20
0.751279511380194
 30
0.0
 70
     8
  0
VERTEX
  5
A88
330
A13
100
AcDbEntity
  8
0
370
    20
100
AcDbVertex
100
AcDb2dVertex
 10
10.53266010554824
 20
0.7492581471944772
 30
0.0
 70
     8
  0
VERTEX
  5
A89
330
A13
100
AcDbEntity
  8
0
370
    20
100
AcDbVertex
100
AcDb2dVertex
 10
10.53273410511137
 20
0.7472465456796002
 30
0.0
 70
     8
  0
VERTEX
  5
A8A
330
A13
100
AcDbEntity
  8
0
370
    20
100
AcDbVertex
100
AcDb2dVertex
 10
10.53259443378337
 20
0.7452418353965756
 30
0.0
 70
     8
  0
VERTEX
  5
A8B
330
A13
100
AcDbEntity
  8
0
370
    20
100
AcDbVertex
100
AcDb2dVertex
 10
10.53223707084394
 20
0.7432411449064166
 30
0.0
 70
     8
  0
VERTEX
  5
A8C
330
A13
100
AcDbEntity
  8
0
370
    20
100
AcDbVertex
100
AcDb2dVertex
 10
10.53165799557278
 20
0.7412416027701357
 30
0.0
 70
     8
  0
VERTEX
  5
A8D
330
A13
100
AcDbEntity
  8
0
370
    20
100
AcDbVertex
100
AcDb2dVertex
 10
10.53085318724959
 20
0.7392403375487456
 30
0.0
 70
     8
  0
VERTEX
  5
A8E
330
A13
100
AcDbEntity
  8
0
370
    20
100
AcDbVertex
100
AcDb2dVertex
 10
10.52982044403973
 20
0.7372373492191512
 30
0.0
 70
     8
  0
VERTEX
  5
A8F
330
A13
100
AcDbEntity
  8
0
370
    20
100
AcDbVertex
100
AcDb2dVertex
 10
10.52856483965119
 20
0.7352441234218233
 30
0.0
 70
     8
  0
VERTEX
  5
A90
330
A13
100
AcDbEntity
  8
0
370
    20
100
AcDbVertex
100
AcDb2dVertex
 10
10.52709326667762
 20
0.7332750172131256
 30
0.0
 70
     8
  0
VERTEX
  5
A91
330
A13
100
AcDbEntity
  8
0
370
    20
100
AcDbVertex
100
AcDb2dVertex
 10
10.52541261771267
 20
0.731344387649421
 30
0.0
 70
     8
  0
VERTEX
  5
A92
330
A13
100
AcDbEntity
  8
0
370
    20
100
AcDbVertex
100
AcDb2dVertex
 10
10.52352978534999
 20
0.7294665917870727
 30
0.0
 70
     8
  0
VERTEX
  5
A93
330
A13
100
AcDbEntity
  8
0
370
    20
100
AcDbVertex
100
AcDb2dVertex
 10
10.52145166218322
 20
0.7276559866824436
 30
0.0
 70
     8
  0
VERTEX
  5
A94
330
A13
100
AcDbEntity
  8
0
370
    20
100
AcDbVertex
100
AcDb2dVertex
 10
10.51918514080601
 20
0.725926929391897
 30
0.0
 70
     8
  0
VERTEX
  5
A95
330
A13
100
AcDbEntity
  8
0
370
    20
100
AcDbVertex
100
AcDb2dVertex
 10
10.51673711381202
 20
0.724293776971796
 30
0.0
 70
     8
  0
VERTEX
  5
A96
330
A13
100
AcDbEntity
  8
0
370
    20
100
AcDbVertex
100
AcDb2dVertex
 10
10.51411772863078
 20
0.7227691636128019
 30
0.0
 70
     8
  0
VERTEX
  5
A97
330
A13
100
AcDbEntity
  8
0
370
    20
100
AcDbVertex
100
AcDb2dVertex
 10
10.51135015203537
 20
0.7213588320427684
 30
0.0
 70
     8
  0
VERTEX
  5
A98
330
A13
100
AcDbEntity
  8
0
370
    20
100
AcDbVertex
100
AcDb2dVertex
 10
10.5084608056348
 20
0.7200668021238474
 30
0.0
 70
     8
  0
VERTEX
  5
A99
330
A13
100
AcDbEntity
  8
0
370
    20
100
AcDbVertex
100
AcDb2dVertex
 10
10.50547611103804
 20
0.7188970937181906
 30
0.0
 70
     8
  0
VERTEX
  5
A9A
330
A13
100
AcDbEntity
  8
0
370
    20
100
AcDbVertex
100
AcDb2dVertex
 10
10.50242248985408
 20
0.7178537266879501
 30
0.0
 70
     8
  0
VERTEX
  5
A9B
330
A13
100
AcDbEntity
  8
0
370
    20
100
AcDbVertex
100
AcDb2dVertex
 10
10.4993263636919
 20
0.7169407208952774
 30
0.0
 70
     8
  0
VERTEX
  5
A9C
330
A13
100
AcDbEntity
  8
0
370
    20
100
AcDbVertex
100
AcDb2dVertex
 10
10.49621415416048
 20
0.7161620962023249
 30
0.0
 70
     8
  0
VERTEX
  5
A9D
330
A13
100
AcDbEntity
  8
0
370
    20
100
AcDbVertex
100
AcDb2dVertex
 10
10.49311228286882
 20
0.7155218724712439
 30
0.0
 70
     8
  0
VERTEX
  5
A9E
330
A13
100
AcDbEntity
  8
0
370
    20
100
AcDbVertex
100
AcDb2dVertex
 10
10.49004114042679
 20
0.7150228253062925
 30
0.0
 70
     8
  0
VERTEX
  5
A9F
330
A13
100
AcDbEntity
  8
0
370
    20
100
AcDbVertex
100
AcDb2dVertex
 10
10.48699699344784
 20
0.7146627532801518
 30
0.0
 70
     8
  0
VERTEX
  5
AA0
330
A13
100
AcDbEntity
  8
0
370
    20
100
AcDbVertex
100
AcDb2dVertex
 10
10.4839700775463
 20
0.7144382107076094
 30
0.0
 70
     8
  0
VERTEX
  5
AA1
330
A13
100
AcDbEntity
  8
0
370
    20
100
AcDbVertex
100
AcDb2dVertex
 10
10.48095062833653
 20
0.7143457519034522
 30
0.0
 70
     8
  0
VERTEX
  5
AA2
330
A13
100
AcDbEntity
  8
0
370
    20
100
AcDbVertex
100
AcDb2dVertex
 10
10.47792888143286
 20
0.7143819311824675
 30
0.0
 70
     8
  0
VERTEX
  5
AA3
330
A13
100
AcDbEntity
  8
0
370
    20
100
AcDbVertex
100
AcDb2dVertex
 10
10.47489507244964
 20
0.7145433028594427
 30
0.0
 70
     8
  0
VERTEX
  5
AA4
330
A13
100
AcDbEntity
  8
0
370
    20
100
AcDbVertex
100
AcDb2dVertex
 10
10.47183943700121
 20
0.7148264212491648
 30
0.0
 70
     8
  0
VERTEX
  5
AA5
330
A13
100
AcDbEntity
  8
0
370
    20
100
AcDbVertex
100
AcDb2dVertex
 10
10.4687522107019
 20
0.7152278406664211
 30
0.0
 70
     8
  0
VERTEX
  5
AA6
330
A13
100
AcDbEntity
  8
0
370
    20
100
AcDbVertex
100
AcDb2dVertex
 10
10.46562956444148
 20
0.7157453597185364
 30
0.0
 70
     8
  0
VERTEX
  5
AA7
330
A13
100
AcDbEntity
  8
0
370
    20
100
AcDbVertex
100
AcDb2dVertex
 10
10.46249141021139
 20
0.7163817541829843
 30
0.0
 70
     8
  0
VERTEX
  5
AA8
330
A13
100
AcDbEntity
  8
0
370
    20
100
AcDbVertex
100
AcDb2dVertex
 10
10.45936359527847
 20
0.7171410441297761
 30
0.0
 70
     8
  0
VERTEX
  5
AA9
330
A13
100
AcDbEntity
  8
0
370
    20
100
AcDbVertex
100
AcDb2dVertex
 10
10.45627196690957
 20
0.7180272496289232
 30
0.0
 70
     8
  0
VERTEX
  5
AAA
330
A13
100
AcDbEntity
  8
0
370
    20
100
AcDbVertex
100
AcDb2dVertex
 10
10.45324237237155
 20
0.7190443907504368
 30
0.0
 70
     8
  0
VERTEX
  5
AAB
330
A13
100
AcDbEntity
  8
0
370
    20
100
AcDbVertex
100
AcDb2dVertex
 10
10.45030065893125
 20
0.7201964875643282
 30
0.0
 70
     8
  0
VERTEX
  5
AAC
330
A13
100
AcDbEntity
  8
0
370
    20
100
AcDbVertex
100
AcDb2dVertex
 10
10.44747267385552
 20
0.7214875601406085
 30
0.0
 70
     8
  0
VERTEX
  5
AAD
330
A13
100
AcDbEntity
  8
0
370
    20
100
AcDbVertex
100
AcDb2dVertex
 10
10.44478426441122
 20
0.7229216285492891
 30
0.0
 70
     8
  0
VERTEX
  5
AAE
330
A13
100
AcDbEntity
  8
0
370
    20
100
AcDbVertex
100
AcDb2dVertex
 10
10.44225696998739
 20
0.7244972571748062
 30
0.0
 70
     8
  0
VERTEX
  5
AAF
330
A13
100
AcDbEntity
  8
0
370
    20
100
AcDbVertex
100
AcDb2dVertex
 10
10.43989509846184
 20
0.7261911876592948
 30
0.0
 70
     8
  0
VERTEX
  5
AB0
330
A13
100
AcDbEntity
  8
0
370
    20
100
AcDbVertex
100
AcDb2dVertex
 10
10.43769864983456
 20
0.7279747059593156
 30
0.0
 70
     8
  0
VERTEX
  5
AB1
330
A13
100
AcDbEntity
  8
0
370
    20
100
AcDbVertex
100
AcDb2dVertex
 10
10.43566762410556
 20
0.7298190980314287
 30
0.0
 70
     8
  0
VERTEX
  5
AB2
330
A13
100
AcDbEntity
  8
0
370
    20
100
AcDbVertex
100
AcDb2dVertex
 10
10.43380202127484
 20
0.7316956498321942
 30
0.0
 70
     8
  0
VERTEX
  5
AB3
330
A13
100
AcDbEntity
  8
0
370
    20
100
AcDbVertex
100
AcDb2dVertex
 10
10.43210184134239
 20
0.7335756473181726
 30
0.0
 70
     8
  0
VERTEX
  5
AB4
330
A13
100
AcDbEntity
  8
0
370
    20
100
AcDbVertex
100
AcDb2dVertex
 10
10.43056708430822
 20
0.7354303764459242
 30
0.0
 70
     8
  0
VERTEX
  5
AB5
330
A13
100
AcDbEntity
  8
0
370
    20
100
AcDbVertex
100
AcDb2dVertex
 10
10.42919775017232
 20
0.737231123172009
 30
0.0
 70
     8
  0
VERTEX
  5
AB6
330
A13
100
AcDbEntity
  8
0
370
    20
100
AcDbVertex
100
AcDb2dVertex
 10
10.42799202004905
 20
0.738954629127015
 30
0.0
 70
     8
  0
VERTEX
  5
AB7
330
A13
100
AcDbEntity
  8
0
370
    20
100
AcDbVertex
100
AcDb2dVertex
 10
10.4269407995101
 20
0.7405994586376391
 30
0.0
 70
     8
  0
VERTEX
  5
AB8
330
A13
100
AcDbEntity
  8
0
370
    20
100
AcDbVertex
100
AcDb2dVertex
 10
10.42603317524154
 20
0.7421696317046066
 30
0.0
 70
     8
  0
VERTEX
  5
AB9
330
A13
100
AcDbEntity
  8
0
370
    20
100
AcDbVertex
100
AcDb2dVertex
 10
10.42525823392942
 20
0.743669168328642
 30
0.0
 70
     8
  0
VERTEX
  5
ABA
330
A13
100
AcDbEntity
  8
0
370
    20
100
AcDbVertex
100
AcDb2dVertex
 10
10.42460506225979
 20
0.7451020885104702
 30
0.0
 70
     8
  0
VERTEX
  5
ABB
330
A13
100
AcDbEntity
  8
0
370
    20
100
AcDbVertex
100
AcDb2dVertex
 10
10.4240627469187
 20
0.7464724122508156
 30
0.0
 70
     8
  0
VERTEX
  5
ABC
330
A13
100
AcDbEntity
  8
0
370
    20
100
AcDbVertex
100
AcDb2dVertex
 10
10.42362037459221
 20
0.7477841595504035
 30
0.0
 70
     8
  0
VERTEX
  5
ABD
330
A13
100
AcDbEntity
  8
0
370
    20
100
AcDbVertex
100
AcDb2dVertex
 10
10.42326703196638
 20
0.7490413504099584
 30
0.0
 70
     8
  0
VERTEX
  5
ABE
330
A13
100
AcDbEntity
  8
0
370
    20
100
AcDbVertex
100
AcDb2dVertex
 10
10.42297869060577
 20
0.7502457077067298
 30
0.0
 70
     8
  0
VERTEX
  5
ABF
330
A13
100
AcDbEntity
  8
0
370
    20
100
AcDbVertex
100
AcDb2dVertex
 10
10.42267886158909
 20
0.7513897658240669
 30
0.0
 70
     8
  0
VERTEX
  5
AC0
330
A13
100
AcDbEntity
  8
0
370
    20
100
AcDbVertex
100
AcDb2dVertex
 10
10.42227794087354
 20
0.7524637620218431
 30
0.0
 70
     8
  0
VERTEX
  5
AC1
330
A13
100
AcDbEntity
  8
0
370
    20
100
AcDbVertex
100
AcDb2dVertex
 10
10.42168632441634
 20
0.7534579335599325
 30
0.0
 70
     8
  0
VERTEX
  5
AC2
330
A13
100
AcDbEntity
  8
0
370
    20
100
AcDbVertex
100
AcDb2dVertex
 10
10.4208144081747
 20
0.7543625176982083
 30
0.0
 70
     8
  0
VERTEX
  5
AC3
330
A13
100
AcDbEntity
  8
0
370
    20
100
AcDbVertex
100
AcDb2dVertex
 10
10.41957258810582
 20
0.7551677516965447
 30
0.0
 70
     8
  0
VERTEX
  5
AC4
330
A13
100
AcDbEntity
  8
0
370
    20
100
AcDbVertex
100
AcDb2dVertex
 10
10.41787126016695
 20
0.7558638728148153
 30
0.0
 70
     8
  0
VERTEX
  5
AC5
330
A13
100
AcDbEntity
  8
0
370
    20
100
AcDbVertex
100
AcDb2dVertex
 10
10.41562082031527
 20
0.7564411183128938
 30
0.0
 70
     8
  0
VERTEX
  5
AC6
330
A13
100
AcDbEntity
  8
0
370
    20
100
AcDbVertex
100
AcDb2dVertex
 10
10.41277141182653
 20
0.7568933268926488
 30
0.0
 70
     8
  0
VERTEX
  5
AC7
330
A13
100
AcDbEntity
  8
0
370
    20
100
AcDbVertex
100
AcDb2dVertex
 10
10.40943216725061
 20
0.757228743023929
 30
0.0
 70
     8
  0
VERTEX
  5
AC8
330
A13
100
AcDbEntity
  8
0
370
    20
100
AcDbVertex
100
AcDb2dVertex
 10
10.4057519664559
 20
0.7574592126185779
 30
0.0
 70
     8
  0
VERTEX
  5
AC9
330
A13
100
AcDbEntity
  8
0
370
    20
100
AcDbVertex
100
AcDb2dVertex
 10
10.40187968931081
 20
0.7575965815884392
 30
0.0
 70
     8
  0
VERTEX
  5
ACA
330
A13
100
AcDbEntity
  8
0
370
    20
100
AcDbVertex
100
AcDb2dVertex
 10
10.39796421568373
 20
0.7576526958453567
 30
0.0
 70
     8
  0
VERTEX
  5
ACB
330
A13
100
AcDbEntity
  8
0
370
    20
100
AcDbVertex
100
AcDb2dVertex
 10
10.39415442544307
 20
0.7576394013011735
 30
0.0
 70
     8
  0
VERTEX
  5
ACC
330
A13
100
AcDbEntity
  8
0
370
    20
100
AcDbVertex
100
AcDb2dVertex
 10
10.39059919845722
 20
0.7575685438677337
 30
0.0
 70
     8
  0
VERTEX
  5
ACD
330
A13
100
AcDbEntity
  8
0
370
    20
100
AcDbVertex
100
AcDb2dVertex
 10
10.38744741459459
 20
0.7574519694568807
 30
0.0
 70
     8
  0
VERTEX
  5
ACE
330
A13
100
AcDbEntity
  8
0
370
    20
100
AcDbVertex
100
AcDb2dVertex
 10
10.38482119381306
 20
0.7572892689336518
 30
0.0
 70
     8
  0
VERTEX
  5
ACF
330
A13
100
AcDbEntity
  8
0
370
    20
100
AcDbVertex
100
AcDb2dVertex
 10
10.3827356164285
 20
0.7570310129758595
 30
0.0
 70
     8
  0
VERTEX
  5
AD0
330
A13
100
AcDbEntity
  8
0
370
    20
100
AcDbVertex
100
AcDb2dVertex
 10
10.38117900284626
 20
0.7566155172145101
 30
0.0
 70
     8
  0
VERTEX
  5
AD1
330
A13
100
AcDbEntity
  8
0
370
    20
100
AcDbVertex
100
AcDb2dVertex
 10
10.3801396734717
 20
0.7559810972806101
 30
0.0
 70
     8
  0
VERTEX
  5
AD2
330
A13
100
AcDbEntity
  8
0
370
    20
100
AcDbVertex
100
AcDb2dVertex
 10
10.37960594871016
 20
0.7550660688051655
 30
0.0
 70
     8
  0
VERTEX
  5
AD3
330
A13
100
AcDbEntity
  8
0
370
    20
100
AcDbVertex
100
AcDb2dVertex
 10
10.37956614896701
 20
0.7538087474191829
 30
0.0
 70
     8
  0
VERTEX
  5
AD4
330
A13
100
AcDbEntity
  8
0
370
    20
100
AcDbVertex
100
AcDb2dVertex
 10
10.38000859464759
 20
0.7521474487536685
 30
0.0
 70
     8
  0
VERTEX
  5
AD5
330
A13
100
AcDbEntity
  8
0
370
    20
100
AcDbVertex
100
AcDb2dVertex
 10
10.38092160615725
 20
0.7500204884396285
 30
0.0
 70
     8
  0
VERTEX
  5
AD6
330
A13
100
AcDbEntity
  8
0
370
    20
100
AcDbVertex
100
AcDb2dVertex
 10
10.3822880264269
 20
0.7473911773554446
 30
0.0
 70
     8
  0
VERTEX
  5
AD7
330
A13
100
AcDbEntity
  8
0
370
    20
100
AcDbVertex
100
AcDb2dVertex
 10
10.38406878848959
 20
0.7443228073690002
 30
0.0
 70
     8
  0
VERTEX
  5
AD8
330
A13
100
AcDbEntity
  8
0
370
    20
100
AcDbVertex
100
AcDb2dVertex
 10
10.38621934790391
 20
0.7409036655955537
 30
0.0
 70
     8
  0
VERTEX
  5
AD9
330
A13
100
AcDbEntity
  8
0
370
    20
100
AcDbVertex
100
AcDb2dVertex
 10
10.38869516022848
 20
0.7372220391503638
 30
0.0
 70
     8
  0
VERTEX
  5
ADA
330
A13
100
AcDbEntity
  8
0
370
    20
100
AcDbVertex
100
AcDb2dVertex
 10
10.39145168102187
 20
0.7333662151486889
 30
0.0
 70
     8
  0
VERTEX
  5
ADB
330
A13
100
AcDbEntity
  8
0
370
    20
100
AcDbVertex
100
AcDb2dVertex
 10
10.39444436584269
 20
0.729424480705788
 30
0.0
 70
     8
  0
VERTEX
  5
ADC
330
A13
100
AcDbEntity
  8
0
370
    20
100
AcDbVertex
100
AcDb2dVertex
 10
10.39762867024955
 20
0.7254851229369192
 30
0.0
 70
     8
  0
VERTEX
  5
ADD
330
A13
100
AcDbEntity
  8
0
370
    20
100
AcDbVertex
100
AcDb2dVertex
 10
10.40096004980104
 20
0.7216364289573415
 30
0.0
 70
     8
  0
VERTEX
  5
ADE
330
A13
100
AcDbEntity
  8
0
370
    20
100
AcDbVertex
100
AcDb2dVertex
 10
10.40439650989559
 20
0.7179540867935629
 30
0.0
 70
     8
  0
VERTEX
  5
ADF
330
A13
100
AcDbEntity
  8
0
370
    20
100
AcDbVertex
100
AcDb2dVertex
 10
10.40790625529099
 20
0.7144633881170904
 30
0.0
 70
     8
  0
VERTEX
  5
AE0
330
A13
100
AcDbEntity
  8
0
370
    20
100
AcDbVertex
100
AcDb2dVertex
 10
10.41146004058487
 20
0.7111770255106804
 30
0.0
 70
     8
  0
VERTEX
  5
AE1
330
A13
100
AcDbEntity
  8
0
370
    20
100
AcDbVertex
100
AcDb2dVertex
 10
10.41502862037486
 20
0.7081076915570891
 30
0.0
 70
     8
  0
VERTEX
  5
AE2
330
A13
100
AcDbEntity
  8
0
370
    20
100
AcDbVertex
100
AcDb2dVertex
 10
10.41858274925858
 20
0.7052680788390733
 30
0.0
 70
     8
  0
VERTEX
  5
AE3
330
A13
100
AcDbEntity
  8
0
370
    20
100
AcDbVertex
100
AcDb2dVertex
 10
10.42209318183366
 20
0.7026708799393893
 30
0.0
 70
     8
  0
VERTEX
  5
AE4
330
A13
100
AcDbEntity
  8
0
370
    20
100
AcDbVertex
100
AcDb2dVertex
 10
10.42553067269773
 20
0.7003287874407937
 30
0.0
 70
     8
  0
VERTEX
  5
AE5
330
A13
100
AcDbEntity
  8
0
370
    20
100
AcDbVertex
100
AcDb2dVertex
 10
10.42886597644842
 20
0.6982544939260423
 30
0.0
 70
     8
  0
VERTEX
  5
AE6
330
A13
100
AcDbEntity
  8
0
370
    20
100
AcDbVertex
100
AcDb2dVertex
 10
10.43208586616899
 20
0.6964548532775443
 30
0.0
 70
     8
  0
VERTEX
  5
AE7
330
A13
100
AcDbEntity
  8
0
370
    20
100
AcDbVertex
100
AcDb2dVertex
 10
10.43524118888533
 20
0.6949133645763143
 30
0.0
 70
     8
  0
VERTEX
  5
AE8
330
A13
100
AcDbEntity
  8
0
370
    20
100
AcDbVertex
100
AcDb2dVertex
 10
10.43839881010897
 20
0.6936076882030199
 30
0.0
 70
     8
  0
VERTEX
  5
AE9
330
A13
100
AcDbEntity
  8
0
370
    20
100
AcDbVertex
100
AcDb2dVertex
 10
10.44162559535143
 20
0.6925154845383279
 30
0.0
 70
     8
  0
VERTEX
  5
AEA
330
A13
100
AcDbEntity
  8
0
370
    20
100
AcDbVertex
100
AcDb2dVertex
 10
10.44498841012425
 20
0.6916144139629056
 30
0.0
 70
     8
  0
VERTEX
  5
AEB
330
A13
100
AcDbEntity
  8
0
370
    20
100
AcDbVertex
100
AcDb2dVertex
 10
10.44855411993895
 20
0.6908821368574202
 30
0.0
 70
     8
  0
VERTEX
  5
AEC
330
A13
100
AcDbEntity
  8
0
370
    20
100
AcDbVertex
100
AcDb2dVertex
 10
10.45238959030705
 20
0.6902963136025386
 30
0.0
 70
     8
  0
VERTEX
  5
AED
330
A13
100
AcDbEntity
  8
0
370
    20
100
AcDbVertex
100
AcDb2dVertex
 10
10.4565616867401
 20
0.689834604578928
 30
0.0
 70
     8
  0
VERTEX
  5
AEE
330
A13
100
AcDbEntity
  8
0
370
    20
100
AcDbVertex
100
AcDb2dVertex
 10
10.46111414833474
 20
0.6894804622039774
 30
0.0
 70
     8
  0
VERTEX
  5
AEF
330
A13
100
AcDbEntity
  8
0
370
    20
100
AcDbVertex
100
AcDb2dVertex
 10
10.46599820852815
 20
0.6892405070419616
 30
0.0
 70
     8
  0
VERTEX
  5
AF0
330
A13
100
AcDbEntity
  8
0
370
    20
100
AcDbVertex
100
AcDb2dVertex
 10
10.47114197434264
 20
0.6891271516938783
 30
0.0
 70
     8
  0
VERTEX
  5
AF1
330
A13
100
AcDbEntity
  8
0
370
    20
100
AcDbVertex
100
AcDb2dVertex
 10
10.4764735528005
 20
0.6891528087607242
 30
0.0
 70
     8
  0
VERTEX
  5
AF2
330
A13
100
AcDbEntity
  8
0
370
    20
100
AcDbVertex
100
AcDb2dVertex
 10
10.48192105092404
 20
0.6893298908434963
 30
0.0
 70
     8
  0
VERTEX
  5
AF3
330
A13
100
AcDbEntity
  8
0
370
    20
100
AcDbVertex
100
AcDb2dVertex
 10
10.48741257573555
 20
0.6896708105431917
 30
0.0
 70
     8
  0
VERTEX
  5
AF4
330
A13
100
AcDbEntity
  8
0
370
    20
100
AcDbVertex
100
AcDb2dVertex
 10
10.49287623425736
 20
0.6901879804608072
 30
0.0
 70
     8
  0
VERTEX
  5
AF5
330
A13
100
AcDbEntity
  8
0
370
    20
100
AcDbVertex
100
AcDb2dVertex
 10
10.49824013351175
 20
0.6908938131973402
 30
0.0
 70
     8
  0
VERTEX
  5
AF6
330
A13
100
AcDbEntity
  8
0
370
    20
100
AcDbVertex
100
AcDb2dVertex
 10
10.50344308643139
 20
0.6917988358150126
 30
0.0
 70
     8
  0
VERTEX
  5
AF7
330
A13
100
AcDbEntity
  8
0
370
    20
100
AcDbVertex
100
AcDb2dVertex
 10
10.50846672959039
 20
0.6929060332209464
 30
0.0
 70
     8
  0
VERTEX
  5
AF8
330
A13
100
AcDbEntity
  8
0
370
    20
100
AcDbVertex
100
AcDb2dVertex
 10
10.51330340547321
 20
0.6942165047834888
 30
0.0
 70
     8
  0
VERTEX
  5
AF9
330
A13
100
AcDbEntity
  8
0
370
    20
100
AcDbVertex
100
AcDb2dVertex
 10
10.51794545656433
 20
0.6957313498709868
 30
0.0
 70
     8
  0
VERTEX
  5
AFA
330
A13
100
AcDbEntity
  8
0
370
    20
100
AcDbVertex
100
AcDb2dVertex
 10
10.5223852253482
 20
0.6974516678517877
 30
0.0
 70
     8
  0
VERTEX
  5
AFB
330
A13
100
AcDbEntity
  8
0
370
    20
100
AcDbVertex
100
AcDb2dVertex
 10
10.5266150543093
 20
0.6993785580942387
 30
0.0
 70
     8
  0
VERTEX
  5
AFC
330
A13
100
AcDbEntity
  8
0
370
    20
100
AcDbVertex
100
AcDb2dVertex
 10
10.5306272859321
 20
0.7015131199666867
 30
0.0
 70
     8
  0
VERTEX
  5
AFD
330
A13
100
AcDbEntity
  8
0
370
    20
100
AcDbVertex
100
AcDb2dVertex
 10
10.53441426270105
 20
0.7038564528374791
 30
0.0
 70
     8
  0
VERTEX
  5
AFE
330
A13
100
AcDbEntity
  8
0
370
    20
100
AcDbVertex
100
AcDb2dVertex
 10
10.53796950821247
 20
0.7064051956779159
 30
0.0
 70
     8
  0
VERTEX
  5
AFF
330
A13
100
AcDbEntity
  8
0
370
    20
100
AcDbVertex
100
AcDb2dVertex
 10
10.54129127051
 20
0.7091381458711101
 30
0.0
 70
     8
  0
VERTEX
  5
B00
330
A13
100
AcDbEntity
  8
0
370
    20
100
AcDbVertex
100
AcDb2dVertex
 10
10.54437897874913
 20
0.7120296404031273
 30
0.0
 70
     8
  0
VERTEX
  5
B01
330
A13
100
AcDbEntity
  8
0
370
    20
100
AcDbVertex
100
AcDb2dVertex
 10
10.54723206208536
 20
0.7150540162600336
 30
0.0
 70
     8
  0
VERTEX
  5
B02
330
A13
100
AcDbEntity
  8
0
370
    20
100
AcDbVertex
100
AcDb2dVertex
 10
10.54984994967417
 20
0.7181856104278947
 30
0.0
 70
     8
  0
VERTEX
  5
B03
330
A13
100
AcDbEntity
  8
0
370
    20
100
AcDbVertex
100
AcDb2dVertex
 10
10.55223207067105
 20
0.7213987598927766
 30
0.0
 70
     8
  0
VERTEX
  5
B04
330
A13
100
AcDbEntity
  8
0
370
    20
100
AcDbVertex
100
AcDb2dVertex
 10
10.55437785423148
 20
0.7246678016407452
 30
0.0
 70
     8
  0
VERTEX
  5
B05
330
A13
100
AcDbEntity
  8
0
370
    20
100
AcDbVertex
100
AcDb2dVertex
 10
10.55628672951097
 20
0.7279670726578664
 30
0.0
 70
     8
  0
VERTEX
  5
B06
330
A13
100
AcDbEntity
  8
0
370
    20
100
AcDbVertex
100
AcDb2dVertex
 10
10.55796097996888
 20
0.731271762546354
 30
0.0
 70
     8
  0
VERTEX
  5
B07
330
A13
100
AcDbEntity
  8
0
370
    20
100
AcDbVertex
100
AcDb2dVertex
 10
10.5594143062802
 20
0.7345604713730151
 30
0.0
 70
     8
  0
VERTEX
  5
B08
330
A13
100
AcDbEntity
  8
0
370
    20
100
AcDbVertex
100
AcDb2dVertex
 10
10.56066326342381
 20
0.7378126518208049
 30
0.0
 70
     8
  0
VERTEX
  5
B09
330
A13
100
AcDbEntity
  8
0
370
    20
100
AcDbVertex
100
AcDb2dVertex
 10
10.56172440637859
 20
0.7410077565726785
 30
0.0
 70
     8
  0
VERTEX
  5
B0A
330
A13
100
AcDbEntity
  8
0
370
    20
100
AcDbVertex
100
AcDb2dVertex
 10
10.5626142901234
 20
0.7441252383115909
 30
0.0
 70
     8
  0
VERTEX
  5
B0B
330
A13
100
AcDbEntity
  8
0
370
    20
100
AcDbVertex
100
AcDb2dVertex
 10
10.56334946963713
 20
0.7471445497204972
 30
0.0
 70
     8
  0
VERTEX
  5
B0C
330
A13
100
AcDbEntity
  8
0
370
    20
100
AcDbVertex
100
AcDb2dVertex
 10
10.56394649989866
 20
0.7500451434823527
 30
0.0
 70
     8
  0
VERTEX
  5
B0D
330
A13
100
AcDbEntity
  8
0
370
    20
100
AcDbVertex
100
AcDb2dVertex
 10
10.56442193588685
 20
0.7528064722801121
 30
0.0
 70
     8
  0
VERTEX
  5
B0E
330
A13
100
AcDbEntity
  8
0
370
    20
100
AcDbVertex
100
AcDb2dVertex
 10
10.56478624338267
 20
0.7554175014358126
 30
0.0
 70
     8
  0
VERTEX
  5
B0F
330
A13
100
AcDbEntity
  8
0
370
    20
100
AcDbVertex
100
AcDb2dVertex
 10
10.56502553137541
 20
0.7579052468278166
 30
0.0
 70
     8
  0
VERTEX
  5
B10
330
A13
100
AcDbEntity
  8
0
370
    20
100
AcDbVertex
100
AcDb2dVertex
 10
10.56511981965644
 20
0.7603062369735688
 30
0.0
 70
     8
  0
VERTEX
  5
B11
330
A13
100
AcDbEntity
  8
0
370
    20
100
AcDbVertex
100
AcDb2dVertex
 10
10.56504912801714
 20
0.7626570003905134
 30
0.0
 70
     8
  0
VERTEX
  5
B12
330
A13
100
AcDbEntity
  8
0
370
    20
100
AcDbVertex
100
AcDb2dVertex
 10
10.56479347624889
 20
0.7649940655960946
 30
0.0
 70
     8
  0
VERTEX
  5
B13
330
A13
100
AcDbEntity
  8
0
370
    20
100
AcDbVertex
100
AcDb2dVertex
 10
10.56433288414304
 20
0.7673539611077573
 30
0.0
 70
     8
  0
VERTEX
  5
B14
330
A13
100
AcDbEntity
  8
0
370
    20
100
AcDbVertex
100
AcDb2dVertex
 10
10.56364737149099
 20
0.7697732154429452
 30
0.0
 70
     8
  0
VERTEX
  5
B15
330
A13
100
AcDbEntity
  8
0
370
    20
100
AcDbVertex
100
AcDb2dVertex
 10
10.5627169580841
 20
0.7722883571191032
 30
0.0
 70
     8
  0
VERTEX
  5
B16
330
A13
100
AcDbEntity
  8
0
370
    20
100
AcDbVertex
100
AcDb2dVertex
 10
10.56152413745464
 20
0.7749246897497212
 30
0.0
 70
     8
  0
VERTEX
  5
B17
330
A13
100
AcDbEntity
  8
0
370
    20
100
AcDbVertex
100
AcDb2dVertex
 10
10.56006129809842
 20
0.7776626173324726
 30
0.0
 70
     8
  0
VERTEX
  5
B18
330
A13
100
AcDbEntity
  8
0
370
    20
100
AcDbVertex
100
AcDb2dVertex
 10
10.55832330225218
 20
0.7804713189610766
 30
0.0
 70
     8
  0
VERTEX
  5
B19
330
A13
100
AcDbEntity
  8
0
370
    20
100
AcDbVertex
100
AcDb2dVertex
 10
10.55630501215263
 20
0.7833199737292521
 30
0.0
 70
     8
  0
VERTEX
  5
B1A
330
A13
100
AcDbEntity
  8
0
370
    20
100
AcDbVertex
100
AcDb2dVertex
 10
10.55400129003647
 20
0.7861777607307187
 30
0.0
 70
     8
  0
VERTEX
  5
B1B
330
A13
100
AcDbEntity
  8
0
370
    20
100
AcDbVertex
100
AcDb2dVertex
 10
10.55140699814043
 20
0.789013859059195
 30
0.0
 70
     8
  0
VERTEX
  5
B1C
330
A13
100
AcDbEntity
  8
0
370
    20
100
AcDbVertex
100
AcDb2dVertex
 10
10.54851699870122
 20
0.7917974478084004
 30
0.0
 70
     8
  0
VERTEX
  5
B1D
330
A13
100
AcDbEntity
  8
0
370
    20
100
AcDbVertex
100
AcDb2dVertex
 10
10.54532615395555
 20
0.794497706072054
 30
0.0
 70
     8
  0
VERTEX
  5
B1E
330
A13
100
AcDbEntity
  8
0
370
    20
100
AcDbVertex
100
AcDb2dVertex
 10
10.54183360760955
 20
0.7970891399991271
 30
0.0
 70
     8
  0
VERTEX
  5
B1F
330
A13
100
AcDbEntity
  8
0
370
    20
100
AcDbVertex
100
AcDb2dVertex
 10
10.53805562924695
 20
0.7995675639595988
 30
0.0
 70
     8
  0
VERTEX
  5
B20
330
A13
100
AcDbEntity
  8
0
370
    20
100
AcDbVertex
100
AcDb2dVertex
 10
10.53401276992089
 20
0.8019341193787013
 30
0.0
 70
     8
  0
VERTEX
  5
B21
330
A13
100
AcDbEntity
  8
0
370
    20
100
AcDbVertex
100
AcDb2dVertex
 10
10.5297255806845
 20
0.8041899476816663
 30
0.0
 70
     8
  0
VERTEX
  5
B22
330
A13
100
AcDbEntity
  8
0
370
    20
100
AcDbVertex
100
AcDb2dVertex
 10
10.52521461259092
 20
0.8063361902937252
 30
0.0
 70
     8
  0
VERTEX
  5
B23
330
A13
100
AcDbEntity
  8
0
370
    20
100
AcDbVertex
100
AcDb2dVertex
 10
10.5205004166933
 20
0.8083739886401094
 30
0.0
 70
     8
  0
VERTEX
  5
B24
330
A13
100
AcDbEntity
  8
0
370
    20
100
AcDbVertex
100
AcDb2dVertex
 10
10.51560354404476
 20
0.8103044841460512
 30
0.0
 70
     8
  0
VERTEX
  5
B25
330
A13
100
AcDbEntity
  8
0
370
    20
100
AcDbVertex
100
AcDb2dVertex
 10
10.51054454569845
 20
0.8121288182367814
 30
0.0
 70
     8
  0
VERTEX
  5
B26
330
A13
100
AcDbEntity
  8
0
370
    20
100
AcDbVertex
100
AcDb2dVertex
 10
10.50534853965338
 20
0.8138497495182791
 30
0.0
 70
     8
  0
VERTEX
  5
B27
330
A13
100
AcDbEntity
  8
0
370
    20
100
AcDbVertex
100
AcDb2dVertex
 10
10.50005891169214
 20
0.8154765053195085
 30
0.0
 70
     8
  0
VERTEX
  5
B28
330
A13
100
AcDbEntity
  8
0
370
    20
100
AcDbVertex
100
AcDb2dVertex
 10
10.49472361454316
 20
0.8170199301501806
 30
0.0
 70
     8
  0
VERTEX
  5
B29
330
A13
100
AcDbEntity
  8
0
370
    20
100
AcDbVertex
100
AcDb2dVertex
 10
10.48939060093492
 20
0.818490868520007
 30
0.0
 70
     8
  0
VERTEX
  5
B2A
330
A13
100
AcDbEntity
  8
0
370
    20
100
AcDbVertex
100
AcDb2dVertex
 10
10.48410782359585
 20
0.8199001649386991
 30
0.0
 70
     8
  0
VERTEX
  5
B2B
330
A13
100
AcDbEntity
  8
0
370
    20
100
AcDbVertex
100
AcDb2dVertex
 10
10.47892323525442
 20
0.8212586639159674
 30
0.0
 70
     8
  0
VERTEX
  5
B2C
330
A13
100
AcDbEntity
  8
0
370
    20
100
AcDbVertex
100
AcDb2dVertex
 10
10.47388478863908
 20
0.8225772099615237
 30
0.0
 70
     8
  0
VERTEX
  5
B2D
330
A13
100
AcDbEntity
  8
0
370
    20
100
AcDbVertex
100
AcDb2dVertex
 10
10.46904043647828
 20
0.823866647585079
 30
0.0
 70
     8
  0
VERTEX
  5
B2E
330
A13
100
AcDbEntity
  8
0
370
    20
100
AcDbVertex
100
AcDb2dVertex
 10
10.46443227115282
 20
0.8251379632758599
 30
0.0
 70
     8
  0
VERTEX
  5
B2F
330
A13
100
AcDbEntity
  8
0
370
    20
100
AcDbVertex
100
AcDb2dVertex
 10
10.46007894365278
 20
0.8264027114411547
 30
0.0
 70
     8
  0
VERTEX
  5
B30
330
A13
100
AcDbEntity
  8
0
370
    20
100
AcDbVertex
100
AcDb2dVertex
 10
10.45599324462062
 20
0.8276725884677674
 30
0.0
 70
     8
  0
VERTEX
  5
B31
330
A13
100
AcDbEntity
  8
0
370
    20
100
AcDbVertex
100
AcDb2dVertex
 10
10.45218796469875
 20
0.8289592907425017
 30
0.0
 70
     8
  0
VERTEX
  5
B32
330
A13
100
AcDbEntity
  8
0
370
    20
100
AcDbVertex
100
AcDb2dVertex
 10
10.44867589452962
 20
0.8302745146521612
 30
0.0
 70
     8
  0
VERTEX
  5
B33
330
A13
100
AcDbEntity
  8
0
370
    20
100
AcDbVertex
100
AcDb2dVertex
 10
10.44546982475566
 20
0.8316299565835496
 30
0.0
 70
     8
  0
VERTEX
  5
B34
330
A13
100
AcDbEntity
  8
0
370
    20
100
AcDbVertex
100
AcDb2dVertex
 10
10.44258254601931
 20
0.8330373129234709
 30
0.0
 70
     8
  0
VERTEX
  5
B35
330
A13
100
AcDbEntity
  8
0
370
    20
100
AcDbVertex
100
AcDb2dVertex
 10
10.44002684896299
 20
0.834508280058729
 30
0.0
 70
     8
  0
VERTEX
  5
B36
330
A13
100
AcDbEntity
  8
0
370
    20
100
AcDbVertex
100
AcDb2dVertex
 10
10.43780884343145
 20
0.836051027579559
 30
0.0
 70
     8
  0
VERTEX
  5
B37
330
A13
100
AcDbEntity
  8
0
370
    20
100
AcDbVertex
100
AcDb2dVertex
 10
10.43590791607861
 20
0.837659617889923
 30
0.0
 70
     8
  0
VERTEX
  5
B38
330
A13
100
AcDbEntity
  8
0
370
    20
100
AcDbVertex
100
AcDb2dVertex
 10
10.43429677276072
 20
0.8393245865972151
 30
0.0
 70
     8
  0
VERTEX
  5
B39
330
A13
100
AcDbEntity
  8
0
370
    20
100
AcDbVertex
100
AcDb2dVertex
 10
10.43294811933401
 20
0.8410364693088293
 30
0.0
 70
     8
  0
VERTEX
  5
B3A
330
A13
100
AcDbEntity
  8
0
370
    20
100
AcDbVertex
100
AcDb2dVertex
 10
10.43183466165473
 20
0.8427858016321595
 30
0.0
 70
     8
  0
VERTEX
  5
B3B
330
A13
100
AcDbEntity
  8
0
370
    20
100
AcDbVertex
100
AcDb2dVertex
 10
10.43092910557909
 20
0.8445631191745993
 30
0.0
 70
     8
  0
VERTEX
  5
B3C
330
A13
100
AcDbEntity
  8
0
370
    20
100
AcDbVertex
100
AcDb2dVertex
 10
10.43020415696335
 20
0.8463589575435429
 30
0.0
 70
     8
  0
VERTEX
  5
B3D
330
A13
100
AcDbEntity
  8
0
370
    20
100
AcDbVertex
100
AcDb2dVertex
 10
10.42963252166374
 20
0.8481638523463837
 30
0.0
 70
     8
  0
VERTEX
  5
B3E
330
A13
100
AcDbEntity
  8
0
370
    20
100
AcDbVertex
100
AcDb2dVertex
 10
10.42919267498666
 20
0.8499715272109117
 30
0.0
 70
     8
  0
VERTEX
  5
B3F
330
A13
100
AcDbEntity
  8
0
370
    20
100
AcDbVertex
100
AcDb2dVertex
 10
10.42888617003912
 20
0.8517884578464983
 30
0.0
 70
     8
  0
VERTEX
  5
B40
330
A13
100
AcDbEntity
  8
0
370
    20
100
AcDbVertex
100
AcDb2dVertex
 10
10.42872032937832
 20
0.8536243079829105
 30
0.0
 70
     8
  0
VERTEX
  5
B41
330
A13
100
AcDbEntity
  8
0
370
    20
100
AcDbVertex
100
AcDb2dVertex
 10
10.42870247556143
 20
0.8554887413499161
 30
0.0
 70
     8
  0
VERTEX
  5
B42
330
A13
100
AcDbEntity
  8
0
370
    20
100
AcDbVertex
100
AcDb2dVertex
 10
10.42883993114564
 20
0.8573914216772816
 30
0.0
 70
     8
  0
VERTEX
  5
B43
330
A13
100
AcDbEntity
  8
0
370
    20
100
AcDbVertex
100
AcDb2dVertex
 10
10.42914001868814
 20
0.8593420126947744
 30
0.0
 70
     8
  0
VERTEX
  5
B44
330
A13
100
AcDbEntity
  8
0
370
    20
100
AcDbVertex
100
AcDb2dVertex
 10
10.4296100607461
 20
0.8613501781321621
 30
0.0
 70
     8
  0
VERTEX
  5
B45
330
A13
100
AcDbEntity
  8
0
370
    20
100
AcDbVertex
100
AcDb2dVertex
 10
10.4302573798767
 20
0.8634255817192114
 30
0.0
 70
     8
  0
VERTEX
  5
B46
330
A13
100
AcDbEntity
  8
0
370
    20
100
AcDbVertex
100
AcDb2dVertex
 10
10.4310862621044
 20
0.8655720042335776
 30
0.0
 70
     8
  0
VERTEX
  5
B47
330
A13
100
AcDbEntity
  8
0
370
    20
100
AcDbVertex
100
AcDb2dVertex
 10
10.4320888473227
 20
0.8677696946444678
 30
0.0
 70
     8
  0
VERTEX
  5
B48
330
A13
100
AcDbEntity
  8
0
370
    20
100
AcDbVertex
100
AcDb2dVertex
 10
10.43325423889236
 20
0.8699930189689768
 30
0.0
 70
     8
  0
VERTEX
  5
B49
330
A13
100
AcDbEntity
  8
0
370
    20
100
AcDbVertex
100
AcDb2dVertex
 10
10.43457154017415
 20
0.8722163432241991
 30
0.0
 70
     8
  0
VERTEX
  5
B4A
330
A13
100
AcDbEntity
  8
0
370
    20
100
AcDbVertex
100
AcDb2dVertex
 10
10.43602985452883
 20
0.87441403342723
 30
0.0
 70
     8
  0
VERTEX
  5
B4B
330
A13
100
AcDbEntity
  8
0
370
    20
100
AcDbVertex
100
AcDb2dVertex
 10
10.43761828531717
 20
0.8765604555951641
 30
0.0
 70
     8
  0
VERTEX
  5
B4C
330
A13
100
AcDbEntity
  8
0
370
    20
100
AcDbVertex
100
AcDb2dVertex
 10
10.43932593589993
 20
0.8786299757450963
 30
0.0
 70
     8
  0
VERTEX
  5
B4D
330
A13
100
AcDbEntity
  8
0
370
    20
100
AcDbVertex
100
AcDb2dVertex
 10
10.44114190963787
 20
0.8805969598941215
 30
0.0
 70
     8
  0
VERTEX
  5
B4E
330
A13
100
AcDbEntity
  8
0
370
    20
100
AcDbVertex
100
AcDb2dVertex
 10
10.44305904893146
 20
0.8824390851093971
 30
0.0
 70
     8
  0
VERTEX
  5
B4F
330
A13
100
AcDbEntity
  8
0
370
    20
100
AcDbVertex
100
AcDb2dVertex
 10
10.44508515233987
 20
0.8841472726583319
 30
0.0
 70
     8
  0
VERTEX
  5
B50
330
A13
100
AcDbEntity
  8
0
370
    20
100
AcDbVertex
100
AcDb2dVertex
 10
10.44723175746198
 20
0.8857157548583961
 30
0.0
 70
     8
  0
VERTEX
  5
B51
330
A13
100
AcDbEntity
  8
0
370
    20
100
AcDbVertex
100
AcDb2dVertex
 10
10.44951040189667
 20
0.8871387640270613
 30
0.0
 70
     8
  0
VERTEX
  5
B52
330
A13
100
AcDbEntity
  8
0
370
    20
100
AcDbVertex
100
AcDb2dVertex
 10
10.45193262324281
 20
0.8884105324817982
 30
0.0
 70
     8
  0
VERTEX
  5
B53
330
A13
100
AcDbEntity
  8
0
370
    20
100
AcDbVertex
100
AcDb2dVertex
 10
10.45450995909927
 20
0.8895252925400779
 30
0.0
 70
     8
  0
VERTEX
  5
B54
330
A13
100
AcDbEntity
  8
0
370
    20
100
AcDbVertex
100
AcDb2dVertex
 10
10.45725394706494
 20
0.8904772765193712
 30
0.0
 70
     8
  0
VERTEX
  5
B55
330
A13
100
AcDbEntity
  8
0
370
    20
100
AcDbVertex
100
AcDb2dVertex
 10
10.46017612473868
 20
0.8912607167371492
 30
0.0
 70
     8
  0
VERTEX
  5
B56
330
A13
100
AcDbEntity
  8
0
370
    20
100
AcDbVertex
100
AcDb2dVertex
 10
10.46328081877429
 20
0.8918681899743038
 30
0.0
 70
     8
  0
VERTEX
  5
B57
330
A13
100
AcDbEntity
  8
0
370
    20
100
AcDbVertex
100
AcDb2dVertex
 10
10.46654351204532
 20
0.8922856508654104
 30
0.0
 70
     8
  0
VERTEX
  5
B58
330
A13
100
AcDbEntity
  8
0
370
    20
100
AcDbVertex
100
AcDb2dVertex
 10
10.4699324764802
 20
0.8924973985084658
 30
0.0
 70
     8
  0
VERTEX
  5
B59
330
A13
100
AcDbEntity
  8
0
370
    20
100
AcDbVertex
100
AcDb2dVertex
 10
10.47341598400739
 20
0.8924877320014662
 30
0.0
 70
     8
  0
VERTEX
  5
B5A
330
A13
100
AcDbEntity
  8
0
370
    20
100
AcDbVertex
100
AcDb2dVertex
 10
10.47696230655536
 20
0.8922409504424081
 30
0.0
 70
     8
  0
VERTEX
  5
B5B
330
A13
100
AcDbEntity
  8
0
370
    20
100
AcDbVertex
100
AcDb2dVertex
 10
10.48053971605255
 20
0.8917413529292877
 30
0.0
 70
     8
  0
VERTEX
  5
B5C
330
A13
100
AcDbEntity
  8
0
370
    20
100
AcDbVertex
100
AcDb2dVertex
 10
10.48411648442742
 20
0.8909732385601019
 30
0.0
 70
     8
  0
VERTEX
  5
B5D
330
A13
100
AcDbEntity
  8
0
370
    20
100
AcDbVertex
100
AcDb2dVertex
 10
10.48766088360842
 20
0.889920906432847
 30
0.0
 70
     8
  0
VERTEX
  5
B5E
330
A13
100
AcDbEntity
  8
0
370
    20
100
AcDbVertex
100
AcDb2dVertex
 10
10.49116111328187
 20
0.8885379544200599
 30
0.0
 70
     8
  0
VERTEX
  5
B5F
330
A13
100
AcDbEntity
  8
0
370
    20
100
AcDbVertex
100
AcDb2dVertex
 10
10.49468508416544
 20
0.886655175492439
 30
0.0
 70
     8
  0
VERTEX
  5
B60
330
A13
100
AcDbEntity
  8
0
370
    20
100
AcDbVertex
100
AcDb2dVertex
 10
10.49832063473467
 20
0.8840726613952242
 30
0.0
 70
     8
  0
VERTEX
  5
B61
330
A13
100
AcDbEntity
  8
0
370
    20
100
AcDbVertex
100
AcDb2dVertex
 10
10.50215560346509
 20
0.880590503873654
 30
0.0
 70
     8
  0
VERTEX
  5
B62
330
A13
100
AcDbEntity
  8
0
370
    20
100
AcDbVertex
100
AcDb2dVertex
 10
10.50627782883225
 20
0.8760087946729676
 30
0.0
 70
     8
  0
VERTEX
  5
B63
330
A13
100
AcDbEntity
  8
0
370
    20
100
AcDbVertex
100
AcDb2dVertex
 10
10.51077514931168
 20
0.8701276255384044
 30
0.0
 70
     8
  0
VERTEX
  5
B64
330
A13
100
AcDbEntity
  8
0
370
    20
100
AcDbVertex
100
AcDb2dVertex
 10
10.51573540337891
 20
0.8627470882152033
 30
0.0
 70
     8
  0
VERTEX
  5
B65
330
A13
100
AcDbEntity
  8
0
370
    20
100
AcDbVertex
100
AcDb2dVertex
 10
10.52124642950947
 20
0.853667274448604
 30
0.0
 70
     8
  0
VERTEX
  5
B66
330
A13
100
AcDbEntity
  8
0
370
    20
100
AcDbVertex
100
AcDb2dVertex
 10
10.56094791468433
 20
0.853667274448604
 30
0.0
 70
    16
  0
VERTEX
  5
B67
330
A13
100
AcDbEntity
  8
0
370
    20
100
AcDbVertex
100
AcDb2dVertex
 10
10.55565440276253
 20
0.8739554157693945
 30
0.0
 70
    16
  0
VERTEX
  5
B68
330
A13
100
AcDbEntity
  8
0
370
    20
100
AcDbVertex
100
AcDb2dVertex
 10
10.54271462366148
 20
0.8942435216155217
 30
0.0
 70
    16
  0
VERTEX
  5
B69
330
A13
100
AcDbEntity
  8
0
370
    20
100
AcDbVertex
100
AcDb2dVertex
 10
10.51712921192419
 20
0.9080629632302006
 30
0.0
 70
    16
  0
VERTEX
  5
B6A
330
A13
100
AcDbEntity
  8
0
370
    20
100
AcDbVertex
100
AcDb2dVertex
 10
10.49389651379825
 20
0.9165898678327408
 30
0.0
 70
    16
  0
VERTEX
  5
B6B
330
A13
100
AcDbEntity
  8
0
370
    20
100
AcDbVertex
100
AcDb2dVertex
 10
10.4703696692075
 20
0.9165898678327408
 30
0.0
 70
    16
  0
VERTEX
  5
B6C
330
A13
100
AcDbEntity
  8
0
370
    20
100
AcDbVertex
100
AcDb2dVertex
 10
10.43596173760054
 20
0.9121793730230578
 30
0.0
 70
    16
  0
VERTEX
  5
B6D
330
A13
100
AcDbEntity
  8
0
370
    20
100
AcDbVertex
100
AcDb2dVertex
 10
10.41566983778505
 20
0.896889790121591
 30
0.0
 70
    16
  0
VERTEX
  5
B6E
330
A13
100
AcDbEntity
  8
0
370
    20
100
AcDbVertex
100
AcDb2dVertex
 10
10.39773065158091
 20
0.8710150977211625
 30
0.0
 70
    16
  0
VERTEX
  5
B6F
330
A13
100
AcDbEntity
  8
0
370
    20
100
AcDbVertex
100
AcDb2dVertex
 10
10.39773065158091
 20
0.839847832833918
 30
0.0
 70
    16
  0
VERTEX
  5
B70
330
A13
100
AcDbEntity
  8
0
370
    20
100
AcDbVertex
100
AcDb2dVertex
 10
10.40625910827797
 20
0.8177955361588615
 30
0.0
 70
    16
  0
VERTEX
  5
B71
330
A13
100
AcDbEntity
  8
0
370
    20
100
AcDbVertex
100
AcDb2dVertex
 10
10.43772624157448
 20
0.7995656352091629
 30
0.0
 70
    16
  0
VERTEX
  5
B72
330
A13
100
AcDbEntity
  8
0
370
    20
100
AcDbVertex
100
AcDb2dVertex
 10
10.47948633554198
 20
0.7860402076619693
 30
0.0
 70
    16
  0
VERTEX
  5
B73
330
A13
100
AcDbEntity
  8
0
370
    20
100
AcDbVertex
100
AcDb2dVertex
 10
10.52065826151816
 20
0.7722207660472833
 30
0.0
 70
    16
  0
VERTEX
  5
B74
330
A13
100
AcDbEntity
  8
0
370
    20
100
AcDbVertex
100
AcDb2dVertex
 10
10.5333038941544
 20
0.7551669923168803
 30
0.0
 70
    16
  0
VERTEX
  5
B75
330
A13
100
AcDbEntity
  8
0
370
    20
100
AcDbVertex
100
AcDb2dVertex
 10
10.5333038941544
 20
0.7392893458057728
 30
0.0
 70
    16
  0
VERTEX
  5
B76
330
A13
100
AcDbEntity
  8
0
370
    20
100
AcDbVertex
100
AcDb2dVertex
 10
10.51859965272552
 20
0.7231176497525027
 30
0.0
 70
    16
  0
VERTEX
  5
B77
330
A13
100
AcDbEntity
  8
0
370
    20
100
AcDbVertex
100
AcDb2dVertex
 10
10.49272017781563
 20
0.7140027170149921
 30
0.0
 70
    16
  0
VERTEX
  5
B78
330
A13
100
AcDbEntity
  8
0
370
    20
100
AcDbVertex
100
AcDb2dVertex
 10
10.46919333322488
 20
0.7140027170149921
 30
0.0
 70
    16
  0
VERTEX
  5
B79
330
A13
100
AcDbEntity
  8
0
370
    20
100
AcDbVertex
100
AcDb2dVertex
 10
10.44301975349627
 20
0.7213534589235664
 30
0.0
 70
    16
  0
VERTEX
  5
B7A
330
A13
100
AcDbEntity
  8
0
370
    20
100
AcDbVertex
100
AcDb2dVertex
 10
10.42743323925737
 20
0.7381132185864772
 30
0.0
 70
    16
  0
VERTEX
  5
B7B
330
A13
100
AcDbEntity
  8
0
370
    20
100
AcDbVertex
100
AcDb2dVertex
 10
10.42243379050818
 20
0.749580405762579
 30
0.0
 70
    16
  0
VERTEX
  5
B7C
330
A13
100
AcDbEntity
  8
0
370
    20
100
AcDbVertex
100
AcDb2dVertex
 10
10.42243379050818
 20
0.7578132608229567
 30
0.0
 70
    16
  0
VERTEX
  5
B7D
330
A13
100
AcDbEntity
  8
0
370
    20
100
AcDbVertex
100
AcDb2dVertex
 10
10.3815559693507
 20
0.7578132608229567
 30
0.0
 70
    16
  0
VERTEX
  5
B7E
330
A13
100
AcDbEntity
  8
0
370
    20
100
AcDbVertex
100
AcDb2dVertex
 10
10.37602681965655
 20
0.7556455126265003
 30
0.0
 70
    16
  0
VERTEX
  5
B7F
330
A13
100
AcDbEntity
  8
0
370
    20
100
AcDbVertex
100
AcDb2dVertex
 10
10.39986638896662
 20
0.7197276193088129
 30
0.0
 70
    16
  0
VERTEX
  5
B80
330
A13
100
AcDbEntity
  8
0
370
    20
100
AcDbVertex
100
AcDb2dVertex
 10
10.43026792328319
 20
0.6952625838822968
 30
0.0
 70
    16
  0
VERTEX
  5
B81
330
A13
100
AcDbEntity
  8
0
370
    20
100
AcDbVertex
100
AcDb2dVertex
 10
10.45225777659112
 20
0.6887490087182542
 30
0.0
 70
    16
  0
VERTEX
  5
B82
330
A13
100
AcDbEntity
  8
0
370
    20
100
AcDbVertex
100
AcDb2dVertex
 10
10.50007109079292
 20
0.6887490087182542
 30
0.0
 70
    16
  0
VERTEX
  5
B83
330
A13
100
AcDbEntity
  8
0
370
    20
100
AcDbVertex
100
AcDb2dVertex
 10
10.53689866130769
 20
0.7016178355927707
 30
0.0
 70
    16
  0
VERTEX
  5
B84
330
A13
100
AcDbEntity
  8
0
370
    20
100
AcDbVertex
100
AcDb2dVertex
 10
10.5588198401826
 20
0.7279183659355369
 30
0.0
 70
    16
  0
VERTEX
  5
B85
330
A13
100
AcDbEntity
  8
0
370
    20
100
AcDbVertex
100
AcDb2dVertex
 10
10.5655423550277
 20
0.7545111366122797
 30
0.0
 70
    16
  0
VERTEX
  5
B86
330
A13
100
AcDbEntity
  8
0
370
    20
100
AcDbVertex
100
AcDb2dVertex
 10
10.5655423550277
 20
0.7708759212960175
 30
0.0
 70
    16
  0
VERTEX
  5
B87
330
A13
100
AcDbEntity
  8
0
370
    20
100
AcDbVertex
100
AcDb2dVertex
 10
10.54858997336609
 20
0.7957153209182693
 30
0.0
 70
    16
  0
VERTEX
  5
B88
330
A13
100
AcDbEntity
  8
0
370
    20
100
AcDbVertex
100
AcDb2dVertex
 10
10.51205467524124
 20
0.8132490314632292
 30
0.0
 70
    16
  0
VERTEX
  5
B89
330
A13
100
AcDbEntity
  8
0
370
    20
100
AcDbVertex
100
AcDb2dVertex
 10
10.46645859985963
 20
0.824061462649503
 30
0.0
 70
    16
  0
VERTEX
  5
B8A
330
A13
100
AcDbEntity
  8
0
370
    20
100
AcDbVertex
100
AcDb2dVertex
 10
10.43635354418995
 20
0.8337050034492321
 30
0.0
 70
    16
  0
VERTEX
  5
B8B
330
A13
100
AcDbEntity
  8
0
370
    20
100
AcDbVertex
100
AcDb2dVertex
 10
10.4282883171585
 20
0.8481682039059421
 30
0.0
 70
    16
  0
VERTEX
  5
B8C
330
A13
100
AcDbEntity
  8
0
370
    20
100
AcDbVertex
100
AcDb2dVertex
 10
10.4282883171585
 20
0.8626052950053022
 30
0.0
 70
    16
  0
VERTEX
  5
B8D
330
A13
100
AcDbEntity
  8
0
370
    20
100
AcDbVertex
100
AcDb2dVertex
 10
10.44010269346771
 20
0.8819641063881178
 30
0.0
 70
    16
  0
VERTEX
  5
B8E
330
A13
100
AcDbEntity
  8
0
370
    20
100
AcDbVertex
100
AcDb2dVertex
 10
10.45815236679789
 20
0.8931200388069555
 30
0.0
 70
    16
  0
VERTEX
  5
B8F
330
A13
100
AcDbEntity
  8
0
370
    20
100
AcDbVertex
100
AcDb2dVertex
 10
10.48834458777279
 20
0.8931200388069555
 30
0.0
 70
    16
  0
VERTEX
  5
B90
330
A13
100
AcDbEntity
  8
0
370
    20
100
AcDbVertex
100
AcDb2dVertex
 10
10.50573791843192
 20
0.8803235093105215
 30
0.0
 70
    16
  0
VERTEX
  5
B91
330
A13
100
AcDbEntity
  8
0
370
    20
100
AcDbVertex
100
AcDb2dVertex
 10
10.52124642950947
 20
0.853667274448604
 30
0.0
 70
    16
  0
SEQEND
  5
B92
330
A13
100
AcDbEntity
  8
0
370
    20
  0
LWPOLYLINE
  5
B93
330
890
100
AcDbEntity
  8
0
370
    20
100
AcDbPolyline
 90
        8
 70
     1
 43
0.0
 10
10.61364532477682
 20
0.7449467398020106
 10
10.59403055491829
 20
0.6935397565189305
 10
10.55313576562074
 20
0.6935397565189305
 10
10.64316878567811
 20
0.9113007718636083
 10
10.67658029249145
 20
0.9113007718636083
 10
10.76195527316375
 20
0.6935397565189306
 10
10.72409675323138
 20
0.6935397565189306
 10
10.70504017111648
 20
0.7449467398020104
  0
LWPOLYLINE
  5
B94
330
890
100
AcDbEntity
  8
0
370
    20
100
AcDbPolyline
 90
        3
 70
     1
 43
0.0
 10
10.69676180588761
 20
0.7672784349803833
 10
10.66000235099198
 20
0.8664406389853382
 10
10.62216617220843
 20
0.7672784349803835
  0
LWPOLYLINE
  5
B95
330
890
100
AcDbEntity
  8
0
370
    20
100
AcDbPolyline
 90
        8
 70
     1
 43
0.0
 10
10.87727647810988
 20
0.7449467398020106
 10
10.85766170825135
 20
0.6935397565189305
 10
10.81676691895379
 20
0.6935397565189305
 10
10.90679993901117
 20
0.9113007718636083
 10
10.94021144582451
 20
0.9113007718636083
 10
11.02558642649681
 20
0.6935397565189306
 10
10.98772790656443
 20
0.6935397565189306
 10
10.96867132444954
 20
0.7449467398020104
  0
LWPOLYLINE
  5
B96
330
890
100
AcDbEntity
  8
0
370
    20
100
AcDbPolyline
 90
        3
 70
     1
 43
0.0
 10
10.96039295922067
 20
0.7672784349803833
 10
10.92363350432504
 20
0.8664406389853382
 10
10.88579732554149
 20
0.7672784349803835
  0
LWPOLYLINE
  5
B97
330
890
100
AcDbEntity
  8
0
370
    20
100
AcDbPolyline
 90
       16
 70
     1
 43
0.0
 10
11.0347521935933
 20
0.9070009225506083
 10
11.0347521935933
 20
0.6937270627781445
 10
11.15246267057188
 20
0.6937270627781445
 10
11.18656483644972
 20
0.7054801048475597
 10
11.20572017231627
 20
0.7195622718705224
 10
11.21670629081828
 20
0.7412488246947362
 10
11.21670629081828
 20
0.7640619466238335
 10
11.20374827072167
 20
0.789691509052453
 10
11.17698718933949
 20
0.805745180877615
 10
11.17169476021651
 20
0.8132355156138402
 10
11.19016160261622
 20
0.8316989108434853
 10
11.20294633325507
 20
0.8494522095976293
 10
11.20294633325507
 20
0.8689808027525245
 10
11.19335777486441
 20
0.8945455529584975
 10
11.166851692605
 20
0.9070009225506083
 10
11.0347521935933
 20
0.9070009225506083
  0
LWPOLYLINE
  5
B98
330
890
100
AcDbEntity
  8
0
370
    20
100
AcDbPolyline
 90
        9
 70
     1
 43
0.0
 10
11.07525457508204
 20
0.7932097449546234
 10
11.07525457508204
 20
0.7204185239876751
 10
11.14155401383181
 20
0.7204185239876751
 10
11.1649619587826
 20
0.7264403847466241
 10
11.18035311112621
 20
0.7439034652230064
 10
11.18035311112621
 20
0.764133002388455
 10
11.16815833926133
 20
0.7866091504243187
 10
11.15320713640864
 20
0.7932097449546234
 10
11.07525457508204
 20
0.7932097449546234
  0
HATCH
  5
B99
330
890
100
AcDbEntity
  8
0
370
    25
100
AcDbHatch
 10
0.0
 20
0.0
 30
0.0
210
0.0
220
0.0
230
1.0
  2
SOLID
 70
     1
 71
     0
 91
       22
 92
        7
 72
     0
 73
     1
 93
       15
 10
10.61627614423896
 20
1.383682262088015
 10
10.63722192960509
 20
1.405576093410825
 10
10.64959898648717
 20
1.430801563869993
 10
10.65055105817515
 20
1.461738491722962
 10
10.64341045804613
 20
1.494579203232491
 10
10.62960527280903
 20
1.51932874551486
 10
10.60723135908787
 20
1.540746613186186
 10
10.58009704528071
 20
1.551217565196111
 10
10.55522757179581
 20
1.553998211753303
 10
10.45466392215977
 20
1.553998211753303
 10
10.45466392215977
 20
1.238321040198144
 10
10.5043666370151
 20
1.238321040198144
 10
10.50436663701509
 20
1.36208883027335
 10
10.56538639035111
 20
1.36208883027335
 10
10.59771055891585
 20
1.370831562770022
 97
        0
 92
       22
 72
     0
 73
     1
 93
       10
 10
10.50393047732006
 20
1.409021003169479
 10
10.50393047732006
 20
1.50442569462104
 10
10.55914343044618
 20
1.504425694621041
 10
10.57354677874065
 20
1.497825383888097
 10
10.58975057160075
 20
1.485224745521083
 10
10.59815254906608
 20
1.468423941664629
 10
10.59815254906608
 20
1.44142260920999
 10
10.59035073367133
 20
1.428221952269436
 10
10.57774778829637
 20
1.416821386524163
 10
10.55674286545608
 20
1.409021003169478
 97
        0
 92
        7
 72
     0
 73
     1
 93
       12
 10
10.7296669202524
 20
1.371606826214872
 10
10.8384158210048
 20
1.371606826214872
 10
10.8384158210048
 20
1.419722966232427
 10
10.7296669202524
 20
1.419722966232427
 10
10.7296669202524
 20
1.507513764671095
 10
10.84364723857872
 20
1.507513764671095
 10
10.84364723857872
 20
1.553998211753302
 10
10.68069759336895
 20
1.553998211753302
 10
10.68069759336895
 20
1.238321040198144
 10
10.84364723857872
 20
1.238321040198144
 10
10.84364723857871
 20
1.28466018303078
 10
10.72966692025239
 20
1.28466018303078
 97
        0
 92
        7
 72
     0
 73
     1
 93
       13
 10
10.92583016996758
 20
1.505903569385948
 10
11.01813373043019
 20
1.238321040198144
 10
11.06008989427683
 20
1.238321040198144
 10
11.15491083706406
 20
1.50846527792745
 10
11.15491083706406
 20
1.238321040198144
 10
11.2027408513554
 20
1.238321040198144
 10
11.2027408513554
 20
1.553998211753302
 10
11.13141535199306
 20
1.553998211753302
 10
11.04044063053292
 20
1.289793170811775
 10
10.94928963115468
 20
1.553998211753302
 10
10.87632190079316
 20
1.553998211753302
 10
10.87632190079316
 20
1.238321040198144
 10
10.92583016996758
 20
1.238321040198144
 97
        0
 92
        7
 72
     0
 73
     1
 93
       11
 10
11.28966256849993
 20
1.393503968701822
 10
11.39904032549172
 20
1.238321040198144
 10
11.45821261580553
 20
1.238321040198144
 10
11.33856660914445
 20
1.398106192759206
 10
11.4588700829215
 20
1.553998211753302
 10
11.40035525972365
 20
1.553998211753303
 10
11.28966256849993
 20
1.401644424601819
 10
11.28966256849993
 20
1.553998211753303
 10
11.24035228492565
 20
1.553998211753302
 10
11.24035228492565
 20
1.238321040198144
 10
11.28966256849993
 20
1.238321040198144
 97
        0
 92
        7
 72
     0
 73
     1
 93
       25
 10
11.73685594189422
 20
1.324377730328279
 10
11.75126145578635
 20
1.369746676402758
 10
11.75126145578635
 20
1.416555929566273
 10
11.74261813912186
 20
1.448242188880074
 10
11.72461123634518
 20
1.484969469793568
 10
11.70012186689319
 20
1.513055014596751
 10
11.66049934274018
 20
1.542674342245235
 10
11.62094657581902
 20
1.553998211753303
 10
11.54861415684371
 20
1.553998211753302
 10
11.50661205733932
 20
1.537974835296573
 10
11.47966731661836
 20
1.516581516097096
 10
11.4527225758974
 20
1.487660897554943
 10
11.43528772406802
 20
1.454778538782454
 10
11.42504315617519
 20
1.422859139935409
 10
11.42504315617519
 20
1.370671465582933
 10
11.4289491030517
 20
1.355760716685653
 10
11.44315246673283
 20
1.321678959310168
 10
11.46161681036601
 20
1.292212456541359
 10
11.49819046455685
 20
1.259550785692839
 10
11.54470646083064
 20
1.235764558082607
 10
11.56778690078365
 20
1.231149338950594
 10
11.61110718291645
 20
1.231149338950594
 10
11.62737402798492
 20
1.234359938511879
 10
11.66914998911978
 20
1.254523918486606
 10
11.7073246030162
 20
1.282609463289786
 97
        0
 92
       22
 72
     0
 73
     1
 93
       25
 10
11.49635637192817
 20
1.321520884594472
 10
11.48325923612022
 20
1.342422076438343
 10
11.47168847037452
 20
1.370186769341186
 10
11.47004315617519
 20
1.376467670658811
 10
11.47004315617519
 20
1.415814704554958
 10
11.47691498597975
 20
1.437225532091568
 10
11.48969684551161
 20
1.46133228648325
 10
11.51029164042161
 20
1.483437312978561
 10
11.5291480708482
 20
1.498408755430223
 10
11.55690622777477
 20
1.508998211753302
 10
11.61463172880344
 20
1.508998211753303
 10
11.64017226283554
 20
1.501686013465825
 10
11.66934801817858
 20
1.479876038574772
 10
11.68680882456885
 20
1.459851175903841
 10
11.70033004268236
 20
1.432272997573762
 10
11.70626145578635
 20
1.410528532919093
 10
11.70626145578635
 20
1.376719335781705
 10
11.6960798783906
 20
1.344653319999127
 10
11.67478767008304
 20
1.314538239673698
 10
11.64583783841744
 20
1.293239483476848
 10
11.61300484463444
 20
1.277392000590376
 10
11.60670876691407
 20
1.276149338950594
 10
11.57224195647465
 20
1.276149338950594
 10
11.5596434618325
 20
1.278668563611189
 10
11.52384021106839
 20
1.296976765951919
 97
        0
 92
        7
 72
     0
 73
     1
 93
        8
 10
10.13702684486522
 20
0.9113007718636081
 10
10.10361533805189
 20
0.9113007718636081
 10
10.01358231799451
 20
0.6935397565189305
 10
10.05447710729206
 20
0.6935397565189305
 10
10.07409187715059
 20
0.7449467398020106
 10
10.16548672349025
 20
0.7449467398020104
 10
10.18454330560515
 20
0.6935397565189306
 10
10.22240182553753
 20
0.6935397565189306
 97
        0
 92
       22
 72
     0
 73
     1
 93
        3
 10
10.12044890336575
 20
0.8664406389853361
 10
10.15720835826138
 20
0.7672784349803833
 10
10.0826127245822
 20
0.7672784349803835
 97
        0
 92
        7
 72
     0
 73
     1
 93
      325
 10
10.2780191826993
 20
0.8276725884677688
 10
10.27421390277744
 20
0.8289592907425053
 10
10.27070183260832
 20
0.8302745146521582
 10
10.26749576283435
 20
0.8316299565835455
 10
10.26460848409801
 20
0.8330373129234684
 10
10.26205278704168
 20
0.8345082800587267
 10
10.25983478151014
 20
0.8360510275795579
 10
10.25793385415729
 20
0.8376596178899337
 10
10.25556581720105
 20
0.8401067666854935
 10
10.25334640272493
 20
0.8435936468374448
 10
10.25189663543224
 20
0.847185001691729
 10
10.25099217235402
 20
0.8509021496379919
 10
10.25066150673296
 20
0.8545626061423822
 10
10.25093572663374
 20
0.8583583981690329
 10
10.2518731942571
 20
0.8623635505762363
 10
10.2531122001831
 20
0.8655720042335545
 10
10.25411478540139
 20
0.8677696946444545
 10
10.25528017697103
 20
0.8699930189689684
 10
10.25659747825284
 20
0.8722163432241949
 10
10.25805579260753
 20
0.8744140334272485
 10
10.25964422339586
 20
0.876560455595154
 10
10.26135187397863
 20
0.8786299757451061
 10
10.26316784771655
 20
0.8805969598941011
 10
10.26508498701015
 20
0.8824390851093946
 10
10.26711109041856
 20
0.8841472726583383
 10
10.26925769554067
 20
0.8857157548584007
 10
10.27153633997536
 20
0.8871387640270629
 10
10.27395856132149
 20
0.8884105324817959
 10
10.27653589717796
 20
0.8895252925400798
 10
10.27927988514363
 20
0.8904772765193701
 10
10.28220206281736
 20
0.8912607167371492
 10
10.28530675685298
 20
0.8918681899743035
 10
10.288569450124
 20
0.8922856508654104
 10
10.29195841455889
 20
0.892497398508466
 10
10.29544192208608
 20
0.8924877320014662
 10
10.29898824463404
 20
0.8922409504424082
 10
10.30256565413124
 20
0.8917413529292863
 10
10.3061424225061
 20
0.8909732385601019
 10
10.30968682168711
 20
0.8899209064328454
 10
10.31318705136055
 20
0.8885379544200642
 10
10.31671102224411
 20
0.8866551754924444
 10
10.32034657281335
 20
0.8840726613952265
 10
10.32418154154378
 20
0.8805905038736556
 10
10.32830376691094
 20
0.8760087946729646
 10
10.33280108739037
 20
0.8701276255383845
 10
10.33776134145758
 20
0.8627470882152008
 10
10.34327236758816
 20
0.853667274448604
 10
10.35625643468891
 20
0.8541196630049189
 10
10.36575685796363
 20
0.855384369650299
 10
10.37226014119281
 20
0.8573227058493998
 10
10.37625278815689
 20
0.8597959830668719
 10
10.37822130263633
 20
0.8626655127673672
 10
10.37865218841161
 20
0.8657926064155491
 10
10.37803194926318
 20
0.8690385754760495
 10
10.3768470889715
 20
0.8722647314135235
 10
10.37550053838179
 20
0.8753566968814975
 10
10.37406093659843
 20
0.8782973392885374
 10
10.37251334979049
 20
0.8810938372321309
 10
10.37084284412706
 20
0.8837533693098293
 10
10.36903448577728
 20
0.8862831141189923
 10
10.36707334091024
 20
0.8886902502571649
 10
10.36494447569501
 20
0.8909819563217679
 10
10.3626329563008
 20
0.8931654109102771
 10
10.3601312201426
 20
0.8952469790411782
 10
10.35746118961948
 20
0.897229771416949
 10
10.35465215837644
 20
0.8991160851610489
 10
10.3517334200585
 20
0.9009082173969654
 10
10.34873426831064
 20
0.9026084652481641
 10
10.345683996778
 20
0.904219125838097
 10
10.34261189910553
 20
0.9057424962902588
 10
10.33954726893808
 20
0.9071808737281832
 10
10.33651365603866
 20
0.908535119567303
 10
10.33351163464074
 20
0.9098003523914455
 10
10.33053603509593
 20
0.9109702550763357
 10
10.32758168775545
 20
0.9120385104978385
 10
10.32464342297082
 20
0.9129988015317142
 10
10.3217160710935
 20
0.9138448110537666
 10
10.31879446247478
 20
0.9145702219398172
 10
10.31587342746613
 20
0.9151687170656527
 10
10.31294521175738
 20
0.9156363721382492
 10
10.30999172239184
 20
0.9159788341893078
 10
10.30699228175126
 20
0.9162041430817062
 10
10.30392621221737
 20
0.9163203386783198
 10
10.30077283617192
 20
0.9163354608420251
 10
10.29751147599663
 20
0.9162575494356993
 10
10.29412145407324
 20
0.916094644322219
 10
10.29058209278349
 20
0.9158547853644606
 10
10.28688429786176
 20
0.915542566786279
 10
10.28306530845307
 20
0.9151488002554414
 10
10.2791739470551
 20
0.9146608518006942
 10
10.27525903616553
 20
0.9140660874507853
 10
10.27136939828199
 20
0.9133518732344576
 10
10.2675538559022
 20
0.9125055751804589
 10
10.2638612315238
 20
0.9115145593175315
 10
10.26034034764448
 20
0.9103661916744268
 10
10.25702806047382
 20
0.9090500396379223
 10
10.25391336106907
 20
0.907564476026922
 10
10.25097327419941
 20
0.9059100750183606
 10
10.24818482463405
 20
0.9040874107891838
 10
10.24552503714214
 20
0.9020970575163344
 10
10.24297093649288
 20
0.899939589376749
 10
10.24049954745543
 20
0.897615580547357
 10
10.23808789479896
 20
0.8951256052051203
 10
10.23572190621937
 20
0.8924718646618076
 10
10.23342312111922
 20
0.8896630687689704
 10
10.23122198182784
 20
0.8867095545128991
 10
10.2291489306745
 20
0.8836216588800125
 10
10.22723440998845
 20
0.8804097188565556
 10
10.22550886209896
 20
0.8770840714289507
 10
10.22400272933538
 20
0.8736550535835501
 10
10.22274645402695
 20
0.8701330023066912
 10
10.22176234139291
 20
0.8665312217083132
 10
10.22104014821223
 20
0.8628748843927439
 10
10.22056149415385
 20
0.8591921300879345
 10
10.22030799888671
 20
0.8555110985218782
 10
10.22026128207973
 20
0.8518599294222987
 10
10.22040296340185
 20
0.8482667625173174
 10
10.220714662522
 20
0.8447597375347671
 10
10.22117799910911
 20
0.8413669942025961
 10
10.22178234704742
 20
0.8381102594515001
 10
10.22254809708235
 20
0.8349856090231126
 10
10.22350339417467
 20
0.8319827058617427
 10
10.22467638328513
 20
0.8290912129117565
 10
10.22609520937447
 20
0.826300793117538
 10
10.22778801740344
 20
0.8236011094234578
 10
10.22978295233277
 20
0.8209818247738416
 10
10.23210815912324
 20
0.8184326021130857
 10
10.23478297546478
 20
0.8159451143627995
 10
10.23779150996425
 20
0.8135190743537066
 10
10.24110906395777
 20
0.8111562048937271
 10
10.24471093878139
 20
0.8088582287908405
 10
10.24857243577118
 20
0.806626868853025
 10
10.25266885626319
 20
0.8044638478882344
 10
10.25697550159357
 20
0.8023708887044415
 10
10.26146767309834
 20
0.8003497141095795
 10
10.26612124652347
 20
0.7984001326651931
 10
10.27091439525473
 20
0.7965142959468546
 10
10.27582586708764
 20
0.7946824412837474
 10
10.28083440981774
 20
0.792894806005041
 10
10.28591877124073
 20
0.7911416274398687
 10
10.29105769915195
 20
0.7894131429174697
 10
10.29622994134699
 20
0.7876995897670195
 10
10.30141424562172
 20
0.7859912053173136
 10
10.30658380736426
 20
0.7842788968751117
 10
10.31168961233056
 20
0.782556251654297
 10
10.3166770938699
 20
0.780817526846298
 10
10.32149168533101
 20
0.7790569796424745
 10
10.32607882006306
 20
0.7772688672340841
 10
10.33038393141485
 20
0.7754474468124343
 10
10.33435245273538
 20
0.7735869755688586
 10
10.33792981737353
 20
0.7716817106946627
 10
10.341075722606
 20
0.769728302212333
 10
10.34380692142046
 20
0.7677329714690997
 10
10.34615443073236
 20
0.7657043326433161
 10
10.34814926745713
 20
0.7636509999134028
 10
10.34982244851021
 20
0.761581587457732
 10
10.35120499080705
 20
0.7595047094547093
 10
10.35232791126307
 20
0.7574289800826985
 10
10.35366759676898
 20
0.7543341602291047
 10
10.35464946913411
 20
0.7502523869177686
 10
10.35479734249924
 20
0.7462326025740828
 10
10.35408318237302
 20
0.7422343889505284
 10
10.35287912532828
 20
0.7392403375487402
 10
10.35184638211841
 20
0.7372373492191492
 10
10.35059077772987
 20
0.735244123421817
 10
10.3491192047563
 20
0.7332750172131179
 10
10.34743855579136
 20
0.7313443876494193
 10
10.34555572342867
 20
0.7294665917870692
 10
10.34347760026189
 20
0.7276559866824402
 10
10.34121107888469
 20
0.7259269293918902
 10
10.3387630518907
 20
0.7242937769717842
 10
10.33614366670946
 20
0.7227691636127983
 10
10.33337609011405
 20
0.721358832042766
 10
10.33048674371348
 20
0.720066802123851
 10
10.32750204911673
 20
0.7188970937181903
 10
10.32444842793275
 20
0.717853726687947
 10
10.32135230177059
 20
0.7169407208952796
 10
10.31824009223918
 20
0.7161620962023261
 10
10.31513822094751
 20
0.7155218724712438
 10
10.31206707850548
 20
0.7150228253062929
 10
10.30902293152653
 20
0.7146627532801518
 10
10.305996015625
 20
0.7144382107076096
 10
10.30297656641522
 20
0.7143457519034522
 10
10.29995481951155
 20
0.7143819311824675
 10
10.29692101052833
 20
0.7145433028594431
 10
10.2938653750799
 20
0.7148264212491641
 10
10.29077814878059
 20
0.7152278406664204
 10
10.28765550252018
 20
0.7157453597185373
 10
10.28451734829007
 20
0.7163817541829838
 10
10.28138953335716
 20
0.7171410441297724
 10
10.27829790498825
 20
0.7180272496289267
 10
10.27526831045023
 20
0.7190443907504376
 10
10.27232659700994
 20
0.7201964875643307
 10
10.26949861193422
 20
0.7214875601406069
 10
10.26681020248991
 20
0.7229216285492932
 10
10.26428290806609
 20
0.7244972571747949
 10
10.2619210365405
 20
0.7261911876593153
 10
10.25972458791325
 20
0.7279747059593085
 10
10.25769356218423
 20
0.729819098031436
 10
10.25582795935352
 20
0.7316956498321952
 10
10.25412777942109
 20
0.7335756473181535
 10
10.25259302238693
 20
0.7354303764459066
 10
10.25057039847515
 20
0.7380902337384058
 10
10.2484642105567
 20
0.7413857553866597
 10
10.24691660417683
 20
0.7443804240278558
 10
10.24583440562199
 20
0.7471149260032182
 10
10.24529297004508
 20
0.7490413504099487
 10
10.24500462868447
 20
0.7502457077066868
 10
10.24470479966778
 20
0.7513897658240555
 10
10.24430387895223
 20
0.7524637620218519
 10
10.24371226249503
 20
0.7534579335599392
 10
10.24284034625339
 20
0.7543625176982113
 10
10.24159852618451
 20
0.7551677516965452
 10
10.23989719824563
 20
0.7558638728148168
 10
10.23764675839395
 20
0.7564411183128947
 10
10.23479734990521
 20
0.7568933268926483
 10
10.2314581053293
 20
0.7572287430239286
 10
10.22777790453458
 20
0.7574592126185782
 10
10.2239056273895
 20
0.7575965815884392
 10
10.21999015376243
 20
0.7576526958453568
 10
10.21618036352177
 20
0.7576394013011734
 10
10.2126251365359
 20
0.7575685438677336
 10
10.20947335267327
 20
0.7574519694568807
 10
10.20684713189175
 20
0.7572892689336518
 10
10.20476155450719
 20
0.7570310129758592
 10
10.20320494092495
 20
0.7566155172145106
 10
10.20216561155039
 20
0.7559810972806087
 10
10.20163188678885
 20
0.7550660688051636
 10
10.2015920870457
 20
0.7538087474191797
 10
10.20203453272628
 20
0.7521474487536639
 10
10.20294754423595
 20
0.7500204884396254
 10
10.20431396450561
 20
0.7473911773554171
 10
10.20609472656831
 20
0.7443228073689851
 10
10.20824528598257
 20
0.7409036655956135
 10
10.21072109830719
 20
0.7372220391503423
 10
10.2134776191006
 20
0.7333662151486503
 10
10.21647030392139
 20
0.7294244807057728
 10
10.21965460832823
 20
0.7254851229369326
 10
10.22298598787973
 20
0.72163642895734
 10
10.22642244797426
 20
0.7179540867935771
 10
10.22993219336969
 20
0.7144633881170792
 10
10.23348597866356
 20
0.7111770255106462
 10
10.23705455845355
 20
0.7081076915570734
 10
10.24060868733727
 20
0.7052680788390655
 10
10.24411911991237
 20
0.7026708799393964
 10
10.24755661077644
 20
0.7003287874407897
 10
10.25089191452709
 20
0.6982544939260579
 10
10.25411180424769
 20
0.6964548532775506
 10
10.25726712696401
 20
0.6949133645763152
 10
10.26042474818766
 20
0.6936076882030217
 10
10.26365153343012
 20
0.6925154845383288
 10
10.26701434820294
 20
0.6916144139629084
 10
10.27058005801763
 20
0.6908821368574215
 10
10.27441552838574
 20
0.6902963136025381
 10
10.27858762481879
 20
0.6898346045789281
 10
10.28314008641343
 20
0.6894804622039775
 10
10.28802414660684
 20
0.6892405070419614
 10
10.29316791242133
 20
0.6891271516938782
 10
10.29849949087918
 20
0.6891528087607243
 10
10.30394698900273
 20
0.6893298908434963
 10
10.30943851381424
 20
0.6896708105431916
 10
10.31490217233604
 20
0.6901879804608068
 10
10.32026607159044
 20
0.6908938131973402
 10
10.32546902451008
 20
0.6917988358150128
 10
10.33049266766909
 20
0.6929060332209489
 10
10.3353293435519
 20
0.6942165047834883
 10
10.33997139464302
 20
0.6957313498709901
 10
10.34441116342689
 20
0.6974516678517852
 10
10.34864099238799
 20
0.6993785580942334
 10
10.35265322401078
 20
0.7015131199666857
 10
10.35644020077973
 20
0.7038564528374694
 10
10.35999544629116
 20
0.7064051956779157
 10
10.36331720858869
 20
0.7091381458711073
 10
10.36640491682782
 20
0.7120296404031251
 10
10.36925800016406
 20
0.7150540162600469
 10
10.37187588775285
 20
0.7181856104279039
 10
10.37425800874973
 20
0.7213987598927646
 10
10.37640379231017
 20
0.7246678016407453
 10
10.37831266758966
 20
0.7279670726578756
 10
10.37998691804757
 20
0.731271762546366
 10
10.38144024435891
 20
0.7345604713730439
 10
10.38268920150251
 20
0.7378126518208155
 10
10.38375034445728
 20
0.7410077565727125
 10
10.38448963268962
 20
0.7435976651731881
 10
10.3822880264269
 20
0.7473911773554395
 10
10.38092160615726
 20
0.7500204884396302
 10
10.38000859464759
 20
0.752147448753668
 10
10.3793487347661
 20
0.7546250960415732
 10
10.38038630547981
 20
0.7564039281601995
 10
10.3827356164285
 20
0.757031012975859
 10
10.38482119381306
 20
0.7572892689336519
 10
10.38700523526208
 20
0.7574245754124554
 10
10.3870514694541
 20
0.7579052468278015
 10
10.38714575773513
 20
0.7603062369735531
 10
10.38707506609583
 20
0.7626570003905081
 10
10.38681941432757
 20
0.764994065596062
 10
10.38635882222173
 20
0.7673539611077463
 10
10.38567330956968
 20
0.7697732154429458
 10
10.38474289616279
 20
0.7722883571190909
 10
10.38355007553331
 20
0.7749246897497314
 10
10.38208723617713
 20
0.7776626173324641
 10
10.38034924033086
 20
0.7804713189610946
 10
10.37833095023131
 20
0.7833199737292488
 10
10.37602722811516
 20
0.7861777607307278
 10
10.3734329362191
 20
0.7890138590592088
 10
10.37054293677991
 20
0.7917974478083931
 10
10.36735209203422
 20
0.7944977060720687
 10
10.36385954568822
 20
0.7970891399991307
 10
10.36008156732564
 20
0.7995675639595792
 10
10.35603870799958
 20
0.8019341193787074
 10
10.35175151876321
 20
0.8041899476816618
 10
10.34724055066962
 20
0.8063361902937215
 10
10.34252635477201
 20
0.8083739886401064
 10
10.33762948212345
 20
0.8103044841460519
 10
10.33257048377711
 20
0.8121288182367896
 10
10.32737447773213
 20
0.8138497495182729
 10
10.32208484977084
 20
0.8154765053195045
 10
10.31674955262186
 20
0.8170199301501826
 10
10.31141653901356
 20
0.8184908685200145
 10
10.3061337616744
 20
0.81990016493869
 10
10.30094917333311
 20
0.8212586639159674
 10
10.29591072671782
 20
0.8225772099615216
 10
10.29106637455702
 20
0.8238666475850612
 10
10.28645820923146
 20
0.8251379632758661
 10
10.28210488173145
 20
0.8264027114411652
 97
        0
 92
        7
 72
     0
 73
     1
 93
      332
 10
10.50534853965341
 20
0.8138497495182777
 10
10.50005891169213
 20
0.815476505319509
 10
10.49472361454315
 20
0.8170199301501725
 10
10.48939060093493
 20
0.8184908685200088
 10
10.48410782359585
 20
0.8199001649386895
 10
10.47892323525442
 20
0.8212586639159674
 10
10.47388478863915
 20
0.8225772099615216
 10
10.46904043647837
 20
0.823866647585052
 10
10.4644322711528
 20
0.8251379632758597
 10
10.46007894365279
 20
0.8264027114411579
 10
10.45599324462061
 20
0.8276725884677581
 10
10.45218796469878
 20
0.8289592907424944
 10
10.44867589452961
 20
0.8302745146521562
 10
10.44546982475567
 20
0.831629956583545
 10
10.44258254601931
 20
0.83303731292347
 10
10.440026848963
 20
0.8345082800587263
 10
10.43780884343144
 20
0.836051027579557
 10
10.43590791607861
 20
0.8376596178899301
 10
10.4342967727607
 20
0.8393245865972218
 10
10.432948119334
 20
0.8410364693088345
 10
10.43183466165471
 20
0.8427858016321673
 10
10.43092910557909
 20
0.8445631191746103
 10
10.43020415696336
 20
0.8463589575435353
 10
10.42963252166375
 20
0.8481638523463971
 10
10.42919267498666
 20
0.8499715272109236
 10
10.42888617003912
 20
0.851788457846505
 10
10.42872032937832
 20
0.8536243079829407
 10
10.42870247556143
 20
0.8554887413499216
 10
10.42883993114565
 20
0.857391421677303
 10
10.42914001868813
 20
0.8593420126947613
 10
10.42961006074609
 20
0.8613501781321573
 10
10.43025737987671
 20
0.8634255817191911
 10
10.43108626210441
 20
0.8655720042335751
 10
10.43208884732269
 20
0.8677696946444378
 10
10.43325423889236
 20
0.8699930189689649
 10
10.43457154017414
 20
0.8722163432241956
 10
10.43602985452885
 20
0.8744140334272401
 10
10.43761828531718
 20
0.8765604555951787
 10
10.43932593589994
 20
0.8786299757451079
 10
10.44114190963785
 20
0.8805969598941224
 10
10.44305904893147
 20
0.882439085109403
 10
10.44508515233988
 20
0.8841472726583329
 10
10.44723175746198
 20
0.8857157548583966
 10
10.44951040189668
 20
0.8871387640270611
 10
10.45193262324281
 20
0.8884105324818007
 10
10.45450995909927
 20
0.8895252925400797
 10
10.45725394706494
 20
0.8904772765193715
 10
10.46017612473867
 20
0.8912607167371488
 10
10.4632808187743
 20
0.891868189974304
 10
10.46654351204532
 20
0.8922856508654106
 10
10.4699324764802
 20
0.8924973985084658
 10
10.47341598400739
 20
0.8924877320014662
 10
10.47696230655536
 20
0.8922409504424081
 10
10.48053971605255
 20
0.8917413529292868
 10
10.48411648442741
 20
0.8909732385601044
 10
10.48766088360843
 20
0.8899209064328459
 10
10.49116111328187
 20
0.8885379544200569
 10
10.49468508416543
 20
0.8866551754924419
 10
10.49832063473467
 20
0.8840726613952249
 10
10.5021556034651
 20
0.8805905038736549
 10
10.50627782883225
 20
0.8760087946729814
 10
10.51077514931169
 20
0.8701276255383795
 10
10.51573540337892
 20
0.8627470882152145
 10
10.52124642950947
 20
0.8536672744486041
 10
10.53423049661022
 20
0.854119663004919
 10
10.54373091988494
 20
0.855384369650299
 10
10.55023420311412
 20
0.8573227058493982
 10
10.5542268500782
 20
0.8597959830668704
 10
10.55619536455765
 20
0.8626655127673666
 10
10.55662625033292
 20
0.8657926064155423
 10
10.55600601118449
 20
0.8690385754760454
 10
10.55482115089281
 20
0.8722647314135409
 10
10.5534746003031
 20
0.8753566968814936
 10
10.55203499851972
 20
0.8782973392885736
 10
10.5504874117118
 20
0.8810938372321484
 10
10.54881690604839
 20
0.8837533693098171
 10
10.54700854769859
 20
0.88628311411899
 10
10.54504740283154
 20
0.888690250257156
 10
10.54291853761635
 20
0.8909819563217464
 10
10.54060701822214
 20
0.8931654109102639
 10
10.53810528206392
 20
0.8952469790411758
 10
10.53543525154078
 20
0.8972297714169476
 10
10.53262622029775
 20
0.8991160851610471
 10
10.52970748197979
 20
0.900908217396957
 10
10.526708330232
 20
0.9026084652481326
 10
10.52365805869934
 20
0.9042191258380768
 10
10.52058596102676
 20
0.9057424962902794
 10
10.51752133085943
 20
0.9071808737281708
 10
10.51448771795997
 20
0.9085351195673167
 10
10.51148569656204
 20
0.9098003523914441
 10
10.50851009701722
 20
0.9109702550763335
 10
10.50555574967677
 20
0.9120385104978304
 10
10.50261748489218
 20
0.9129988015317104
 10
10.4996901330148
 20
0.9138448110537654
 10
10.49676852439609
 20
0.9145702219398174
 10
10.49384748938745
 20
0.9151687170656503
 10
10.49091927367869
 20
0.9156363721382478
 10
10.48796578431314
 20
0.9159788341893085
 10
10.48496634367257
 20
0.9162041430817062
 10
10.48190027413869
 20
0.9163203386783195
 10
10.47874689809323
 20
0.9163354608420251
 10
10.47548553791794
 20
0.9162575494356991
 10
10.47209551599456
 20
0.9160946443222192
 10
10.4685561547048
 20
0.9158547853644606
 10
10.46485835978308
 20
0.9155425667862797
 10
10.46103937037439
 20
0.9151488002554419
 10
10.45714800897642
 20
0.9146608518006948
 10
10.45323309808683
 20
0.9140660874507842
 10
10.44934346020331
 20
0.9133518732344565
 10
10.44552791782352
 20
0.9125055751804602
 10
10.44183529344511
 20
0.9115145593175324
 10
10.43831440956579
 20
0.9103661916744281
 10
10.43500212239512
 20
0.9090500396379194
 10
10.43188742299038
 20
0.9075644760269218
 10
10.42894733612071
 20
0.9059100750183562
 10
10.42615888655535
 20
0.9040874107891799
 10
10.42349909906345
 20
0.9020970575163296
 10
10.42094499841418
 20
0.8999395893767406
 10
10.41847360937672
 20
0.8976155805473274
 10
10.41606195672028
 20
0.8951256052050945
 10
10.41369596814067
 20
0.8924718646618055
 10
10.41139718304057
 20
0.889663068768977
 10
10.40919604374917
 20
0.8867095545129412
 10
10.40712299259579
 20
0.8836216588799844
 10
10.40520847190975
 20
0.8804097188565366
 10
10.40348292402029
 20
0.8770840714289619
 10
10.4019767912567
 20
0.8736550535835545
 10
10.40072051594827
 20
0.8701330023066891
 10
10.39973640331422
 20
0.8665312217083231
 10
10.39901421013354
 20
0.8628748843927601
 10
10.39853555607516
 20
0.8591921300879576
 10
10.39828206080802
 20
0.8555110985218348
 10
10.39823534400104
 20
0.8518599294222472
 10
10.39837702532316
 20
0.8482667625172959
 10
10.39868872444331
 20
0.8447597375348349
 10
10.39915206103043
 20
0.8413669942026016
 10
10.39975640896872
 20
0.8381102594515363
 10
10.40052215900366
 20
0.8349856090231323
 10
10.40147745609599
 20
0.8319827058617404
 10
10.40265044520646
 20
0.8290912129117478
 10
10.40406927129579
 20
0.8263007931175291
 10
10.40576207932476
 20
0.8236011094234505
 10
10.40775701425408
 20
0.8209818247738532
 10
10.41008222104454
 20
0.8184326021130845
 10
10.41275703738611
 20
0.8159451143627993
 10
10.41576557188558
 20
0.8135190743536872
 10
10.41908312587908
 20
0.8111562048937209
 10
10.42268500070271
 20
0.8088582287908359
 10
10.42654649769246
 20
0.8066268688530223
 10
10.43064291818449
 20
0.8044638478882452
 10
10.43494956351487
 20
0.8023708887044335
 10
10.43944173501965
 20
0.8003497141095882
 10
10.44409530844483
 20
0.7984001326651718
 10
10.44888845717611
 20
0.796514295946847
 10
10.45379992900902
 20
0.7946824412837139
 10
10.45880847173912
 20
0.792894806005028
 10
10.46389283316188
 20
0.7911416274399263
 10
10.46903176107323
 20
0.7894131429174848
 10
10.47420400326888
 20
0.78769958976681
 10
10.47938830754317
 20
0.7859912053175256
 10
10.48455786928567
 20
0.7842788968750938
 10
10.4896636742519
 20
0.7825562516543016
 10
10.49465115579118
 20
0.7808175268463278
 10
10.49946574725235
 20
0.7790569796424732
 10
10.50405288198437
 20
0.777268867234085
 10
10.50835799333617
 20
0.7754474468124265
 10
10.5123265146567
 20
0.7735869755688534
 10
10.51590387929484
 20
0.7716817106946654
 10
10.51904978452731
 20
0.7697283022123348
 10
10.52178098334175
 20
0.7677329714691106
 10
10.52412849265367
 20
0.7657043326433061
 10
10.52612332937844
 20
0.7636509999134033
 10
10.52779651043153
 20
0.7615815874577389
 10
10.52917905272837
 20
0.7595047094546993
 10
10.53030197318438
 20
0.7574289800826813
 10
10.53119628871502
 20
0.7553630135200819
 10
10.53188717662978
 20
0.7533135096757363
 10
10.53237645581427
 20
0.7512795113801936
 10
10.53266010554824
 20
0.7492581471944747
 10
10.53273410511137
 20
0.7472465456795955
 10
10.53259443378337
 20
0.7452418353965716
 10
10.53223707084394
 20
0.7432411449064102
 10
10.53165799557277
 20
0.7412416027701214
 10
10.53085318724958
 20
0.7392403375487424
 10
10.52982044403973
 20
0.7372373492191729
 10
10.52856483965119
 20
0.7352441234218347
 10
10.52709326667763
 20
0.7332750172131343
 10
10.52541261771267
 20
0.7313443876494206
 10
10.52352978534999
 20
0.7294665917870765
 10
10.52145166218321
 20
0.7276559866824455
 10
10.51918514080602
 20
0.7259269293918962
 10
10.51673711381203
 20
0.7242937769717994
 10
10.51411772863079
 20
0.7227691636128072
 10
10.51135015203536
 20
0.7213588320427617
 10
10.50846080563482
 20
0.7200668021238542
 10
10.50547611103804
 20
0.7188970937181917
 10
10.50242248985408
 20
0.7178537266879522
 10
10.49932636369189
 20
0.7169407208952769
 10
10.49621415416049
 20
0.716162096202327
 10
10.49311228286883
 20
0.7155218724712439
 10
10.49004114042679
 20
0.7150228253062928
 10
10.48699699344783
 20
0.7146627532801517
 10
10.4839700775463
 20
0.7144382107076095
 10
10.48095062833653
 20
0.7143457519034521
 10
10.47792888143286
 20
0.7143819311824675
 10
10.47489507244965
 20
0.7145433028594425
 10
10.47183943700122
 20
0.7148264212491642
 10
10.4687522107019
 20
0.7152278406664215
 10
10.46562956444148
 20
0.7157453597185344
 10
10.46249141021139
 20
0.7163817541829843
 10
10.45936359527847
 20
0.7171410441297736
 10
10.45627196690957
 20
0.7180272496289261
 10
10.45324237237155
 20
0.719044390750436
 10
10.45030065893125
 20
0.7201964875643262
 10
10.44747267385552
 20
0.7214875601406083
 10
10.44478426441121
 20
0.7229216285492934
 10
10.4422569699874
 20
0.7244972571747973
 10
10.43989509846184
 20
0.7261911876592898
 10
10.43769864983454
 20
0.7279747059593245
 10
10.43566762410555
 20
0.7298190980314158
 10
10.43380202127483
 20
0.7316956498321976
 10
10.4321018413424
 20
0.7335756473181674
 10
10.43056708430819
 20
0.7354303764459278
 10
10.42919775017232
 20
0.7372311231720232
 10
10.42799202004904
 20
0.738954629126997
 10
10.4269407995101
 20
0.7405994586376412
 10
10.42603317524156
 20
0.7421696317045648
 10
10.42525823392941
 20
0.7436691683286206
 10
10.42460506225977
 20
0.7451020885104792
 10
10.4240627469187
 20
0.7464724122508226
 10
10.42362037459222
 20
0.7477841595503607
 10
10.42326703196637
 20
0.7490413504099181
 10
10.42297869060577
 20
0.7502457077067445
 10
10.4226788615891
 20
0.7513897658240604
 10
10.42227794087354
 20
0.7524637620218443
 10
10.42168632441634
 20
0.7534579335599286
 10
10.42081440817469
 20
0.7543625176982097
 10
10.41957258810583
 20
0.7551677516965447
 10
10.41787126016694
 20
0.7558638728148157
 10
10.41562082031527
 20
0.7564411183128931
 10
10.41277141182653
 20
0.7568933268926488
 10
10.4094321672506
 20
0.7572287430239295
 10
10.4057519664559
 20
0.757459212618578
 10
10.40187968931081
 20
0.7575965815884393
 10
10.39796421568373
 20
0.7576526958453568
 10
10.39415442544307
 20
0.7576394013011737
 10
10.39059919845722
 20
0.7575685438677339
 10
10.38744741459458
 20
0.7574519694568806
 10
10.38700523526208
 20
0.7574245754124555
 10
10.38681218146136
 20
0.7554175014357972
 10
10.38644787396555
 20
0.7528064722801325
 10
10.38597243797736
 20
0.7500451434823946
 10
10.38537540771582
 20
0.7471445497204833
 10
10.38451542906739
 20
0.7436127002930891
 10
10.38621934790391
 20
0.7409036655955603
 10
10.38869516022847
 20
0.7372220391503773
 10
10.39145168102193
 20
0.7333662151486424
 10
10.39444436584268
 20
0.7294244807057951
 10
10.39762867024958
 20
0.7254851229369065
 10
10.40096004980106
 20
0.7216364289573225
 10
10.4043965098956
 20
0.7179540867935571
 10
10.40790625529098
 20
0.7144633881171085
 10
10.41146004058489
 20
0.7111770255106719
 10
10.41502862037485
 20
0.7081076915570879
 10
10.41858274925856
 20
0.7052680788390928
 10
10.42209318183366
 20
0.7026708799393849
 10
10.42553067269774
 20
0.7003287874407878
 10
10.42886597644841
 20
0.6982544939260525
 10
10.432085866169
 20
0.696454853277543
 10
10.43524118888531
 20
0.6949133645763208
 10
10.43839881010898
 20
0.69360768820302
 10
10.44162559535143
 20
0.6925154845383288
 10
10.44498841012425
 20
0.6916144139629039
 10
10.44855411993894
 20
0.6908821368574213
 10
10.45238959030705
 20
0.6902963136025376
 10
10.4565616867401
 20
0.6898346045789278
 10
10.46111414833474
 20
0.6894804622039774
 10
10.46599820852815
 20
0.6892405070419617
 10
10.47114197434263
 20
0.6891271516938783
 10
10.4764735528005
 20
0.6891528087607242
 10
10.48192105092403
 20
0.6893298908434963
 10
10.48741257573555
 20
0.6896708105431915
 10
10.49287623425736
 20
0.6901879804608075
 10
10.49824013351175
 20
0.6908938131973404
 10
10.50344308643139
 20
0.691798835815013
 10
10.5084667295904
 20
0.6929060332209494
 10
10.5133034054732
 20
0.6942165047834851
 10
10.51794545656434
 20
0.6957313498709924
 10
10.52238522534819
 20
0.6974516678517833
 10
10.5266150543093
 20
0.6993785580942391
 10
10.53062728593211
 20
0.701513119966689
 10
10.53441426270105
 20
0.7038564528374751
 10
10.53796950821247
 20
0.7064051956779223
 10
10.54129127051
 20
0.7091381458711039
 10
10.54437897874914
 20
0.7120296404031372
 10
10.54723206208536
 20
0.7150540162600328
 10
10.54984994967415
 20
0.7181856104278932
 10
10.55223207067104
 20
0.7213987598927661
 10
10.55437785423146
 20
0.724667801640715
 10
10.55628672951097
 20
0.7279670726578626
 10
10.55796097996887
 20
0.7312717625463544
 10
10.55941430628019
 20
0.7345604713730222
 10
10.56066326342381
 20
0.7378126518207975
 10
10.56172440637858
 20
0.7410077565726842
 10
10.5626142901234
 20
0.7441252383115826
 10
10.56334946963712
 20
0.7471445497204067
 10
10.56394649989865
 20
0.7500451434823217
 10
10.56442193588686
 20
0.7528064722801591
 10
10.56478624338267
 20
0.755417501435773
 10
10.56502553137541
 20
0.7579052468278255
 10
10.56511981965644
 20
0.7603062369735567
 10
10.56504912801714
 20
0.762657000390504
 10
10.56479347624888
 20
0.7649940655960821
 10
10.56433288414304
 20
0.7673539611077818
 10
10.563647371491
 20
0.769773215442969
 10
10.56271695808411
 20
0.7722883571190834
 10
10.56152413745462
 20
0.7749246897497122
 10
10.56006129809843
 20
0.7776626173324656
 10
10.55832330225219
 20
0.7804713189610766
 10
10.55630501215264
 20
0.7833199737292303
 10
10.55400129003646
 20
0.7861777607307313
 10
10.55140699814043
 20
0.7890138590592095
 10
10.54851699870123
 20
0.7917974478083916
 10
10.54532615395554
 20
0.7944977060720522
 10
10.54183360760955
 20
0.7970891399991278
 10
10.53805562924694
 20
0.799567563959601
 10
10.53401276992088
 20
0.8019341193786907
 10
10.52972558068449
 20
0.8041899476816688
 10
10.5252146125909
 20
0.8063361902937227
 10
10.5205004166933
 20
0.8083739886401188
 10
10.51560354404477
 20
0.8103044841460466
 10
10.51054454569843
 20
0.8121288182367782
 97
        0
 92
        7
 72
     0
 73
     1
 93
        8
 10
10.67658029249145
 20
0.9113007718636081
 10
10.64316878567811
 20
0.9113007718636081
 10
10.55313576562074
 20
0.6935397565189305
 10
10.59403055491829
 20
0.6935397565189305
 10
10.61364532477682
 20
0.7449467398020106
 10
10.70504017111647
 20
0.7449467398020104
 10
10.72409675323138
 20
0.6935397565189306
 10
10.76195527316375
 20
0.6935397565189306
 97
        0
 92
       22
 72
     0
 73
     1
 93
        3
 10
10.66000235099198
 20
0.8664406389853375
 10
10.69676180588761
 20
0.7672784349803833
 10
10.62216617220843
 20
0.7672784349803835
 97
        0
 92
        7
 72
     0
 73
     1
 93
        8
 10
10.94021144582451
 20
0.9113007718636083
 10
10.90679993901117
 20
0.9113007718636081
 10
10.81676691895379
 20
0.6935397565189305
 10
10.85766170825135
 20
0.6935397565189305
 10
10.87727647810988
 20
0.7449467398020106
 10
10.96867132444954
 20
0.7449467398020104
 10
10.98772790656443
 20
0.6935397565189306
 10
11.02558642649682
 20
0.6935397565189306
 97
        0
 92
       22
 72
     0
 73
     1
 93
        3
 10
10.92363350432504
 20
0.8664406389853375
 10
10.96039295922067
 20
0.7672784349803833
 10
10.88579732554149
 20
0.7672784349803835
 97
        0
 92
        7
 72
     0
 73
     1
 93
        9
 10
11.74513972770345
 20
0.9070009225506083
 10
11.70095341474298
 20
0.9070009225506083
 10
11.64553127321352
 20
0.817588151236259
 10
11.59010913168406
 20
0.9070009225506082
 10
11.54615332993452
 20
0.9070009225506082
 10
11.62334630788695
 20
0.7779075685452033
 10
11.62334630788695
 20
0.6925822596927276
 10
11.66537360328702
 20
0.6925822596927275
 10
11.66537360328702
 20
0.77490619858938
 97
        0
 92
        7
 72
     0
 73
     1
 93
       22
 10
11.55837983613412
 20
0.7639796099140554
 10
11.56222285574059
 20
0.7835753211451698
 10
11.56222285574059
 20
0.8219982558245721
 10
11.55107814885716
 20
0.8596527736704899
 10
11.52994158266769
 20
0.8861646266242642
 10
11.50995794734781
 20
0.9026864931481155
 10
11.48113538359151
 20
0.9145976103484086
 10
11.4592302384684
 20
0.9172872289015927
 10
11.44270531246514
 20
0.9172872289015927
 10
11.41349843841895
 20
0.9076814686257385
 10
11.38544449524239
 20
0.8892384713315253
 10
11.36622943885614
 20
0.8611896782867873
 10
11.35662193148608
 20
0.8369832177321359
 10
11.35239460158974
 20
0.8216140296704889
 10
11.35239460158974
 20
0.782038381054205
 10
11.36238646089578
 20
0.7486104218524266
 10
11.38813458397925
 20
0.7132612964056135
 10
11.41080834968209
 20
0.6967394298817644
 10
11.42618038646186
 20
0.6894390620050216
 10
11.48305689339474
 20
0.6894390620050216
 10
11.51918118607412
 20
0.7059609285288727
 10
11.54262353071059
 20
0.7313200675457561
 97
        0
 92
       22
 72
     0
 73
     1
 93
       22
 10
11.51504412876022
 20
0.7501000808163792
 10
11.49943952007813
 20
0.73321954062257
 10
11.475868505009
 20
0.7224390620050219
 10
11.43361835117975
 20
0.7224390620050219
 10
11.4277504420849
 20
0.7252258036498287
 10
11.41175729972679
 20
0.7368796491909976
 10
11.39238642626128
 20
0.763473565723352
 10
11.38539460158974
 20
0.7868648508393328
 10
11.38539460158974
 20
0.8171584023439447
 10
11.3879610218986
 20
0.8264890666969396
 10
11.39554007502716
 20
0.8455847637941424
 10
11.4089988151592
 20
0.8652308896768069
 10
11.42796777928281
 20
0.8777013132391568
 10
11.44799263975274
 20
0.8842872289015929
 10
11.45721186833308
 20
0.8842872289015931
 10
11.4726696923495
 20
0.882389243289867
 10
11.49276099752819
 20
0.8740863770801306
 10
11.50627390770938
 20
0.8629143107974602
 10
11.52126196231477
 20
0.844114610969237
 10
11.52922285574059
 20
0.8172172141415526
 10
11.52922285574059
 20
0.7867806944221904
 10
11.52681358111834
 20
0.7744957064157504
 97
        0
 92
        7
 72
     0
 73
     1
 93
        6
 10
11.37151587093948
 20
0.7218418032349804
 10
11.27279135510392
 20
0.7218418032349804
 10
11.27279135510392
 20
0.9070009225506083
 10
11.23434995623601
 20
0.9070009225506083
 10
11.23434995623601
 20
0.6912690583473804
 10
11.37151587093948
 20
0.6912690583473805
 97
        0
 92
        7
 72
     0
 73
     1
 93
       15
 10
11.18656483644971
 20
0.7054801048475589
 10
11.20572017231627
 20
0.7195622718705202
 10
11.21670629081828
 20
0.7412488246947385
 10
11.21670629081828
 20
0.7640619466238331
 10
11.20374827072167
 20
0.7896915090524536
 10
11.17698718933949
 20
0.8057451808776161
 10
11.17169476021651
 20
0.8132355156138398
 10
11.19016160261622
 20
0.8316989108434814
 10
11.20294633325507
 20
0.8494522095976275
 10
11.20294633325507
 20
0.8689808027525272
 10
11.1933577748644
 20
0.8945455529584991
 10
11.166851692605
 20
0.9070009225506085
 10
11.0347521935933
 20
0.9070009225506083
 10
11.0347521935933
 20
0.6937270627781444
 10
11.15246267057187
 20
0.6937270627781445
 97
        0
 92
       22
 72
     0
 73
     1
 93
        8
 10
11.07525457508204
 20
0.7204185239876752
 10
11.07525457508204
 20
0.7932097449546233
 10
11.15320713640864
 20
0.7932097449546233
 10
11.16815833926133
 20
0.7866091504243184
 10
11.1803531111262
 20
0.7641330023884569
 10
11.18035311112621
 20
0.7439034652230059
 10
11.1649619587826
 20
0.7264403847466245
 10
11.1415540138318
 20
0.7204185239876751
 97
        0
 92
       22
 72
     0
 73
     1
 93
        8
 10
11.07525457508204
 20
0.8171431924466219
 10
11.07525457508204
 20
0.8804292593027016
 10
11.14211744403463
 20
0.8804292593027014
 10
11.15909976924831
 20
0.8692384198082748
 10
11.16624007785457
 20
0.8576617223249488
 10
11.16624007785457
 20
0.8426119836694134
 10
11.15543312091162
 20
0.8248610262435098
 10
11.14211744403463
 20
0.8171431924466219
 97
        0
 75
     0
 76
     1
 47
0.0015905179214237
 98
       22
 10
10.47992134624781
 20
1.37964615050836
 10
10.47992134624781
 20
1.37964615050836
 10
10.71044508384069
 20
1.369907503681908
 10
10.90525388429987
 20
1.373153730213388
 10
11.25915654808451
 20
1.35692266309196
 10
11.46370577894951
 20
1.298490847669224
 10
11.46370577894951
 20
1.298490847669224
 10
10.10610662762132
 20
0.8926128182384616
 10
10.10610662762132
 20
0.8926128182384616
 10
10.23832789733967
 20
0.8265144071111549
 10
10.4449622008093
 20
0.8122657051211561
 10
10.63152011177119
 20
0.8077711492171957
 10
10.63152011177119
 20
0.8077711492171957
 10
10.88550855217431
 20
0.8223783985610815
 10
10.88550855217431
 20
0.8223783985610815
 10
11.63957770242978
 20
0.7789292553513115
 10
11.53776570983672
 20
0.7598430476670224
 10
11.53776570983672
 20
0.7598430476670224
 10
11.24664699723347
 20
0.7041749173451919
 10
11.10506467399626
 20
0.7041749173451919
 10
11.10506467399626
 20
0.7041749173451919
 10
11.10506467399626
 20
0.7041749173451919
1001
ACAD
1010
0.0
1020
0.0
1030
0.0
  0
LWPOLYLINE
  5
B9A
330
890
100
AcDbEntity
  8
0
370
    20
100
AcDbPolyline
 90
        9
 70
     1
 43
0.0
 10
11.07525457508204
 20
0.8171431924466219
 10
11.07525457508204
 20
0.8804292593027014
 10
11.14211744403463
 20
0.8804292593027014
 10
11.15909976924831
 20
0.8692384198082763
 10
11.16624007785457
 20
0.8576617223249485
 10
11.16624007785457
 20
0.8426119836694141
 10
11.15543312091162
 20
0.8248610262435107
 10
11.14211744403463
 20
0.8171431924466219
 10
11.07525457508204
 20
0.8171431924466219
  0
LWPOLYLINE
  5
B9B
330
890
100
AcDbEntity
  8
0
370
    20
100
AcDbPolyline
 90
        6
 70
     1
 43
0.0
 10
11.27279135510392
 20
0.9070009225506083
 10
11.23434995623601
 20
0.9070009225506083
 10
11.23434995623601
 20
0.6912690583473804
 10
11.37151587093948
 20
0.6912690583473804
 10
11.37151587093948
 20
0.7218418032349803
 10
11.27279135510392
 20
0.7218418032349803
  0
LWPOLYLINE
  5
B9C
330
890
100
AcDbEntity
  8
0
370
    20
100
AcDbPolyline
 90
       23
 70
     0
 43
0.0
 10
11.4592302384684
 20
0.9172872289015927
 10
11.44270531246514
 20
0.9172872289015927
 10
11.41349843841895
 20
0.9076814686257392
 10
11.38544449524239
 20
0.8892384713315237
 10
11.36622943885614
 20
0.8611896782867844
 10
11.35662193148608
 20
0.8369832177321185
 10
11.35239460158974
 20
0.8216140296704921
 10
11.35239460158974
 20
0.7820383810541998
 10
11.36238646089578
 20
0.7486104218524261
 10
11.38813458397925
 20
0.7132612964056122
 10
11.41080834968209
 20
0.6967394298817667
 10
11.42618038646186
 20
0.6894390620050217
 10
11.48305689339474
 20
0.6894390620050217
 10
11.51918118607412
 20
0.7059609285288744
 10
11.54262353071059
 20
0.7313200675457594
 10
11.55837983613412
 20
0.7639796099140526
 10
11.56222285574059
 20
0.7835753211451646
 10
11.56222285574059
 20
0.8219982558245675
 10
11.55107814885716
 20
0.8596527736704899
 10
11.52994158266768
 20
0.8861646266242644
 10
11.50995794734781
 20
0.9026864931481171
 10
11.4811353835915
 20
0.9145976103484088
 10
11.4592302384684
 20
0.9172872289015927
  0
LWPOLYLINE
  5
B9D
330
890
100
AcDbEntity
  8
0
370
    20
100
AcDbPolyline
 90
       22
 70
     1
 43
0.0
 10
11.45721186833308
 20
0.8842872289015927
 10
11.44799263975274
 20
0.8842872289015927
 10
11.42796777928282
 20
0.8777013132391571
 10
11.4089988151592
 20
0.8652308896768039
 10
11.39554007502715
 20
0.8455847637941335
 10
11.3879610218986
 20
0.8264890666969369
 10
11.38539460158974
 20
0.8171584023439432
 10
11.38539460158974
 20
0.7868648508393239
 10
11.39238642626128
 20
0.7634735657233499
 10
11.41175729972679
 20
0.7368796491909946
 10
11.42775044208489
 20
0.7252258036498305
 10
11.43361835117975
 20
0.7224390620050217
 10
11.47586850500899
 20
0.7224390620050217
 10
11.49943952007813
 20
0.7332195406225697
 10
11.51504412876022
 20
0.7501000808163814
 10
11.52681358111834
 20
0.774495706415745
 10
11.52922285574059
 20
0.7867806944221963
 10
11.52922285574059
 20
0.8172172141415519
 10
11.52126196231477
 20
0.8441146109692356
 10
11.50627390770937
 20
0.862914310797457
 10
11.49276099752819
 20
0.8740863770801306
 10
11.4726696923495
 20
0.8823892432898674
  0
LWPOLYLINE
  5
B9E
330
890
100
AcDbEntity
  8
0
370
    20
100
AcDbPolyline
 90
        9
 70
     1
 43
0.0
 10
11.59010913168406
 20
0.9070009225506083
 10
11.54615332993452
 20
0.9070009225506083
 10
11.62334630788695
 20
0.7779075685452029
 10
11.62334630788695
 20
0.6925822596927276
 10
11.66537360328702
 20
0.6925822596927276
 10
11.66537360328702
 20
0.7749061985893775
 10
11.74513972770345
 20
0.9070009225506083
 10
11.70095341474297
 20
0.9070009225506083
 10
11.64553127321352
 20
0.8175881512362579
  0
LWPOLYLINE
  5
B9F
330
890
100
AcDbEntity
  8
0
370
    25
100
AcDbPolyline
 90
        4
 70
     0
 43
0.0
 10
9.942398462481328
 20
1.144214189559683
 10
9.942398462481328
 20
1.074097120189669
 10
11.81978271442823
 20
1.074097120189669
 10
11.81978271442823
 20
1.008467880410599
  0
ARC
  5
BA0
102
{ACAD_REACTORS
330
BD6
102
}
330
890
100
AcDbEntity
  8
0
370
    25
100
AcDbCircle
 10
10.32508269565233
 20
1.483024424384352
 30
0.0
 40
0.0087605404650458
100
AcDbArc
 50
292.5
 51
30.06084317667182
  0
ARC
  5
BA1
102
{ACAD_REACTORS
330
BD7
102
}
330
890
100
AcDbEntity
  8
0
370
    25
100
AcDbCircle
 10
10.34184526412502
 20
1.442556004237389
 30
0.0
 40
0.0087605404650458
100
AcDbArc
 50
14.93915682332818
 51
112.4999999999999
  0
ARC
  5
BA2
102
{ACAD_REACTORS
330
BD1
102
}
330
890
100
AcDbEntity
  8
0
370
    25
100
AcDbCircle
 10
10.22393073590594
 20
1.560470532456461
 30
0.0
 40
0.0087605404650458
100
AcDbArc
 50
337.499999999999
 51
75.06084317667282
  0
ARC
  5
BA3
102
{ACAD_REACTORS
330
BD1
102
}
330
890
100
AcDbEntity
  8
0
370
    25
100
AcDbCircle
 10
10.13811125119163
 20
1.560470532456461
 30
0.0
 40
0.0087605404650458
100
AcDbArc
 50
104.9391568233282
 51
202.5
  0
ARC
  5
BA4
102
{ACAD_REACTORS
330
BD0
102
}
330
890
100
AcDbEntity
  8
0
370
    25
100
AcDbCircle
 10
10.09764283104467
 20
1.543707963983777
 30
0.0
 40
0.0087605404650458
100
AcDbArc
 50
22.5
 51
120.0608431766718
  0
ARC
  5
BA5
102
{ACAD_REACTORS
330
BD1
102
}
330
890
100
AcDbEntity
  8
0
370
    25
100
AcDbCircle
 10
10.18102099354879
 20
1.399646261880232
 30
0.0
 40
0.1752108093009163
100
AcDbArc
 50
75.06084317667199
 51
104.9391568233279
  0
ARC
  5
BA6
102
{ACAD_REACTORS
330
BD0
102
}
330
890
100
AcDbEntity
  8
0
370
    25
100
AcDbCircle
 10
10.03695929144524
 20
1.483024424384352
 30
0.0
 40
0.0087605404650458
100
AcDbArc
 50
149.9391568233271
 51
247.4999999999982
  0
ARC
  5
BA7
102
{ACAD_REACTORS
330
BD0
102
}
330
890
100
AcDbEntity
  8
0
370
    25
100
AcDbCircle
 10
10.18102099354879
 20
1.399646261880232
 30
0.0
 40
0.1752108093009163
100
AcDbArc
 50
120.0608431766719
 51
149.9391568233279
  0
ARC
  5
BA8
102
{ACAD_REACTORS
330
BD6
102
}
330
890
100
AcDbEntity
  8
0
370
    25
100
AcDbCircle
 10
10.26439915605291
 20
1.543707963983777
 30
0.0
 40
0.0087605404650458
100
AcDbArc
 50
59.93915682332777
 51
157.5000000000018
  0
LINE
  5
BA9
102
{ACAD_REACTORS
330
BD6
102
}
330
890
100
AcDbEntity
  8
0
370
    25
100
AcDbLine
 10
10.21339572966636
 20
1.443467195721735
 30
0.0
 11
10.25630547202351
 21
1.547060477678314
 31
0.0
  0
ARC
  5
BAA
102
{ACAD_REACTORS
330
BD7
102
}
330
890
100
AcDbEntity
  8
0
370
    25
100
AcDbCircle
 10
10.23825198216843
 20
1.399646261880232
 30
0.0
 40
0.0087605404650458
100
AcDbArc
 50
112.4999999999999
 51
247.5000000000018
  0
ARC
  5
BAB
102
{ACAD_REACTORS
330
BD6
102
}
330
890
100
AcDbEntity
  8
0
370
    25
100
AcDbCircle
 10
10.22148941369575
 20
1.440114682027197
 30
0.0
 40
0.0087605404650458
100
AcDbArc
 50
157.5
 51
292.5
  0
ARC
  5
BAC
102
{ACAD_REACTORS
330
BD1
102
}
330
890
100
AcDbEntity
  8
0
370
    25
100
AcDbCircle
 10
10.18102099354878
 20
1.45687725049988
 30
0.0
 40
0.0087605404650458
100
AcDbArc
 50
202.5
 51
337.5000000000018
  0
ARC
  5
BAD
102
{ACAD_REACTORS
330
BD0
102
}
330
890
100
AcDbEntity
  8
0
370
    25
100
AcDbCircle
 10
10.14055257340182
 20
1.440114682027195
 30
0.0
 40
0.0087605404650458
100
AcDbArc
 50
247.5000000000018
 51
22.5
  0
ARC
  5
BAE
102
{ACAD_REACTORS
330
BBB
102
}
330
890
100
AcDbEntity
  8
0
370
    25
100
AcDbCircle
 10
10.22148941369574
 20
1.359177841733268
 30
0.0
 40
0.0087605404650458
100
AcDbArc
 50
67.50000000000089
 51
202.5
  0
ARC
  5
BAF
102
{ACAD_REACTORS
330
BCA
102
}
330
890
100
AcDbEntity
  8
0
370
    25
100
AcDbCircle
 10
10.14055257340182
 20
1.359177841733268
 30
0.0
 40
0.0087605404650458
100
AcDbArc
 50
337.499999999999
 51
112.4999999999999
  0
ARC
  5
BB0
102
{ACAD_REACTORS
330
BC9
102
}
330
890
100
AcDbEntity
  8
0
370
    25
100
AcDbCircle
 10
10.18102099354879
 20
1.342415273260584
 30
0.0
 40
0.0087605404650458
100
AcDbArc
 50
22.5
 51
157.4999999999972
  0
ARC
  5
BB1
102
{ACAD_REACTORS
330
BCB
102
}
330
890
100
AcDbEntity
  8
0
370
    25
100
AcDbCircle
 10
10.12379000492914
 20
1.399646261880231
 30
0.0
 40
0.0087605404650458
100
AcDbArc
 50
292.5
 51
67.49999999999909
  0
ARC
  5
BB2
102
{ACAD_REACTORS
330
BD7
102
}
330
890
100
AcDbEntity
  8
0
370
    25
100
AcDbCircle
 10
10.34184526412501
 20
1.356736519523076
 30
0.0
 40
0.0087605404650458
100
AcDbArc
 50
247.5000000000018
 51
345.0608431766722
  0
ARC
  5
BB3
102
{ACAD_REACTORS
330
BBB
102
}
330
890
100
AcDbEntity
  8
0
370
    25
100
AcDbCircle
 10
10.32508269565233
 20
1.316268099376113
 30
0.0
 40
0.0087605404650458
100
AcDbArc
 50
329.9391568233273
 51
67.49999999999822
  0
ARC
  5
BB4
102
{ACAD_REACTORS
330
BBB
102
}
330
890
100
AcDbEntity
  8
0
370
    25
100
AcDbCircle
 10
10.26439915605291
 20
1.255584559776688
 30
0.0
 40
0.0087605404650458
100
AcDbArc
 50
202.5
 51
300.0608431766718
  0
ARC
  5
BB5
102
{ACAD_REACTORS
330
BC9
102
}
330
890
100
AcDbEntity
  8
0
370
    25
100
AcDbCircle
 10
10.22393073590594
 20
1.238821991304004
 30
0.0
 40
0.0087605404650458
100
AcDbArc
 50
284.9391568233282
 51
22.5
  0
ARC
  5
BB6
102
{ACAD_REACTORS
330
BBB
102
}
330
890
100
AcDbEntity
  8
0
370
    25
100
AcDbCircle
 10
10.18102099354879
 20
1.399646261880232
 30
0.0
 40
0.1752108093009163
100
AcDbArc
 50
300.0608431766719
 51
329.9391568233279
  0
LINE
  5
BB7
102
{ACAD_REACTORS
330
BD7
102
}
330
890
100
AcDbEntity
  8
0
370
    25
100
AcDbLine
 10
10.23489946847389
 20
1.391552577850841
 30
0.0
 11
10.33849275043047
 21
1.348642835493684
 31
0.0
  0
LINE
  5
BB8
102
{ACAD_REACTORS
330
BBB
102
}
330
890
100
AcDbEntity
  8
0
370
    25
100
AcDbLine
 10
10.22484192739029
 20
1.367271525762662
 30
0.0
 11
10.32843520934687
 21
1.324361783405506
 31
0.0
  0
LINE
  5
BB9
102
{ACAD_REACTORS
330
BBB
102
}
330
890
100
AcDbEntity
  8
0
370
    25
100
AcDbLine
 10
10.21339572966635
 20
1.355825328038732
 30
0.0
 11
10.25630547202351
 21
1.252232046082151
 31
0.0
  0
LINE
  5
BBA
102
{ACAD_REACTORS
330
BC9
102
}
330
890
100
AcDbEntity
  8
0
370
    25
100
AcDbLine
 10
10.18911467757818
 20
1.345767786955121
 30
0.0
 11
10.23202441993533
 21
1.242174504998541
 31
0.0
  0
HATCH
  5
BBB
330
890
100
AcDbEntity
  8
0
370
    25
100
AcDbHatch
 10
0.0
 20
0.0
 30
0.0
210
0.0
220
0.0
230
1.0
  2
SOLID
 70
     1
 71
     1
 91
        1
 92
        7
 72
     1
 73
     1
 93
        6
 10
10.22484192739029
 20
1.367271525762662
 42
0.6681786379195475
 10
10.21339572966635
 20
1.355825328038736
 42
0.0
 10
10.25630547202351
 20
1.252232046082151
 42
0.4534141234452881
 10
10.26878748039523
 20
1.248002364929133
 42
0.1311123756655103
 10
10.33266489049988
 20
1.311879775033791
 42
0.453414123445376
 10
10.32843520934687
 20
1.324361783405506
 42
0.0
 97
        6
330
BAE
330
BB9
330
BB4
330
BB6
330
BB3
330
BB8
 75
     0
 76
     1
 47
0.0008898326864094
 98
        1
 10
10.29920827467043
 20
1.321698819553122
  0
ARC
  5
BBC
102
{ACAD_REACTORS
330
BCB
102
}
330
890
100
AcDbEntity
  8
0
370
    25
100
AcDbCircle
 10
10.02019672297256
 20
1.442556004237388
 30
0.0
 40
0.0087605404650458
100
AcDbArc
 50
67.50000000000089
 51
165.0608431766717
  0
ARC
  5
BBD
102
{ACAD_REACTORS
330
BCA
102
}
330
890
100
AcDbEntity
  8
0
370
    25
100
AcDbCircle
 10
10.03695929144524
 20
1.316268099376113
 30
0.0
 40
0.0087605404650458
100
AcDbArc
 50
112.4999999999999
 51
210.0608431766716
  0
ARC
  5
BBE
102
{ACAD_REACTORS
330
BCB
102
}
330
890
100
AcDbEntity
  8
0
370
    25
100
AcDbCircle
 10
10.02019672297255
 20
1.356736519523076
 30
0.0
 40
0.0087605404650458
100
AcDbArc
 50
194.9391568233283
 51
292.5
  0
ARC
  5
BBF
102
{ACAD_REACTORS
330
BCB
102
}
330
890
100
AcDbEntity
  8
0
370
    25
100
AcDbCircle
 10
10.18102099354879
 20
1.399646261880232
 30
0.0
 40
0.1752108093009163
100
AcDbArc
 50
165.060843176672
 51
194.939156823328
  0
ARC
  5
BC0
102
{ACAD_REACTORS
330
BC9
102
}
330
890
100
AcDbEntity
  8
0
370
    25
100
AcDbCircle
 10
10.13811125119163
 20
1.238821991304003
 30
0.0
 40
0.0087605404650458
100
AcDbArc
 50
157.5000000000018
 51
255.0608431766728
  0
ARC
  5
BC1
102
{ACAD_REACTORS
330
BCA
102
}
330
890
100
AcDbEntity
  8
0
370
    25
100
AcDbCircle
 10
10.09764283104467
 20
1.255584559776688
 30
0.0
 40
0.0087605404650458
100
AcDbArc
 50
239.9391568233282
 51
337.499999999999
  0
ARC
  5
BC2
102
{ACAD_REACTORS
330
BCA
102
}
330
890
100
AcDbEntity
  8
0
370
    25
100
AcDbCircle
 10
10.18102099354879
 20
1.399646261880232
 30
0.0
 40
0.1752108093009163
100
AcDbArc
 50
210.0608431766719
 51
239.9391568233279
  0
ARC
  5
BC3
102
{ACAD_REACTORS
330
BC9
102
}
330
890
100
AcDbEntity
  8
0
370
    25
100
AcDbCircle
 10
10.18102099354879
 20
1.399646261880232
 30
0.0
 40
0.1752108093009163
100
AcDbArc
 50
255.0608431766721
 51
284.9391568233279
  0
LINE
  5
BC4
102
{ACAD_REACTORS
330
BC9
102
}
330
890
100
AcDbEntity
  8
0
370
    25
100
AcDbLine
 10
10.17292730951939
 20
1.345767786955121
 30
0.0
 11
10.13001756716223
 21
1.242174504998541
 31
0.0
  0
LINE
  5
BC5
102
{ACAD_REACTORS
330
BCA
102
}
330
890
100
AcDbEntity
  8
0
370
    25
100
AcDbLine
 10
10.14864625743121
 20
1.355825328038732
 30
0.0
 11
10.10573651507405
 21
1.252232046082151
 31
0.0
  0
LINE
  5
BC6
102
{ACAD_REACTORS
330
BCA
102
}
330
890
100
AcDbEntity
  8
0
370
    25
100
AcDbLine
 10
10.13720005970729
 20
1.36727152576266
 30
0.0
 11
10.0336067777507
 21
1.324361783405506
 31
0.0
  0
LINE
  5
BC7
102
{ACAD_REACTORS
330
BCB
102
}
330
890
100
AcDbEntity
  8
0
370
    25
100
AcDbLine
 10
10.12714251862367
 20
1.407739945909626
 30
0.0
 11
10.02354923666709
 21
1.450649688266781
 31
0.0
  0
LINE
  5
BC8
102
{ACAD_REACTORS
330
BCB
102
}
330
890
100
AcDbEntity
  8
0
370
    25
100
AcDbLine
 10
10.12714251862367
 20
1.391552577850839
 30
0.0
 11
10.02354923666709
 21
1.348642835493682
 31
0.0
  0
HATCH
  5
BC9
330
890
100
AcDbEntity
  8
0
370
    25
100
AcDbHatch
 10
0.0
 20
0.0
 30
0.0
210
0.0
220
0.0
230
1.0
  2
SOLID
 70
     1
 71
     1
 91
        1
 92
        7
 72
     1
 73
     1
 93
        6
 10
10.13001756716223
 20
1.242174504998541
 42
0.4534141234453482
 10
10.13585284369914
 20
1.230357556010517
 42
0.1311123756655174
 10
10.22618914339842
 20
1.230357556010518
 42
0.4534141234453826
 10
10.23202441993533
 20
1.242174504998541
 42
0.0
 10
10.18911467757818
 20
1.345767786955121
 42
0.6681786379192819
 10
10.17292730951939
 20
1.34576778695512
 42
0.0
 97
        6
330
BB0
330
BC4
330
BC0
330
BC3
330
BB5
330
BBA
 75
     0
 76
     1
 47
0.0008898326864094
 98
        1
 10
10.17626217304505
 20
1.304523664308458
  0
HATCH
  5
BCA
330
890
100
AcDbEntity
  8
0
370
    25
100
AcDbHatch
 10
0.0
 20
0.0
 30
0.0
210
0.0
220
0.0
230
1.0
  2
SOLID
 70
     1
 71
     1
 91
        1
 92
        7
 72
     1
 73
     1
 93
        6
 10
10.0336067777507
 20
1.324361783405506
 42
0.4534141234453499
 10
10.02937709659769
 20
1.311879775033791
 42
0.1311123756655095
 10
10.09325450670234
 20
1.248002364929134
 42
0.4534141234451038
 10
10.10573651507405
 20
1.252232046082151
 42
0.0
 10
10.14864625743121
 20
1.355825328038732
 42
0.6681786379190507
 10
10.13720005970729
 20
1.36727152576266
 42
0.0
 97
        6
330
BC6
330
BBD
330
BC2
330
BC1
330
BC5
330
BAF
 75
     0
 76
     1
 47
0.0008898326864094
 98
        1
 10
10.09363389918491
 20
1.33273687458559
  0
HATCH
  5
BCB
330
890
100
AcDbEntity
  8
0
370
    25
100
AcDbHatch
 10
0.0
 20
0.0
 30
0.0
210
0.0
220
0.0
230
1.0
  2
SOLID
 70
     1
 71
     1
 91
        1
 92
        7
 72
     1
 73
     1
 93
        6
 10
10.01173228767907
 20
1.354478112030595
 42
0.4534141234453193
 10
10.02354923666709
 20
1.348642835493682
 42
0.0
 10
10.12714251862367
 20
1.391552577850839
 42
0.6681786379194373
 10
10.12714251862367
 20
1.407739945909626
 42
0.0
 10
10.02354923666709
 20
1.450649688266781
 42
0.4534141234452219
 10
10.01173228767907
 20
1.444814411729869
 42
0.131112375665509
 97
        6
330
BBC
330
BBF
330
BBE
330
BC8
330
BB1
330
BC7
 75
     0
 76
     1
 47
0.0008898326864094
 98
        1
 10
10.0207986341632
 20
1.390319559832216
  0
LINE
  5
BCC
102
{ACAD_REACTORS
330
BD1
102
}
330
890
100
AcDbEntity
  8
0
370
    25
100
AcDbLine
 10
10.18911467757818
 20
1.453524736805344
 30
0.0
 11
10.23202441993533
 21
1.557118018761923
 31
0.0
  0
LINE
  5
BCD
102
{ACAD_REACTORS
330
BD1
102
}
330
890
100
AcDbEntity
  8
0
370
    25
100
AcDbLine
 10
10.17292730951939
 20
1.453524736805344
 30
0.0
 11
10.13001756716223
 21
1.557118018761926
 31
0.0
  0
LINE
  5
BCE
102
{ACAD_REACTORS
330
BD0
102
}
330
890
100
AcDbEntity
  8
0
370
    25
100
AcDbLine
 10
10.14864625743121
 20
1.443467195721732
 30
0.0
 11
10.10573651507406
 21
1.547060477678314
 31
0.0
  0
LINE
  5
BCF
102
{ACAD_REACTORS
330
BD0
102
}
330
890
100
AcDbEntity
  8
0
370
    25
100
AcDbLine
 10
10.13720005970728
 20
1.432020997997803
 30
0.0
 11
10.0336067777507
 21
1.474930740354958
 31
0.0
  0
HATCH
  5
BD0
330
890
100
AcDbEntity
  8
0
370
    25
100
AcDbHatch
 10
0.0
 20
0.0
 30
0.0
210
0.0
220
0.0
230
1.0
  2
SOLID
 70
     1
 71
     1
 91
        1
 92
        7
 72
     1
 73
     1
 93
        6
 10
10.10573651507406
 20
1.547060477678314
 42
0.4534141234452957
 10
10.09325450670234
 20
1.551290158831332
 42
0.1311123756655107
 10
10.02937709659769
 20
1.487412748726674
 42
0.4534141234453827
 10
10.0336067777507
 20
1.474930740354958
 42
0.0
 10
10.13720005970728
 20
1.432020997997803
 42
0.6681786379194906
 10
10.14864625743121
 20
1.443467195721734
 42
0.0
 97
        6
330
BA4
330
BA7
330
BA6
330
BCF
330
BAD
330
BCE
 75
     0
 76
     1
 47
0.0008898326864094
 98
        1
 10
10.08646938044257
 20
1.496835629282512
  0
HATCH
  5
BD1
330
890
100
AcDbEntity
  8
0
370
    25
100
AcDbHatch
 10
0.0
 20
0.0
 30
0.0
210
0.0
220
0.0
230
1.0
  2
SOLID
 70
     1
 71
     1
 91
        1
 92
        7
 72
     1
 73
     1
 93
        6
 10
10.23202441993533
 20
1.557118018761923
 42
0.4534141234453834
 10
10.22618914339842
 20
1.568934967749947
 42
0.131112375665507
 10
10.13585284369915
 20
1.568934967749947
 42
0.4534141234453611
 10
10.13001756716223
 20
1.557118018761926
 42
0.0
 10
10.17292730951939
 20
1.453524736805344
 42
0.6681786379195016
 10
10.18911467757818
 20
1.453524736805345
 42
0.0
 97
        6
330
BA2
330
BA5
330
BA3
330
BCD
330
BAC
330
BCC
 75
     0
 76
     1
 47
0.0008898326864094
 98
        1
 10
10.18714218863936
 20
1.535160587960888
  0
ARC
  5
BD2
102
{ACAD_REACTORS
330
BD6
102
}
330
890
100
AcDbEntity
  8
0
370
    25
100
AcDbCircle
 10
10.18102099354879
 20
1.399646261880232
 30
0.0
 40
0.1752108093009163
100
AcDbArc
 50
30.06084317667193
 51
59.93915682332803
  0
LINE
  5
BD3
102
{ACAD_REACTORS
330
BD6
102
}
330
890
100
AcDbEntity
  8
0
370
    25
100
AcDbLine
 10
10.22484192739028
 20
1.432020997997803
 30
0.0
 11
10.32843520934687
 21
1.474930740354958
 31
0.0
  0
ARC
  5
BD4
102
{ACAD_REACTORS
330
BD7
102
}
330
890
100
AcDbEntity
  8
0
370
    25
100
AcDbCircle
 10
10.18102099354879
 20
1.399646261880232
 30
0.0
 40
0.1752108093009163
100
AcDbArc
 50
345.0608431766719
 51
14.93915682332807
  0
LINE
  5
BD5
102
{ACAD_REACTORS
330
BD7
102
}
330
890
100
AcDbEntity
  8
0
370
    25
100
AcDbLine
 10
10.2348994684739
 20
1.407739945909625
 30
0.0
 11
10.33849275043048
 21
1.450649688266781
 31
0.0
  0
HATCH
  5
BD6
330
890
100
AcDbEntity
  8
0
370
    25
100
AcDbHatch
 10
0.0
 20
0.0
 30
0.0
210
0.0
220
0.0
230
1.0
  2
SOLID
 70
     1
 71
     1
 91
        1
 92
        7
 72
     1
 73
     1
 93
        6
 10
10.26878748039523
 20
1.551290158831332
 42
0.4534141234453803
 10
10.25630547202351
 20
1.547060477678314
 42
0.0
 10
10.21339572966636
 20
1.443467195721735
 42
0.6681786379194002
 10
10.22484192739029
 20
1.432020997997804
 42
0.0
 10
10.32843520934687
 20
1.474930740354958
 42
0.4534141234454168
 10
10.33266489049989
 20
1.487412748726674
 42
0.13111237566551
 97
        6
330
BA8
330
BA9
330
BAB
330
BD3
330
BA0
330
BD2
 75
     0
 76
     1
 47
0.0008898326864094
 98
        1
 10
10.29353450585521
 20
1.506665540671616
  0
HATCH
  5
BD7
330
890
100
AcDbEntity
  8
0
370
    25
100
AcDbHatch
 10
0.0
 20
0.0
 30
0.0
210
0.0
220
0.0
230
1.0
  2
SOLID
 70
     1
 71
     1
 91
        1
 92
        7
 72
     1
 73
     1
 93
        6
 10
10.3503096994185
 20
1.44481441172987
 42
0.4534141234452892
 10
10.33849275043048
 20
1.450649688266781
 42
0.0
 10
10.2348994684739
 20
1.407739945909625
 42
0.6681786379193106
 10
10.2348994684739
 20
1.391552577850839
 42
0.0
 10
10.33849275043047
 20
1.348642835493684
 42
0.4534141234455211
 10
10.3503096994185
 20
1.354478112030594
 42
0.1311123756655109
 97
        6
330
BA1
330
BD5
330
BAA
330
BB7
330
BB2
330
BD4
 75
     0
 76
     1
 47
0.0008898326864094
 98
        1
 10
10.34181130012725
 20
1.41865992618568
  0
LWPOLYLINE
  5
BD8
330
890
100
AcDbEntity
  8
0
370
    20
100
AcDbPolyline
 90
       15
 70
     1
 43
0.0
 10
10.45466392215977
 20
1.238321040198144
 10
10.50436663701509
 20
1.238321040198144
 10
10.50436663701509
 20
1.36208883027335
 10
10.56538639035111
 20
1.36208883027335
 10
10.59771055891585
 20
1.370831562770021
 10
10.61627614423896
 20
1.383682262088015
 10
10.63722192960509
 20
1.405576093410829
 10
10.64959898648717
 20
1.430801563869998
 10
10.65055105817515
 20
1.461738491722954
 10
10.64341045804613
 20
1.494579203232497
 10
10.62960527280903
 20
1.519328745514862
 10
10.60723135908787
 20
1.540746613186186
 10
10.58009704528071
 20
1.551217565196111
 10
10.55522757179581
 20
1.553998211753302
 10
10.45466392215977
 20
1.553998211753302
  0
LWPOLYLINE
  5
BD9
330
890
100
AcDbEntity
  8
0
370
    20
100
AcDbPolyline
 90
       11
 70
     1
 43
0.0
 10
10.50393047732006
 20
1.504425694621041
 10
10.50393047732006
 20
1.409021003169478
 10
10.55674286545608
 20
1.409021003169478
 10
10.57774778829637
 20
1.416821386524162
 10
10.59035073367133
 20
1.428221952269431
 10
10.59815254906608
 20
1.441422609209986
 10
10.59815254906608
 20
1.468423941664632
 10
10.58975057160074
 20
1.485224745521087
 10
10.57354677874065
 20
1.497825383888098
 10
10.55914343044618
 20
1.504425694621041
 10
10.50393047732006
 20
1.504425694621041
  0
LWPOLYLINE
  5
BDA
330
890
100
AcDbEntity
  8
0
370
    20
100
AcDbPolyline
 90
       12
 70
     1
 43
0.0
 10
10.84364723857872
 20
1.238321040198144
 10
10.84364723857872
 20
1.28466018303078
 10
10.7296669202524
 20
1.28466018303078
 10
10.7296669202524
 20
1.371606826214872
 10
10.8384158210048
 20
1.371606826214872
 10
10.8384158210048
 20
1.419722966232427
 10
10.7296669202524
 20
1.419722966232427
 10
10.7296669202524
 20
1.507513764671095
 10
10.84364723857872
 20
1.507513764671095
 10
10.84364723857872
 20
1.553998211753302
 10
10.68069759336895
 20
1.553998211753302
 10
10.68069759336895
 20
1.238321040198144
  0
LWPOLYLINE
  5
BDB
330
890
100
AcDbEntity
  8
0
370
    20
100
AcDbPolyline
 90
       14
 70
     1
 43
0.0
 10
10.92583016996758
 20
1.238321040198144
 10
10.92583016996758
 20
1.505903569385949
 10
11.01813373043019
 20
1.238321040198144
 10
11.06008989427682
 20
1.238321040198144
 10
11.15491083706406
 20
1.508465277927447
 10
11.15491083706406
 20
1.238321040198144
 10
11.2027408513554
 20
1.238321040198144
 10
11.2027408513554
 20
1.553998211753302
 10
11.13141535199306
 20
1.553998211753302
 10
11.04044063053291
 20
1.289793170811775
 10
10.94928963115468
 20
1.553998211753302
 10
10.87632190079316
 20
1.553998211753302
 10
10.87632190079316
 20
1.238321040198144
 10
10.92583016996758
 20
1.238321040198144
  0
LWPOLYLINE
  5
BDC
330
890
100
AcDbEntity
  8
0
370
    20
100
AcDbPolyline
 90
       12
 70
     1
 43
0.0
 10
11.28966256849993
 20
1.238321040198144
 10
11.28966256849993
 20
1.393503968701825
 10
11.39904032549172
 20
1.238321040198144
 10
11.45821261580553
 20
1.238321040198144
 10
11.33856660914445
 20
1.398106192759205
 10
11.4588700829215
 20
1.553998211753302
 10
11.40035525972365
 20
1.553998211753302
 10
11.28966256849993
 20
1.401644424601821
 10
11.28966256849993
 20
1.553998211753302
 10
11.24035228492565
 20
1.553998211753302
 10
11.24035228492565
 20
1.238321040198144
 10
11.28966256849993
 20
1.238321040198144
  0
LWPOLYLINE
  5
BDD
330
890
100
AcDbEntity
  8
0
370
    20
100
AcDbPolyline
 90
       26
 70
     1
 43
0.0
 10
11.54861415684371
 20
1.553998211753302
 10
11.62094657581902
 20
1.553998211753302
 10
11.66049934274018
 20
1.542674342245234
 10
11.70012186689319
 20
1.513055014596751
 10
11.72461123634518
 20
1.484969469793568
 10
11.74261813912185
 20
1.44824218888008
 10
11.75126145578635
 20
1.416555929566271
 10
11.75126145578635
 20
1.369746676402755
 10
11.73685594189422
 20
1.324377730328286
 10
11.7073246030162
 20
1.282609463289787
 10
11.66914998911978
 20
1.254523918486604
 10
11.62737402798491
 20
1.234359938511879
 10
11.61110718291645
 20
1.231149338950594
 10
11.56778690078365
 20
1.231149338950594
 10
11.54470646083064
 20
1.235764558082607
 10
11.49819046455685
 20
1.259550785692837
 10
11.46161681036601
 20
1.292212456541356
 10
11.44315246673283
 20
1.321678959310162
 10
11.4289491030517
 20
1.355760716685658
 10
11.42504315617519
 20
1.370671465582937
 10
11.42504315617519
 20
1.422859139935411
 10
11.43528772406802
 20
1.454778538782463
 10
11.4527225758974
 20
1.487660897554945
 10
11.47966731661837
 20
1.516581516097097
 10
11.50661205733932
 20
1.537974835296573
 10
11.54861415684371
 20
1.553998211753302
  0
LWPOLYLINE
  5
BDE
330
890
100
AcDbEntity
  8
0
370
    20
100
AcDbPolyline
 90
       25
 70
     1
 43
0.0
 10
11.55690622777477
 20
1.508998211753302
 10
11.61463172880344
 20
1.508998211753302
 10
11.64017226283554
 20
1.501686013465826
 10
11.66934801817858
 20
1.479876038574772
 10
11.68680882456885
 20
1.459851175903843
 10
11.70033004268236
 20
1.432272997573761
 10
11.70626145578635
 20
1.410528532919097
 10
11.70626145578635
 20
1.376719335781706
 10
11.69607987839059
 20
1.344653319999128
 10
11.67478767008303
 20
1.314538239673696
 10
11.64583783841745
 20
1.29323948347685
 10
11.61300484463444
 20
1.277392000590376
 10
11.60670876691407
 20
1.276149338950594
 10
11.57224195647465
 20
1.276149338950594
 10
11.5596434618325
 20
1.27866856361119
 10
11.52384021106839
 20
1.296976765951919
 10
11.49635637192817
 20
1.321520884594473
 10
11.48325923612022
 20
1.34242207643835
 10
11.47168847037452
 20
1.37018676934118
 10
11.47004315617519
 20
1.376467670658816
 10
11.47004315617519
 20
1.415814704554954
 10
11.47691498597974
 20
1.437225532091567
 10
11.48969684551161
 20
1.461332286483251
 10
11.51029164042161
 20
1.483437312978562
 10
11.5291480708482
 20
1.498408755430222
  0
ENDBLK
  5
BE2
330
890
100
AcDbEntity
  8
0
100
AcDbBlockEnd
  0
BLOCK
  5
C74
330
C69
100
AcDbEntity
  8
0
100
AcDbBlockBegin
  2
*D6
 70
     1
 10
0.0
 20
0.0
 30
0.0
  3
*D6
  1

  0
LINE
  5
C76
330
C69
100
AcDbEntity
  8
R-ANNO-DIMS
  6
Continuous
 62
     0
370
    -2
100
AcDbLine
 10
5.169128124422119
 20
3.010229284015151
 30
0.0
 11
5.54313894073708
 21
3.010229284015151
 31
0.0
  0
LINE
  5
C77
330
C69
100
AcDbEntity
  8
R-ANNO-DIMS
  6
Continuous
 62
     0
370
    -2
100
AcDbLine
 10
5.087773285078021
 20
2.500828968740396
 30
0.0
 11
5.54313894073708
 21
2.500828968740396
 31
0.0
  0
LINE
  5
C78
330
C69
100
AcDbEntity
  8
R-ANNO-DIMS
  6
Continuous
 62
     0
370
    -2
100
AcDbLine
 10
5.41813894073708
 20
3.135229284015151
 30
0.0
 11
5.41813894073708
 21
3.260229284015151
 31
0.0
  0
LINE
  5
C79
330
C69
100
AcDbEntity
  8
R-ANNO-DIMS
  6
Continuous
 62
     0
370
    -2
100
AcDbLine
 10
5.41813894073708
 20
2.375828968740396
 30
0.0
 11
5.41813894073708
 21
2.250828968740396
 31
0.0
  0
SOLID
  5
C7A
330
C69
100
AcDbEntity
  8
R-ANNO-DIMS
  6
Continuous
 62
     0
100
AcDbTrace
 10
5.397305607403747
 20
3.135229284015151
 30
0.0
 11
5.438972274070413
 21
3.135229284015151
 31
0.0
 12
5.41813894073708
 22
3.010229284015151
 32
0.0
 13
5.41813894073708
 23
3.010229284015151
 33
0.0
  0
SOLID
  5
C7B
330
C69
100
AcDbEntity
  8
R-ANNO-DIMS
  6
Continuous
 62
     0
100
AcDbTrace
 10
5.397305607403747
 20
2.375828968740396
 30
0.0
 11
5.438972274070413
 21
2.375828968740396
 31
0.0
 12
5.41813894073708
 22
2.500828968740396
 32
0.0
 13
5.41813894073708
 23
2.500828968740396
 33
0.0
  0
MTEXT
  5
C7C
330
C69
100
AcDbEntity
  8
R-ANNO-DIMS
  6
Continuous
 62
     0
100
AcDbMText
 10
5.418138940737079
 20
2.755529126377775
 30
0.0
 40
0.125
 41
0.0
 71
     5
 72
     1
  1
\A1;{\H1.000000x;\S1/2;}
  7
SWTSTEXT
 73
     1
 44
1.0
1001
ACAD
1000
MTEXTBEGIN
1070
    73
1070
     1
1070
    44
1040
1.0
1070
    74
1070
     0
1000
MTEXTEND
  0
POINT
  5
C7D
330
C69
100
AcDbEntity
  8
Defpoints
  6
Continuous
 62
     0
100
AcDbPoint
 10
5.106628124422119
 20
3.010229284015151
 30
0.0
  0
POINT
  5
C7E
330
C69
100
AcDbEntity
  8
Defpoints
  6
Continuous
 62
     0
100
AcDbPoint
 10
5.025273285078021
 20
2.500828968740396
 30
0.0
  0
POINT
  5
C7F
330
C69
100
AcDbEntity
  8
Defpoints
  6
Continuous
 62
     0
100
AcDbPoint
 10
5.41813894073708
 20
2.500828968740396
 30
0.0
  0
ENDBLK
  5
C75
330
C69
100
AcDbEntity
  8
0
100
AcDbBlockEnd
  0
ENDSEC
  0
SECTION
  2
ENTITIES
  0
MTEXT
  5
10C
330
A
100
AcDbEntity
  8
R-ANNO-TEXT
  6
Continuous
100
AcDbMText
 10
2.253349593959339
 20
1.057040157926374
 30
0.0
 40
0.125
 41
2.110199999999999
 71
     5
 72
     5
  1
85514_
  7
SWTSTEXT
 73
     1
 44
1.0
1001
ACAD
1000
MTEXTBEGIN
1070
    73
1070
     1
1070
    44
1040
1.0
1070
    74
1070
     0
1000
MTEXTEND
  0
SPLINE
  5
637
330
A
100
AcDbEntity
  8
R-SWTS-DET1
100
AcDbSpline
210
0.0
220
0.0
230
1.0
 70
     8
 71
     3
 72
    11
 73
     7
 74
     0
 42
0.0000000001
 43
0.0000000001
 40
0.0
 40
0.0
 40
0.0
 40
0.0
 40
0.3125
 40
0.4522542485937369
 40
0.7647542485937369
 40
0.9613498719725864
 40
0.9613498719725864
 40
0.9613498719725864
 40
0.9613498719725864
 10
1.340104606329239
 20
2.530068288138884
 30
0.0
 10
1.239663932147209
 20
2.557679253611023
 30
0.0
 10
1.54354314675241
 20
2.701175721972578
 30
0.0
 10
1.826444306539652
 20
2.786960233822745
 30
0.0
 10
1.439714154848628
 20
2.915086090430785
 30
0.0
 10
1.413962413817146
 20
3.086118305481001
 30
0.0
 10
1.414460953455378
 20
3.153505585073411
 30
0.0
  0
SPLINE
  5
638
330
A
100
AcDbEntity
  8
R-SWTS-DET1
100
AcDbSpline
210
0.0
220
0.0
230
1.0
 70
     8
 71
     3
 72
    10
 73
     6
 74
     0
 42
0.0000000001
 43
0.0000000001
 40
0.0
 40
0.0
 40
0.0
 40
0.0
 40
0.3125
 40
0.375
 40
0.5292826923722805
 40
0.5292826923722805
 40
0.5292826923722805
 40
0.5292826923722805
 10
-0.4094206738735373
 20
2.570827261769196
 30
0.0
 10
-0.2729092367951915
 20
2.688964015808708
 30
0.0
 10
-0.1090955123011777
 20
2.83072812065612
 30
0.0
 10
-0.3174271404768507
 20
2.809595123702365
 30
0.0
 10
-0.370650644671361
 20
2.856139766823278
 30
0.0
 10
-0.4017295921892753
 20
2.900956817060889
 30
0.0
  0
SPLINE
  5
639
330
A
100
AcDbEntity
  8
R-SWTS-DET1
100
AcDbSpline
210
0.0
220
0.0
230
1.0
 70
     8
 71
     3
 72
    11
 73
     7
 74
     0
 42
0.0000000001
 43
0.0000000001
 40
0.0
 40
0.0
 40
0.0
 40
0.0
 40
0.1767766952966369
 40
0.4021236500131363
 40
0.68163214720061
 40
0.9069791019171088
 40
0.9069791019171088
 40
0.9069791019171088
 40
0.9069791019171093
 10
-0.221971536708954
 20
2.566460228880234
 30
0.0
 10
-0.194398836266049
 20
2.618536791866938
 30
0.0
 10
-0.0864462511197495
 20
2.677910956925253
 30
0.0
 10
0.143829030747372
 20
2.934467499444589
 30
0.0
 10
-0.2649669958083129
 20
2.911454099641876
 30
0.0
 10
-0.2751675093428119
 20
3.202521357732586
 30
0.0
 10
-0.3323808518554694
 20
3.19420204135482
 30
0.0
  0
SPLINE
  5
63A
330
A
100
AcDbEntity
  8
R-SWTS-DET1
100
AcDbSpline
210
0.0
220
0.0
230
1.0
 70
     8
 71
     3
 72
    10
 73
     6
 74
     0
 42
0.0000000001
 43
0.0000000001
 40
0.0
 40
0.0
 40
0.0
 40
0.0
 40
0.4001952648395531
 40
0.7126952648395531
 40
0.8174019659284095
 40
0.8174019659284095
 40
0.8174019659284095
 40
0.8174019659284095
 10
0.3403758747847956
 20
2.553359130213348
 30
0.0
 10
0.2689849652453641
 20
2.666046649149659
 30
0.0
 10
0.9033200892506858
 20
2.796344909180719
 30
0.0
 10
0.4568315649498852
 20
2.886260035540066
 30
0.0
 10
0.3532090264106013
 20
3.075042453647133
 30
0.0
 10
0.3320285577912693
 20
3.123708263983837
 30
0.0
  0
SPLINE
  5
63B
330
A
100
AcDbEntity
  8
R-SWTS-DET1
100
AcDbSpline
210
0.0
220
0.0
230
1.0
 70
     8
 71
     3
 72
    11
 73
     7
 74
     0
 42
0.0000000001
 43
0.0000000001
 40
0.0
 40
0.0
 40
0.0
 40
0.0
 40
0.2253469547164993
 40
0.4506939094329987
 40
0.7631939094329987
 40
0.9340967790203889
 40
0.9340967790203889
 40
0.9340967790203889
 40
0.9340967790203889
 10
0.5278250119493788
 20
2.548992097324386
 30
0.0
 10
0.4906890013612771
 20
2.614285878258802
 30
0.0
 10
0.7386563238796516
 20
2.658619062523647
 30
0.0
 10
1.019898933460077
 20
2.808011264406209
 30
0.0
 10
0.686275709624987
 20
2.941032276603019
 30
0.0
 10
0.5624774718050603
 20
3.069696408020842
 30
0.0
 10
0.5322838305504702
 20
3.119042884481133
 30
0.0
  0
SPLINE
  5
63C
330
A
100
AcDbEntity
  8
R-SWTS-DET1
100
AcDbSpline
210
0.0
220
0.0
230
1.0
 70
     8
 71
     3
 72
    11
 73
     7
 74
     0
 42
0.0000000001
 43
0.0000000001
 40
0.0
 40
0.0
 40
0.0
 40
0.0
 40
0.3125
 40
0.4522542485937369
 40
0.5920084971874738
 40
0.9021022133580604
 40
0.9021022133580604
 40
0.9021022133580604
 40
0.9021022133580604
 10
0.027960646177157
 20
2.560637518361618
 30
0.0
 10
0.0631937312055658
 20
2.658664678699075
 30
0.0
 10
0.2472810024191075
 20
2.658421712714327
 30
0.0
 10
0.3913751436736934
 20
2.888223387080103
 30
0.0
 10
0.1659799219236925
 20
2.927672840914456
 30
0.0
 10
-0.0780404060019776
 20
3.112078800717998
 30
0.0
 10
-0.1159512765140577
 20
3.189159846506892
 30
0.0
  0
SPLINE
  5
63D
330
A
100
AcDbEntity
  8
R-SWTS-DET1
100
AcDbSpline
210
0.0
220
0.0
230
1.0
 70
     8
 71
     3
 72
    10
 73
     6
 74
     0
 42
0.0000000001
 43
0.0000000001
 40
0.1138480717622282
 40
0.1138480717622282
 40
0.1138480717622282
 40
0.1138480717622282
 40
0.4192627457812107
 40
0.7836972392090419
 40
0.8809274702952315
 40
0.8809274702952315
 40
0.8809274702952315
 40
0.8809274702952315
 10
0.8027166555604987
 20
2.617608252863989
 30
0.0
 10
0.9045746742284173
 20
2.662658059932187
 30
0.0
 10
1.226675054718937
 20
2.668989827206392
 30
0.0
 10
1.023985753289688
 20
2.978705375231946
 30
0.0
 10
0.8393917227336876
 20
3.090534172990638
 30
0.0
 10
0.8031423884909026
 20
3.11273264881574
 30
0.0
  0
SPLINE
  5
63E
330
A
100
AcDbEntity
  8
R-SWTS-DET1
100
AcDbSpline
210
0.0
220
0.0
230
1.0
 70
     8
 71
     3
 72
    10
 73
     6
 74
     0
 42
0.0000000001
 43
0.0000000001
 40
0.0
 40
0.0
 40
0.0
 40
0.0
 40
0.4419417382415923
 40
0.721450235429066
 40
0.8988312368751039
 40
0.8988312368751039
 40
0.8988312368751039
 40
0.8988312368751039
 10
1.090172423443128
 20
2.5358909986575
 30
0.0
 10
1.139999530134548
 20
2.674522338287653
 30
0.0
 10
1.640348579666199
 20
2.851940292239326
 30
0.0
 10
1.124465030312894
 20
2.904125267533032
 30
0.0
 10
1.121404970179674
 20
3.095678129243927
 30
0.0
 10
1.113831261150525
 20
3.160509403665657
 30
0.0
  0
SPLINE
  5
63F
330
A
100
AcDbEntity
  8
R-SWTS-DET1
100
AcDbSpline
210
0.0
220
0.0
230
1.0
 70
     8
 71
     3
 72
    10
 73
     6
 74
     0
 42
0.0000000001
 43
0.0000000001
 40
0.0
 40
0.0
 40
0.0
 40
0.0
 40
0.4506939094329987
 40
0.7693826290325477
 40
0.9545974012602325
 40
0.9545974012602325
 40
0.9545974012602325
 40
0.9545974012602325
 10
2.339833337873683
 20
2.50677744606442
 30
0.0
 10
2.204008562668976
 20
2.57097304470666
 30
0.0
 10
2.898026090833168
 20
2.970827739704113
 30
0.0
 10
2.24555577680651
 20
2.875478380839132
 30
0.0
 10
2.234187829528132
 20
3.033826614141497
 30
0.0
 10
2.248336626047735
 20
3.103512372819729
 30
0.0
  0
SPLINE
  5
640
330
A
100
AcDbEntity
  8
R-SWTS-DET1
100
AcDbSpline
210
0.0
220
0.0
230
1.0
 70
     8
 71
     3
 72
    10
 73
     6
 74
     0
 42
0.0000000001
 43
0.0000000001
 40
0.0
 40
0.0
 40
0.0
 40
0.0
 40
0.450693909432998
 40
0.5390822570813164
 40
0.6873426101069139
 40
0.6873426101069139
 40
0.6873426101069139
 40
0.6873426101069139
 10
2.527282475038266
 20
2.502410413175459
 30
0.0
 10
2.423555894783709
 20
2.611085345856088
 30
0.0
 10
2.909280185345847
 20
2.791423805145158
 30
0.0
 10
2.708122443832785
 20
2.94631437323407
 30
0.0
 10
2.633680434395123
 20
3.018296604663494
 30
0.0
 10
2.595996235514739
 20
3.065547722646408
 30
0.0
  0
SPLINE
  5
641
330
A
100
AcDbEntity
  8
R-SWTS-DET1
100
AcDbSpline
210
0.0
220
0.0
230
1.0
 70
     8
 71
     3
 72
    10
 73
     6
 74
     0
 42
0.0000000001
 43
0.0000000001
 40
0.0
 40
0.0
 40
0.0
 40
0.0
 40
0.4506939094329987
 40
0.8042473000262724
 40
0.8848765184366317
 40
0.8848765184366317
 40
0.8848765184366317
 40
0.8848765184366317
 10
1.652519834936878
 20
2.522789899990614
 30
0.0
 10
1.774771683175185
 20
2.610105019224125
 30
0.0
 10
2.255940947452696
 20
2.765456865239314
 30
0.0
 10
1.801488732390429
 20
2.865496232629162
 30
0.0
 10
1.771255166172589
 20
3.100671072747707
 30
0.0
 10
1.770392565073921
 20
3.145213388707277
 30
0.0
  0
SPLINE
  5
642
330
A
100
AcDbEntity
  8
R-SWTS-DET1
100
AcDbSpline
210
0.0
220
0.0
230
1.0
 70
     8
 71
     3
 72
    11
 73
     7
 74
     0
 42
0.0000000001
 43
0.0000000001
 40
0.0
 40
0.0
 40
0.0
 40
0.0
 40
0.3125
 40
0.4522542485937369
 40
0.6776012033102363
 40
0.7834594882752306
 40
0.7834594882752306
 40
0.7834594882752306
 40
0.7834594882752306
 10
2.089901154987572
 20
2.512600156583036
 30
0.0
 10
2.107030295654549
 20
2.615348815866042
 30
0.0
 10
2.408385577348793
 20
2.746389505124812
 30
0.0
 10
2.105767655410422
 20
2.822609292884503
 30
0.0
 10
2.03338263267187
 20
2.968713439394035
 30
0.0
 10
2.034421090049692
 20
3.089042125923947
 30
0.0
 10
2.034394835334834
 20
3.126874952252877
 30
0.0
  0
LWPOLYLINE
  5
643
330
A
100
AcDbEntity
  8
R-SWTS-DET1
 48
4.0
100
AcDbPolyline
 90
       23
 70
     1
 43
0.0
 10
0.6894119667207809
 20
2.615246577753629
 10
0.8143780581638363
 20
2.612335222494321
 10
0.8127476992186238
 20
2.542354211286208
 10
1.437578156433901
 20
2.527797434989671
 10
1.439208515379113
 20
2.59777844619778
 10
1.564174606822169
 20
2.594867090938472
 10
1.562544247876957
 20
2.52488607973036
 10
2.187374705092234
 20
2.510329303433822
 10
2.189005064037446
 20
2.580310314641934
 10
2.313971155480503
 20
2.577398959382624
 10
2.31234079653529
 20
2.507417948174514
 10
2.544777730046203
 20
2.502002827312366
 10
2.546408088991416
 20
2.571983838520475
 10
2.871319923316528
 20
2.564414314926109
 10
2.882266619091527
 20
3.034286818751997
 10
1.892515438975742
 20
3.142368276271147
 10
1.014753612679747
 20
3.162817635612529
 10
1.013472616365653
 20
3.107832555377583
 10
0.2316847482978969
 20
3.126045993879814
 10
0.2329657446119924
 20
3.181031074114759
 10
-0.3948638987979184
 20
3.19565772293752
 10
-0.4094206750944585
 20
2.570827265722242
 10
0.6877816077755688
 20
2.545265566545519
  0
DIMENSION
  5
68F
330
A
100
AcDbEntity
  8
R-ANNO-DIMS
  6
Continuous
100
AcDbDimension
  2
*D1
 10
5.15527328507802
 20
1.920143255357766
 30
0.0
 11
2.342773285078021
 21
1.920143255357766
 31
0.0
 70
    32
 71
     5
 42
5.624999999999998
  3
SCADMECH
100
AcDbAlignedDimension
 13
-0.4697267149219773
 23
2.510828968740399
 33
0.0
 14
5.15527328507802
 24
2.574479515281991
 34
0.0
100
AcDbRotatedDimension
  0
DIMENSION
  5
6AB
330
A
100
AcDbEntity
  8
R-ANNO-DIMS
  6
Continuous
100
AcDbDimension
  2
*D2
 10
-1.217256326572346
 20
3.750828968740402
 30
0.0
 11
-1.217256326572346
 21
3.109782683959089
 31
0.0
 70
   160
 71
     5
 42
1.250000000000003
  3
SCADMECH
100
AcDbAlignedDimension
 13
-0.4597267149219757
 23
2.500828968740398
 33
0.0
 14
-0.2661664786377198
 24
3.750828968740401
 34
0.0
 50
90.0
100
AcDbRotatedDimension
  0
DIMENSION
  5
6B9
330
A
100
AcDbEntity
  8
R-ANNO-DIMS
  6
Continuous
100
AcDbDimension
  2
*D3
 10
0.9033551136813061
 20
4.073061591810963
 30
0.0
 11
0.2168141993796574
 21
4.073061591810963
 31
0.0
 70
    32
 71
     5
 42
1.373081828603297
  3
SCADMECH
100
AcDbAlignedDimension
 13
-0.4697267149219915
 23
3.563126903998638
 33
0.0
 14
0.9033551136813061
 24
3.693760123873812
 34
0.0
100
AcDbRotatedDimension
  0
INSERT
  5
BE3
330
A
100
AcDbEntity
  8
R-ANNO-TEXT
  6
Continuous
100
AcDbBlockReference
  2
PEMKO_ASSA LOGO
 10
-5.364760260236243
 20
0.4074636533153324
 30
0.0
 41
0.5
 42
0.5
 43
0.5
  0
LWPOLYLINE
  5
C5D
330
A
100
AcDbEntity
  8
R-SWTS-DET1
100
AcDbPolyline
 90
      178
 70
     1
 43
0.0
 10
3.248951984203099
 20
3.173123389617108
 10
3.032064729528635
 20
3.192098565664382
 42
-0.1989123673796675
 10
3.02527584252492
 20
3.195632636548433
 10
3.017029888517371
 20
3.205459781861302
 10
3.007202743204502
 20
3.197213827853749
 42
-0.1989123673796776
 10
2.99990330968016
 20
3.194912325304022
 10
2.783016055005703
 20
3.213887501351296
 42
-0.1989123673796675
 10
2.776227168001988
 20
3.217421572235346
 10
2.767981213994435
 20
3.227248717548215
 10
2.75815406868157
 20
3.219002763540663
 42
-0.1989123673796481
 10
2.750854635157228
 20
3.216701260990937
 10
2.533967380482768
 20
3.235676437038209
 42
-0.198912367379634
 10
2.527178493479056
 20
3.239210507922258
 10
2.5189325394715
 20
3.249037653235129
 10
2.509105394158631
 20
3.240791699227576
 42
-0.1989123673796481
 10
2.501805960634289
 20
3.238490196677851
 10
2.284918705959832
 20
3.257465372725127
 42
-0.1989123673797021
 10
2.27812981895612
 20
3.260999443609177
 10
2.269883864948564
 20
3.270826588922046
 10
2.260056719635695
 20
3.26258063491449
 42
-0.1989123673797026
 10
2.25275728611135
 20
3.260279132364763
 10
2.035870031436897
 20
3.279254308412046
 42
-0.1989123673796028
 10
2.029081144433185
 20
3.282788379296095
 10
2.020835190425629
 20
3.292615524608965
 10
2.01100804511276
 20
3.284369570601409
 42
-0.1989123673796518
 10
2.003708611588415
 20
3.282068068051678
 10
1.786821356913957
 20
3.301043244098963
 42
-0.1989123673796381
 10
1.780032469910246
 20
3.304577314983013
 10
1.77178651590269
 20
3.314404460295882
 10
1.761959370589821
 20
3.306158506288326
 42
-0.1989123673796571
 10
1.754659937065479
 20
3.303857003738594
 10
1.537772682391018
 20
3.32283217978588
 42
-0.1989123673796028
 10
1.530983795387307
 20
3.326366250669929
 10
1.522737841379751
 20
3.3361933959828
 10
1.512910696066882
 20
3.327947441975243
 42
-0.1989123673796225
 10
1.505611262542537
 20
3.325645939425509
 10
1.309944246530843
 20
3.342764585152481
 42
-0.1791720625029127
 10
1.24717339706341
 20
3.37245772786985
 10
0.927636793293349
 20
3.676715810308365
 42
0.1499924190927214
 10
0.8751414248270991
 20
3.702930530131839
 42
0.0012291528480735
 10
0.8577614548767693
 20
3.705787427482031
 42
-0.1985255466977447
 10
0.850998709019141
 20
3.709341799842633
 10
0.8427732850780175
 20
3.719208281970866
 10
0.8329068029497756
 20
3.710982858029739
 42
-0.1985255466976897
 10
0.8256148836869209
 20
3.708703338809243
 42
0.0035887395415014
 10
0.670491801042129
 20
3.721419732269716
 42
-0.1985255466978236
 10
0.663668469955706
 20
3.724856365403718
 10
0.6552732850780176
 20
3.734578810542025
 10
0.6455508399397056
 20
3.726183625664335
 42
-0.1985255466977426
 10
0.6382995223033492
 20
3.723778072308171
 42
0.0035832441800518
 10
0.4832172923437529
 20
3.733790464509993
 42
-0.198525546697662
 10
0.4763354986027831
 20
3.737108477367016
 10
0.4677732850780177
 20
3.746684153225906
 10
0.4581976092191201
 20
3.738121939701141
 42
-0.1985255466977422
 10
0.4509890157835133
 20
3.735591233259691
 42
0.0035790621119887
 10
0.2959379450364746
 20
3.742910544466239
 42
-0.1985255466979431
 10
0.2889998041084783
 20
3.746109058945808
 10
0.2802732850780177
 20
3.75553524238391
 10
0.2708471016399055
 20
3.746808723353439
 42
-0.1985255466977308
 10
0.2636833478725758
 20
3.744153741927183
 42
0.0035745854972578
 10
0.1087229933551089
 20
3.748786351897697
 42
-0.1975394297404339
 10
0.1017569498688753
 20
3.75183718335521
 10
0.0927732850780177
 20
3.761140040575075
 10
0.0835951807227676
 20
3.752276848225202
 42
-0.1995120178245547
 10
0.076451006497724
 20
3.749472198519852
 42
0.0035745039111675
 10
-0.0785627132415915
 20
3.75142723608854
 42
-0.1974931248596108
 10
-0.0855791574926596
 20
3.75435601908889
 10
-0.0947267149219823
 20
3.76350357651821
 10
-0.103745881321142
 20
3.754484410119054
 42
-0.1995583567539297
 10
-0.1108418021469785
 20
3.751555508814579
 42
0.0035814288826304
 10
-0.2661664786377213
 20
3.7508289687404
 42
-0.2019913960896577
 10
-0.2733559471862816
 20
3.753757199967241
 10
-0.2822267149219823
 20
3.762627967702936
 10
-0.2920201967711724
 20
3.752834485853746
 42
-0.1767838480364557
 10
-0.298237363334376
 20
3.749942077733107
 42
0.3893888781803605
 10
-0.469726714921993
 20
3.563126903998636
 10
-0.4697267149219788
 20
2.510828968740398
 42
0.414213562372991
 10
-0.4597267149219808
 20
2.500828968740396
 10
-0.3247267149219827
 20
2.500828968740396
 10
-0.3147267149219847
 20
2.510828968740394
 10
-0.134726714921985
 20
2.510828968740398
 10
-0.1247267149219835
 20
2.500828968740396
 10
-0.1047267149219839
 20
2.500828968740396
 42
0.4142135623730951
 10
-0.0947267149219823
 20
2.510828968740398
 10
-0.0947267149219823
 20
2.540828968740395
 42
0.4142135623730951
 10
-0.1047267149219839
 20
2.550828968740397
 10
-0.4097267149219836
 20
2.550828968740397
 42
-0.4142135623730951
 10
-0.4197267149219852
 20
2.560828968740398
 10
-0.4197267149219817
 20
3.185828968740397
 42
-0.4142135623730431
 10
-0.4097267149219801
 20
3.195828968740396
 10
-0.1797267149219761
 20
3.195828968740398
 42
0.414213562373147
 10
-0.169726714921971
 20
3.205828968740398
 10
-0.1697267149219745
 20
3.242341784572808
 42
0.414213562372991
 10
-0.1797267149219761
 20
3.252341784572806
 10
-0.4097267149219836
 20
3.252341784572807
 42
-0.4142135623731991
 10
-0.4197267149219852
 20
3.262341784572807
 10
-0.4197267149219817
 20
3.563040221973089
 42
-0.4100305763161566
 10
-0.2891217579605081
 20
3.695526669626737
 42
-0.0281028168370001
 10
0.8763361208437745
 20
3.646679228206092
 42
-0.1768600536895838
 10
0.8825239434461488
 20
3.643718126672988
 10
1.222094696624808
 20
3.319441738789302
 42
0.1791720625029096
 10
1.284865546092241
 20
3.289748596071936
 10
2.732799277158005
 20
3.163070809066883
 42
-0.3888787318529693
 10
2.755620383589314
 20
3.138165941614591
 10
2.755620383589321
 20
3.084967698355987
 42
0.3888787318529823
 10
2.778441490020629
 20
3.060062830903694
 10
2.857799277158012
 20
3.053119924166674
 42
-0.3888787318530015
 10
2.880620383589321
 20
3.02821505671438
 10
2.880620383589324
 20
2.560828968740398
 42
-0.414213562372887
 10
2.870620383589323
 20
2.550828968740393
 10
2.565620383589323
 20
2.550828968740397
 42
0.414213562372991
 10
2.555620383589325
 20
2.540828968740395
 10
2.555620383589321
 20
2.510828968740398
 42
0.414213562372887
 10
2.565620383589323
 20
2.500828968740393
 10
2.585620383589323
 20
2.500828968740396
 10
2.595620383589324
 20
2.510828968740398
 10
2.775620383589324
 20
2.510828968740394
 10
2.785620383589322
 20
2.500828968740396
 10
2.92062038358932
 20
2.500828968740396
 42
0.414213562372991
 10
2.930620383589318
 20
2.510828968740398
 10
2.930620383589321
 20
3.118480992321265
 42
-0.4400105308918338
 10
2.95779927715801
 20
3.143385859773559
 10
4.872745091697172
 20
2.975849809734953
 42
-0.4248754780203114
 10
4.881797331927234
 20
2.964655693913236
 42
0.4508755397699754
 10
5.080273285078021
 20
2.740012317097237
 10
5.095273285078025
 20
2.740012317097267
 42
-0.4142135623731991
 10
5.105273285078023
 20
2.730012317097266
 10
5.105273285078023
 20
2.640612001822512
 10
4.975273285078021
 20
2.640612001822512
 10
4.975273285078021
 20
2.500828968740396
 10
5.025273285078021
 20
2.500828968740396
 10
5.025273285078021
 20
2.590612001822512
 10
5.105273285078023
 20
2.590612001822512
 10
5.105273285078023
 20
2.54561200182251
 10
5.15527328507802
 20
2.574479515281991
 10
5.155273285078017
 20
2.780012317097266
 42
0.4142135623730431
 10
5.145273285078022
 20
2.790012317097266
 10
5.080273285078021
 20
2.790012317097264
 42
-0.4563458178030702
 10
4.931776216125911
 20
2.961192980746778
 42
-0.3983651346823172
 10
4.942547578150104
 20
2.969742883484407
 10
4.997472274000312
 20
2.964937595249907
 42
-0.4407353707988896
 10
5.006444548161677
 20
2.953215256366432
 42
2.133954504927428
 10
5.106628124422119
 20
3.010229284015151
 42
0.0680540951572924
 10
5.103985703270399
 20
3.010828968740385
 10
4.775405451189193
 20
3.039576015855981
 42
-0.1989123673796171
 10
4.768616564185478
 20
3.043110086740039
 10
4.760370610177929
 20
3.052937232052904
 10
4.750543464865064
 20
3.044691278045352
 42
-0.198912367379703
 10
4.743244031340722
 20
3.042389775495626
 10
4.526356776666258
 20
3.061364951542893
 42
-0.1989123673796171
 10
4.519567889662543
 20
3.064899022426951
 10
4.511321935654994
 20
3.074726167739816
 10
4.501494790342125
 20
3.066480213732264
 42
-0.1989123673796785
 10
4.494195356817787
 20
3.064178711182538
 10
4.277308102143322
 20
3.083153887229808
 42
-0.1989123673796769
 10
4.270519215139607
 20
3.086687958113865
 10
4.262273261132058
 20
3.09651510342673
 10
4.252446115819193
 20
3.088269149419177
 42
-0.198912367379703
 10
4.245146682294851
 20
3.085967646869452
 10
4.02825942762038
 20
3.104942822916726
 42
-0.1989123673796762
 10
4.021470540616668
 20
3.10847689380078
 10
4.013224586609119
 20
3.118304039113645
 10
4.003397441296254
 20
3.110058085106093
 42
-0.198912367379703
 10
3.996098007771913
 20
3.107756582556367
 10
3.779210753097448
 20
3.126731758603639
 42
-0.1989123673797053
 10
3.772421866093733
 20
3.130265829487694
 10
3.764175912086181
 20
3.140092974800559
 10
3.754348766773315
 20
3.131847020793006
 42
-0.198912367379703
 10
3.747049333248974
 20
3.129545518243281
 10
3.530162078574509
 20
3.148520694290551
 42
-0.1989123673797053
 10
3.523373191570794
 20
3.152054765174606
 10
3.515127237563245
 20
3.161881910487471
 10
3.50530009225038
 20
3.153635956479918
 42
-0.1989123673797026
 10
3.498000658726035
 20
3.151334453930191
 10
3.281113404051574
 20
3.170309629977468
 42
-0.1989123673796675
 10
3.274324517047859
 20
3.173843700861519
 10
3.26607856304031
 20
3.183670846174385
 10
3.256251417727444
 20
3.175424892166835
 42
-0.1989123673797026
  0
DIMENSION
  5
C68
330
A
100
AcDbEntity
  8
R-ANNO-DIMS
  6
Continuous
100
AcDbDimension
  2
*D6
 10
5.41813894073708
 20
2.500828968740396
 30
0.0
 11
5.418138940737079
 21
2.755529126377775
 31
0.0
 70
    32
 71
     5
 42
0.5094003152747551
  3
SCADMECH
100
AcDbAlignedDimension
 13
5.106628124422119
 23
3.010229284015151
 33
0.0
 14
5.025273285078021
 24
2.500828968740396
 34
0.0
 50
90.0
100
AcDbRotatedDimension
  0
VIEWPORT
  5
15B
102
{ACAD_XDICTIONARY
360
D26
102
}
330
B
100
AcDbEntity
 67
     1
  8
0
  6
Continuous
100
AcDbViewport
 10
5.375000360443835
 20
4.124999881729366
 30
0.0
 40
15.14101092660844
 41
8.999212568092653
 68
     1
 69
     1
 12
5.375000360443835
 22
4.124999881729366
 13
0.0
 23
0.0
 14
0.5
 24
0.5
 15
0.5
 25
0.5
 16
0.0
 26
0.0
 36
1.0
 17
0.0
 27
0.0
 37
0.0
 42
50.0
 43
0.0
 44
0.0
 45
8.999212568092653
 50
0.0
 51
0.0
 72
   100
 90
    32800
  1

281
     0
 71
     1
 74
     0
110
0.0
120
0.0
130
0.0
111
1.0
121
0.0
131
0.0
112
0.0
122
1.0
132
0.0
 79
     0
146
0.0
  0
VIEWPORT
  5
15D
102
{ACAD_XDICTIONARY
360
D28
102
}
330
B
100
AcDbEntity
 67
     1
  8
R-ANNO-TEXT
  6
Continuous
100
AcDbViewport
 10
5.375000121086601
 20
4.124999820716737
 30
0.0
 40
8.60000019373856
 41
6.599999713146781
 68
     2
 69
     2
 12
1.883323391344033
 22
-0.4089053154753202
 13
0.0
 23
0.0
 14
1.0
 24
1.0
 15
0.0
 25
0.0
 16
0.0
 26
0.0
 36
1.0
 17
0.0
 27
0.0
 37
0.0
 42
50.0
 43
0.0
 44
0.0
 45
6.599999713146781
 50
0.0
 51
0.0
 72
   100
 90
    32800
  1

281
     0
 71
     1
 74
     0
110
0.0
120
0.0
130
0.0
111
1.0
121
0.0
131
0.0
112
0.0
122
1.0
132
0.0
 79
     0
146
0.0
  0
ENDSEC
  0
SECTION
  2
OBJECTS
  0
DICTIONARY
  5
19
330
0
100
AcDbDictionary
281
     1
  3
ACAD_COLOR
350
5EE
  3
ACAD_GROUP
350
1A
  3
ACAD_LAYOUT
350
C6
  3
ACAD_MATERIAL
350
5ED
  3
ACAD_MLINESTYLE
350
1B
  3
ACAD_PLOTSETTINGS
350
C7
  3
ACAD_PLOTSTYLENAME
350
C4
  3
ACAD_TABLESTYLE
350
5EF
  3
ACAD_VISUALSTYLE
350
617
  3
AcDbVariableDictionary
350
D0
  3
AcStStandard
350
504
  3
AEC_CLASSIFICATION_SYSTEM_DEFS
350
777
  3
ASE_INDEX_DICTIONARY
350
5FE
  3
DWGPROPS
350
D21
  0
DICTIONARY
  5
73B
330
7
100
AcDbDictionary
280
     1
281
     1
  0
DICTIONARY
  5
60A
330
2
100
AcDbDictionary
280
     1
281
     1
  3
ACAD_LAYERSTATES
360
60B
  0
DICTIONARY
  5
77D
330
A
100
AcDbDictionary
280
     1
281
     1
  3
ACAD_SORTENTS
360
77E
  0
DICTIONARY
  5
BDF
330
890
100
AcDbDictionary
280
     1
281
     1
  3
ACAD_SORTENTS
360
BE0
  0
DICTIONARY
  5
D26
330
15B
100
AcDbDictionary
280
     1
281
     1
  3
ACAD_XREC_ROUNDTRIP
360
D27
  0
DICTIONARY
  5
D28
330
15D
100
AcDbDictionary
280
     1
281
     1
  3
ACAD_XREC_ROUNDTRIP
360
D29
  0
DICTIONARY
  5
5EE
102
{ACAD_REACTORS
330
19
102
}
330
19
100
AcDbDictionary
281
     1
  0
DICTIONARY
  5
1A
102
{ACAD_REACTORS
330
19
102
}
330
19
100
AcDbDictionary
281
     1
  0
DICTIONARY
  5
C6
102
{ACAD_REACTORS
330
19
102
}
330
19
100
AcDbDictionary
281
     1
  3
Layout1
350
C9
  3
Model
350
C8
  0
DICTIONARY
  5
5ED
102
{ACAD_REACTORS
330
19
102
}
330
19
100
AcDbDictionary
281
     1
  3
ByBlock
350
615
  3
ByLayer
350
614
  3
Global
350
616
  0
DICTIONARY
  5
1B
102
{ACAD_REACTORS
330
19
102
}
330
19
100
AcDbDictionary
281
     1
  3
STANDARD
350
1C
  0
DICTIONARY
  5
C7
102
{ACAD_REACTORS
330
19
102
}
330
19
100
AcDbDictionary
281
     1
  0
ACDBDICTIONARYWDFLT
  5
C4
102
{ACAD_REACTORS
330
19
102
}
330
19
100
AcDbDictionary
281
     1
  3
Normal
350
C5
100
AcDbDictionaryWithDefault
340
C5
  0
DICTIONARY
  5
5EF
102
{ACAD_REACTORS
330
19
102
}
330
19
100
AcDbDictionary
281
     1
  3
Standard
350
5F0
  0
DICTIONARY
  5
617
102
{ACAD_REACTORS
330
19
102
}
330
19
100
AcDbDictionary
281
     1
  3
2dWireframe
350
61D
  3
3D Hidden
350
61F
  3
3dWireframe
350
61E
  3
Basic
350
61C
  3
Brighten
350
623
  3
ColorChange
350
627
  3
Conceptual
350
620
  3
Dim
350
622
  3
Facepattern
350
626
  3
Flat
350
618
  3
FlatWithEdges
350
619
  3
Gouraud
350
61A
  3
GouraudWithEdges
350
61B
  3
Linepattern
350
625
  3
Realistic
350
621
  3
Thicken
350
624
  0
DICTIONARY
  5
D0
102
{ACAD_REACTORS
330
19
102
}
330
19
100
AcDbDictionary
281
     1
  3
CTABLESTYLE
350
601
  3
DIMASSOC
350
D1
  3
INDEXCTL
350
CD8
  3
SORTENTS
350
CD7
  0
DICTIONARY
  5
504
102
{ACAD_REACTORS
330
19
102
}
330
19
100
AcDbDictionary
281
     1
  0
DICTIONARY
  5
777
102
{ACAD_REACTORS
330
19
102
}
330
19
100
AcDbDictionary
281
     1
  0
DICTIONARY
  5
5FE
102
{ACAD_REACTORS
330
19
102
}
330
19
100
AcDbDictionary
281
     1
  3
ASEBlockHierarchyIndexRecord
350
5FF
1001
DCO15
1040
1621669668.125
  0
XRECORD
  5
D21
102
{ACAD_REACTORS
330
19
102
}
330
19
100
AcDbXrecord
280
     1
  1
DWGPROPS COOKIE
  2

  3

  4

  6

  7

  8
jasonh
  9

300
=
301
=
302
=
303
=
304
=
305
=
306
=
307
=
308
=
309
=
 40
0.306421087962963
 41
2452146.560115741
 42
2454572.53671441
  1

 90
        0
  0
DICTIONARY
  5
60B
102
{ACAD_REACTORS
330
60A
102
}
330
60A
100
AcDbDictionary
281
     1
  0
SORTENTSTABLE
  5
77E
102
{ACAD_REACTORS
330
77D
102
}
330
77D
100
AcDbSortentsTable
330
A
331
63E
  5
63E
331
643
  5
643
331
638
  5
638
331
68F
  5
68F
331
63D
  5
63D
331
642
  5
642
331
637
  5
637
331
6AB
  5
6AB
331
63C
  5
63C
331
10C
  5
10C
331
641
  5
641
331
63B
  5
63B
331
640
  5
640
331
6B9
  5
6B9
331
63A
  5
63A
331
63F
  5
63F
331
639
  5
639
  0
SORTENTSTABLE
  5
BE0
102
{ACAD_REACTORS
330
BDF
102
}
330
BDF
100
AcDbSortentsTable
330
890
  0
XRECORD
  5
D27
102
{ACAD_REACTORS
330
D26
102
}
330
D26
100
AcDbXrecord
280
     1
102
SHADEPLOT
 70
     0
  0
XRECORD
  5
D29
102
{ACAD_REACTORS
330
D28
102
}
330
D28
100
AcDbXrecord
280
     1
102
SHADEPLOT
 70
     0
  0
LAYOUT
  5
C9
102
{ACAD_XDICTIONARY
360
D24
102
}
102
{ACAD_REACTORS
330
C6
102
}
330
C6
100
AcDbPlotSettings
  1

  2
HP LaserJet 8150 PS
  4
Letter
  6

 40
3.174999952316284
 41
3.174999952316284
 42
3.175003051757812
 43
3.17498779296875
 44
215.8999938964844
 45
279.3999938964844
 46
0.0
 47
0.0
 48
0.0
 49
0.0
140
0.0
141
0.0
142
1.0
143
1.0
 70
   688
 72
     0
 73
     1
 74
     5
  7
monochrome.ctb
 75
    16
147
1.0
148
0.0
149
0.0
100
AcDbLayout
  1
Layout1
 70
     0
 71
     1
 10
-0.1249995194082185
 20
-0.1249999981226883
 11
10.87500024029589
 21
8.37499976158142
 12
0.0
 22
0.0
 32
0.0
 14
1.07500002421732
 24
0.8249999641433474
 34
0.0
 15
9.675000217955881
 25
7.424999677290128
 35
0.0
146
0.0
 13
0.0
 23
0.0
 33
0.0
 16
1.0
 26
0.0
 36
0.0
 17
0.0
 27
1.0
 37
0.0
 76
     0
330
B
331
15B
  0
LAYOUT
  5
C8
102
{ACAD_XDICTIONARY
360
D22
102
}
102
{ACAD_REACTORS
330
C6
102
}
330
C6
100
AcDbPlotSettings
  1

  2
Adobe PDF
  4
Letter
  6

 40
3.174999952316284
 41
3.174999952316284
 42
3.175003051757812
 43
3.17498779296875
 44
215.8999938964844
 45
279.3999938964844
 46
41.25081234167281
 47
32.78976409744476
 48
-2.025689030237405
 49
0.1929594557165224
140
6.14244002316062
141
5.19486363717576
142
1.0
143
1.0
 70
 11940
 72
     0
 73
     1
 74
     4
  7
monochrome.ctb
 75
     0
147
1.298236942801617
148
51.45250136803009
149
-4.901170175199668
100
AcDbLayout
  1
Model
 70
     1
 71
     0
 10
0.0
 20
0.0
 11
12.0
 21
9.0
 12
0.0
 22
0.0
 32
0.0
 14
0.0
 24
0.0
 34
0.0
 15
0.0
 25
0.0
 35
0.0
146
0.0
 13
0.0
 23
0.0
 33
0.0
 16
1.0
 26
0.0
 36
0.0
 17
0.0
 27
1.0
 37
0.0
 76
     0
330
A
331
612
1001
ACAD_PSEXT
1000
Adobe PDF
1000
Adobe PDF Converter
1000
My Documents\*.pdf
1000
Creates Adobe PDF
1070
     0
  0
MATERIAL
  5
615
102
{ACAD_XDICTIONARY
360
D2F
102
}
102
{ACAD_REACTORS
330
5ED
102
}
330
5ED
100
AcDbMaterial
  1
ByBlock
  0
MATERIAL
  5
614
102
{ACAD_XDICTIONARY
360
D2D
102
}
102
{ACAD_REACTORS
330
5ED
102
}
330
5ED
100
AcDbMaterial
  1
ByLayer
  0
MATERIAL
  5
616
102
{ACAD_XDICTIONARY
360
D31
102
}
102
{ACAD_REACTORS
330
5ED
102
}
330
5ED
100
AcDbMaterial
  1
Global
  0
MLINESTYLE
  5
1C
102
{ACAD_REACTORS
330
1B
102
}
330
1B
100
AcDbMlineStyle
  2
STANDARD
 70
     0
  3

 62
     0
 51
90.0
 52
90.0
 71
     2
 49
0.5
 62
   256
  6
BYLAYER
 49
-0.5
 62
   256
  6
BYLAYER
  0
ACDBPLACEHOLDER
  5
C5
102
{ACAD_REACTORS
330
C4
102
}
330
C4
  0
TABLESTYLE
  5
5F0
102
{ACAD_XDICTIONARY
360
D2B
102
}
102
{ACAD_REACTORS
330
5EF
102
}
330
5EF
100
AcDbTableStyle
  3
Standard
 70
     0
 71
     0
 40
0.06
 41
0.06
280
     0
281
     0
  7
STANDARD
140
0.18
170
     2
 62
     0
 63
     7
283
     0
274
    -2
284
     1
 64
     0
275
    -2
285
     1
 65
     0
276
    -2
286
     1
 66
     0
277
    -2
287
     1
 67
     0
278
    -2
288
     1
 68
     0
279
    -2
289
     1
 69
     0
  7
STANDARD
140
0.25
170
     5
 62
     0
 63
     7
283
     0
274
    -2
284
     1
 64
     0
275
    -2
285
     1
 65
     0
276
    -2
286
     1
 66
     0
277
    -2
287
     1
 67
     0
278
    -2
288
     1
 68
     0
279
    -2
289
     1
 69
     0
  7
STANDARD
140
0.18
170
     5
 62
     0
 63
     7
283
     0
274
    -2
284
     1
 64
     0
275
    -2
285
     1
 65
     0
276
    -2
286
     1
 66
     0
277
    -2
287
     1
 67
     0
278
    -2
288
     1
 68
     0
279
    -2
289
     1
 69
     0
  0
VISUALSTYLE
  5
61D
102
{ACAD_REACTORS
330
617
102
}
330
617
100
AcDbVisualStyle
  2
2dWireframe
 70
     4
 71
     0
 72
     2
 73
     0
 90
        0
 40
-0.6
 41
-30.0
 62
     5
 63
     7
 74
     1
 91
        4
 64
     7
 65
   257
 75
     1
175
     1
 42
1.0
 92
        0
 66
   257
 43
1.0
 76
     1
 77
     6
 78
     2
 67
     7
 79
     5
170
     0
171
     0
290
     0
174
     0
 93
        1
 44
0.0
173
     0
291
     0
 45
0.0
1001
ACAD
1000
AcDbSavedByObjectVersion
1070
     0
  0
VISUALSTYLE
  5
61F
102
{ACAD_REACTORS
330
617
102
}
330
617
100
AcDbVisualStyle
  2
3D Hidden
 70
     6
 71
     1
 72
     2
 73
     2
 90
        0
 40
-0.6
 41
-30.0
 62
     5
 63
     7
 74
     2
 91
        2
 64
     7
 65
   257
 75
     2
175
     1
 42
40.0
 92
        0
 66
   257
 43
1.0
 76
     1
 77
     6
 78
     2
 67
     7
 79
     3
170
     0
171
     0
290
     0
174
     0
 93
        1
 44
0.0
173
     0
291
     0
 45
0.0
1001
ACAD
1000
AcDbSavedByObjectVersion
1070
     0
  0
VISUALSTYLE
  5
61E
102
{ACAD_REACTORS
330
617
102
}
330
617
100
AcDbVisualStyle
  2
3dWireframe
 70
     5
 71
     0
 72
     2
 73
     0
 90
        0
 40
-0.6
 41
-30.0
 62
     5
 63
     7
 74
     1
 91
        4
 64
     7
 65
   257
 75
     1
175
     1
 42
1.0
 92
        0
 66
   257
 43
1.0
 76
     1
 77
     6
 78
     2
 67
     7
 79
     5
170
     0
171
     0
290
     0
174
     0
 93
        1
 44
0.0
173
     0
291
     0
 45
0.0
1001
ACAD
1000
AcDbSavedByObjectVersion
1070
     0
  0
VISUALSTYLE
  5
61C
102
{ACAD_REACTORS
330
617
102
}
330
617
100
AcDbVisualStyle
  2
Basic
 70
     7
 71
     1
 72
     0
 73
     1
 90
        0
 40
-0.6
 41
-30.0
 62
     5
 63
     7
 74
     0
 91
        4
 64
     7
 65
   257
 75
     1
175
     1
 42
1.0
 92
        8
 66
     7
 43
1.0
 76
     1
 77
     6
 78
     2
 67
     7
 79
     5
170
     0
171
     0
290
     0
174
     0
 93
        1
 44
0.0
173
     0
291
     1
 45
0.0
1001
ACAD
1000
AcDbSavedByObjectVersion
1070
     0
  0
VISUALSTYLE
  5
623
102
{ACAD_REACTORS
330
617
102
}
330
617
100
AcDbVisualStyle
  2
Brighten
 70
    12
 71
     2
 72
     2
 73
     0
 90
        0
 40
-0.6
 41
-30.0
 62
     5
 63
     7
 74
     1
 91
        4
 64
     7
 65
   257
 75
     1
175
     1
 42
1.0
 92
        8
 66
     7
 43
1.0
 76
     1
 77
     6
 78
     2
 67
     7
 79
     5
170
     0
171
     0
290
     0
174
     0
 93
        1
 44
50.0
173
     0
291
     1
 45
0.0
1001
ACAD
1000
AcDbSavedByObjectVersion
1070
     0
  0
VISUALSTYLE
  5
627
102
{ACAD_REACTORS
330
617
102
}
330
617
100
AcDbVisualStyle
  2
ColorChange
 70
    16
 71
     2
 72
     2
 73
     3
 90
        0
 40
-0.6
 41
-30.0
 62
     5
 63
     8
 74
     1
 91
        4
 64
     7
 65
   257
 75
     1
175
     1
 42
1.0
 92
        8
 66
     8
 43
1.0
 76
     1
 77
     6
 78
     2
 67
     7
 79
     5
170
     0
171
     0
290
     0
174
     0
 93
        1
 44
0.0
173
     0
291
     1
 45
0.0
1001
ACAD
1000
AcDbSavedByObjectVersion
1070
     0
  0
VISUALSTYLE
  5
620
102
{ACAD_REACTORS
330
617
102
}
330
617
100
AcDbVisualStyle
  2
Conceptual
 70
     9
 71
     3
 72
     2
 73
     0
 90
        0
 40
-0.6
 41
-30.0
 62
     5
 63
     7
 74
     2
 91
        2
 64
     7
 65
   257
 75
     1
175
     1
 42
40.0
 92
        8
 66
     7
 43
1.0
 76
     1
 77
     6
 78
     2
 67
     7
 79
     3
170
     0
171
     0
290
     0
174
     0
 93
        1
 44
0.0
173
     0
291
     0
 45
0.0
1001
ACAD
1000
AcDbSavedByObjectVersion
1070
     0
  0
VISUALSTYLE
  5
622
102
{ACAD_REACTORS
330
617
102
}
330
617
100
AcDbVisualStyle
  2
Dim
 70
    11
 71
     2
 72
     2
 73
     0
 90
        0
 40
-0.6
 41
-30.0
 62
     5
 63
     7
 74
     1
 91
        4
 64
     7
 65
   257
 75
     1
175
     1
 42
1.0
 92
        8
 66
     7
 43
1.0
 76
     1
 77
     6
 78
     2
 67
     7
 79
     5
170
     0
171
     0
290
     0
174
     0
 93
        1
 44
-50.0
173
     0
291
     1
 45
0.0
1001
ACAD
1000
AcDbSavedByObjectVersion
1070
     0
  0
VISUALSTYLE
  5
626
102
{ACAD_REACTORS
330
617
102
}
330
617
100
AcDbVisualStyle
  2
Facepattern
 70
    15
 71
     2
 72
     2
 73
     0
 90
        0
 40
-0.6
 41
-30.0
 62
     5
 63
     7
 74
     1
 91
        4
 64
     7
 65
   257
 75
     1
175
     1
 42
1.0
 92
        8
 66
     7
 43
1.0
 76
     1
 77
     6
 78
     2
 67
     7
 79
     5
170
     0
171
     0
290
     0
174
     0
 93
        1
 44
0.0
173
     0
291
     1
 45
0.0
1001
ACAD
1000
AcDbSavedByObjectVersion
1070
     0
  0
VISUALSTYLE
  5
618
102
{ACAD_REACTORS
330
617
102
}
330
617
100
AcDbVisualStyle
  2
Flat
 70
     0
 71
     2
 72
     1
 73
     1
 90
        2
 40
-0.6
 41
30.0
 62
     5
 63
     7
 74
     0
 91
        4
 64
     7
 65
   257
 75
     1
175
     1
 42
1.0
 92
        8
 66
     7
 43
1.0
 76
     1
 77
     6
 78
     2
 67
     7
 79
     5
170
     0
171
     0
290
     0
174
     0
 93
       13
 44
0.0
173
     0
291
     1
 45
0.0
1001
ACAD
1000
AcDbSavedByObjectVersion
1070
     0
  0
VISUALSTYLE
  5
619
102
{ACAD_REACTORS
330
617
102
}
330
617
100
AcDbVisualStyle
  2
FlatWithEdges
 70
     1
 71
     2
 72
     1
 73
     1
 90
        2
 40
-0.6
 41
30.0
 62
     5
 63
     7
 74
     1
 91
        4
 64
     7
 65
   257
 75
     1
175
     1
 42
1.0
 92
        0
 66
   257
 43
1.0
 76
     1
 77
     6
 78
     2
 67
     7
 79
     5
170
     0
171
     0
290
     0
174
     0
 93
       13
 44
0.0
173
     0
291
     1
 45
0.0
1001
ACAD
1000
AcDbSavedByObjectVersion
1070
     0
  0
VISUALSTYLE
  5
61A
102
{ACAD_REACTORS
330
617
102
}
330
617
100
AcDbVisualStyle
  2
Gouraud
 70
     2
 71
     2
 72
     2
 73
     1
 90
        2
 40
-0.6
 41
30.0
 62
     5
 63
     7
 74
     0
 91
        4
 64
     7
 65
   257
 75
     1
175
     1
 42
1.0
 92
        0
 66
     7
 43
1.0
 76
     1
 77
     6
 78
     2
 67
     7
 79
     5
170
     0
171
     0
290
     0
174
     0
 93
       13
 44
0.0
173
     0
291
     1
 45
0.0
1001
ACAD
1000
AcDbSavedByObjectVersion
1070
     0
  0
VISUALSTYLE
  5
61B
102
{ACAD_REACTORS
330
617
102
}
330
617
100
AcDbVisualStyle
  2
GouraudWithEdges
 70
     3
 71
     2
 72
     2
 73
     1
 90
        2
 40
-0.6
 41
30.0
 62
     5
 63
     7
 74
     1
 91
        4
 64
     7
 65
   257
 75
     1
175
     1
 42
1.0
 92
        0
 66
   257
 43
1.0
 76
     1
 77
     6
 78
     2
 67
     7
 79
     5
170
     0
171
     0
290
     0
174
     0
 93
       13
 44
0.0
173
     0
291
     1
 45
0.0
1001
ACAD
1000
AcDbSavedByObjectVersion
1070
     0
  0
VISUALSTYLE
  5
625
102
{ACAD_REACTORS
330
617
102
}
330
617
100
AcDbVisualStyle
  2
Linepattern
 70
    14
 71
     2
 72
     2
 73
     0
 90
        0
 40
-0.6
 41
-30.0
 62
     5
 63
     7
 74
     1
 91
        4
 64
     7
 65
   257
 75
     7
175
     7
 42
1.0
 92
        8
 66
     7
 43
1.0
 76
     1
 77
     6
 78
     2
 67
     7
 79
     5
170
     0
171
     0
290
     0
174
     0
 93
        1
 44
0.0
173
     0
291
     1
 45
0.0
1001
ACAD
1000
AcDbSavedByObjectVersion
1070
     0
  0
VISUALSTYLE
  5
621
102
{ACAD_REACTORS
330
617
102
}
330
617
100
AcDbVisualStyle
  2
Realistic
 70
     8
 71
     2
 72
     2
 73
     0
 90
        0
 40
-0.6
 41
-30.0
 62
     5
 63
     7
 74
     1
 91
        0
 64
     7
 65
   257
 75
     1
175
     1
 42
1.0
 92
        8
 66
     8
 43
1.0
 76
     1
 77
     6
 78
     2
 67
     7
 79
     5
170
     0
171
     0
290
     0
174
     0
 93
       13
 44
0.0
173
     0
291
     0
 45
0.0
1001
ACAD
1000
AcDbSavedByObjectVersion
1070
     0
  0
VISUALSTYLE
  5
624
102
{ACAD_REACTORS
330
617
102
}
330
617
100
AcDbVisualStyle
  2
Thicken
 70
    13
 71
     2
 72
     2
 73
     0
 90
        0
 40
-0.6
 41
-30.0
 62
     5
 63
     7
 74
     1
 91
        4
 64
     7
 65
   257
 75
     1
175
     1
 42
1.0
 92
       12
 66
     7
 43
1.0
 76
     1
 77
     6
 78
     2
 67
     7
 79
     5
170
     0
171
     0
290
     0
174
     0
 93
        1
 44
0.0
173
     0
291
     1
 45
0.0
1001
ACAD
1000
AcDbSavedByObjectVersion
1070
     0
  0
DICTIONARYVAR
  5
601
102
{ACAD_REACTORS
330
D0
102
}
330
D0
100
DictionaryVariables
280
     0
  1
STANDARD
  0
DICTIONARYVAR
  5
D1
102
{ACAD_REACTORS
330
D0
102
}
330
D0
100
DictionaryVariables
280
     0
  1
1
  0
DICTIONARYVAR
  5
CD8
102
{ACAD_REACTORS
330
D0
102
}
330
D0
100
DictionaryVariables
280
     0
  1
0
  0
DICTIONARYVAR
  5
CD7
102
{ACAD_REACTORS
330
D0
102
}
330
D0
100
DictionaryVariables
280
     0
  1
127
  0
XRECORD
  5
5FF
102
{ACAD_REACTORS
330
5FE
102
}
330
5FE
100
AcDbXrecord
280
     1
330
BE3
  0
DICTIONARY
  5
D24
330
C9
100
AcDbDictionary
280
     1
281
     1
  3
ACAD_XREC_ROUNDTRIP
360
D25
  0
DICTIONARY
  5
D22
330
C8
100
AcDbDictionary
280
     1
281
     1
  3
ACAD_XREC_ROUNDTRIP
360
D23
  0
DICTIONARY
  5
D2F
330
615
100
AcDbDictionary
280
     1
281
     1
  3
ACAD_XREC_ROUNDTRIP
360
D30
  0
DICTIONARY
  5
D2D
330
614
100
AcDbDictionary
280
     1
281
     1
  3
ACAD_XREC_ROUNDTRIP
360
D2E
  0
DICTIONARY
  5
D31
330
616
100
AcDbDictionary
280
     1
281
     1
  3
ACAD_XREC_ROUNDTRIP
360
D32
  0
DICTIONARY
  5
D2B
330
5F0
100
AcDbDictionary
280
     1
281
     1
  3
ACAD_XREC_ROUNDTRIP
360
D2C
  0
XRECORD
  5
D25
102
{ACAD_REACTORS
330
D24
102
}
330
D24
100
AcDbXrecord
280
     1
102
SHADEPLOT
 70
     0
102
SHADEPLOTRESLEVEL
 70
     2
102
SHADEPLOTCUSTOMDPI
 70
   300
  0
XRECORD
  5
D23
102
{ACAD_REACTORS
330
D22
102
}
330
D22
100
AcDbXrecord
280
     1
102
SHADEPLOT
 70
     0
102
SHADEPLOTRESLEVEL
 70
     2
102
SHADEPLOTCUSTOMDPI
 70
   300
  0
XRECORD
  5
D30
102
{ACAD_REACTORS
330
D2F
102
}
330
D2F
100
AcDbXrecord
280
     1
102
MATERIAL
148
0.0
149
0.0
149
0.0
 93
        0
 94
       63
282
     0
 72
     1
 77
     1
171
     1
175
     1
179
     1
273
     0
  0
XRECORD
  5
D2E
102
{ACAD_REACTORS
330
D2D
102
}
330
D2D
100
AcDbXrecord
280
     1
102
MATERIAL
148
0.0
149
0.0
149
0.0
 93
        0
 94
       63
282
     0
 72
     1
 77
     1
171
     1
175
     1
179
     1
273
     0
  0
XRECORD
  5
D32
102
{ACAD_REACTORS
330
D31
102
}
330
D31
100
AcDbXrecord
280
     1
102
MATERIAL
148
0.0
149
0.0
149
0.0
 93
        0
 94
       63
282
     0
 72
     1
 77
     1
171
     1
175
     1
179
     1
273
     0
  0
XRECORD
  5
D2C
102
{ACAD_REACTORS
330
D2B
102
}
330
D2B
100
AcDbXrecord
280
     1
102
ACAD_ROUNDTRIP_PRE2007_TABLESTYLE
 90
        4
 91
        0
  1

 92
        4
 93
        0
  2

 94
        4
 95
        0
  3

  0
ENDSEC
  0
EOF
