  0
SECTION
  2
HEADER
  9
$ACADVER
  1
AC1015
  9
$ACADMAINTVER
 70
    20
  9
$DWGCODEPAGE
  3
ANSI_1252
  9
$INSBASE
 10
0.0
 20
0.0
 30
0.0
  9
$EXTMIN
 10
-1.674408155870446
 20
-1.534295877761883
 30
-0.000000000000013
  9
$EXTMAX
 10
5.045888475414509
 20
2.321164115679376
 30
0.0000000000000023
  9
$LIMMIN
 10
0.0
 20
0.0
  9
$LIMMAX
 10
0.0
 20
0.0
  9
$ORTHOMODE
 70
     0
  9
$REGENMODE
 70
     1
  9
$FILLMODE
 70
     1
  9
$QTEXTMODE
 70
     0
  9
$MIRRTEXT
 70
     1
  9
$LTSCALE
 40
0.2
  9
$ATTMODE
 70
     1
  9
$TEXTSIZE
 40
0.0
  9
$TRACEWID
 40
1.0
  9
$TEXTSTYLE
  7
STANDARD
  9
$CLAYER
  8
0
  9
$CELTYPE
  6
CONTINUOUS
  9
$CECOLOR
 62
   256
  9
$CELTSCALE
 40
1.0
  9
$DISPSILH
 70
     0
  9
$DIMSCALE
 40
1.0
  9
$DIMASZ
 40
0.125
  9
$DIMEXO
 40
0.0625
  9
$DIMDLI
 40
0.38
  9
$DIMRND
 40
0.0
  9
$DIMDLE
 40
0.0
  9
$DIMEXE
 40
0.125
  9
$DIMTP
 40
0.0
  9
$DIMTM
 40
0.0
  9
$DIMTXT
 40
0.125
  9
$DIMCEN
 40
0.04
  9
$DIMTSZ
 40
0.0
  9
$DIMTOL
 70
     0
  9
$DIMLIM
 70
     0
  9
$DIMTIH
 70
     1
  9
$DIMTOH
 70
     1
  9
$DIMSE1
 70
     0
  9
$DIMSE2
 70
     0
  9
$DIMTAD
 70
     0
  9
$DIMZIN
 70
     0
  9
$DIMBLK
  1

  9
$DIMASO
 70
     1
  9
$DIMSHO
 70
     1
  9
$DIMPOST
  1

  9
$DIMAPOST
  1

  9
$DIMALT
 70
     0
  9
$DIMALTD
 70
     2
  9
$DIMALTF
 40
25.4
  9
$DIMLFAC
 40
1.0
  9
$DIMTOFL
 70
     0
  9
$DIMTVP
 40
0.0
  9
$DIMTIX
 70
     1
  9
$DIMSOXD
 70
     0
  9
$DIMSAH
 70
     0
  9
$DIMBLK1
  1

  9
$DIMBLK2
  1

  9
$DIMSTYLE
  2
SCADMECH
  9
$DIMCLRD
 70
     0
  9
$DIMCLRE
 70
     0
  9
$DIMCLRT
 70
     0
  9
$DIMTFAC
 40
1.0
  9
$DIMGAP
 40
0.09
  9
$DIMJUST
 70
     0
  9
$DIMSD1
 70
     0
  9
$DIMSD2
 70
     0
  9
$DIMTOLJ
 70
     1
  9
$DIMTZIN
 70
     0
  9
$DIMALTZ
 70
     0
  9
$DIMALTTZ
 70
     0
  9
$DIMUPT
 70
     0
  9
$DIMDEC
 70
     4
  9
$DIMTDEC
 70
     4
  9
$DIMALTU
 70
     2
  9
$DIMALTTD
 70
     2
  9
$DIMTXSTY
  7
SWTSTEXT
  9
$DIMAUNIT
 70
     0
  9
$DIMADEC
 70
     0
  9
$DIMALTRND
 40
0.0
  9
$DIMAZIN
 70
     0
  9
$DIMDSEP
 70
    46
  9
$DIMATFIT
 70
     1
  9
$DIMFRAC
 70
     0
  9
$DIMLDRBLK
  1

  9
$DIMLUNIT
 70
     5
  9
$DIMLWD
 70
    -2
  9
$DIMLWE
 70
    -2
  9
$DIMTMOVE
 70
     0
  9
$LUNITS
 70
     2
  9
$LUPREC
 70
     4
  9
$SKETCHINC
 40
0.1
  9
$FILLETRAD
 40
0.0
  9
$AUNITS
 70
     0
  9
$AUPREC
 70
     0
  9
$MENU
  1
acad
  9
$ELEVATION
 40
0.0
  9
$PELEVATION
 40
0.0
  9
$THICKNESS
 40
0.0
  9
$LIMCHECK
 70
     0
  9
$CHAMFERA
 40
0.0
  9
$CHAMFERB
 40
0.0
  9
$CHAMFERC
 40
0.0
  9
$CHAMFERD
 40
0.0
  9
$SKPOLY
 70
     0
  9
$TDCREATE
 40
2452213.361540382
  9
$TDUCREATE
 40
2452213.653207049
  9
$TDUPDATE
 40
2454574.611542049
  9
$TDUUPDATE
 40
2454574.903208715
  9
$TDINDWG
 40
0.0393910880
  9
$TDUSRTIMER
 40
0.0393909722
  9
$USRTIMER
 70
     1
  9
$ANGBASE
 50
0.0
  9
$ANGDIR
 70
     0
  9
$PDMODE
 70
     1
  9
$PDSIZE
 40
-2.0
  9
$PLINEWID
 40
0.0
  9
$SPLFRAME
 70
     0
  9
$SPLINETYPE
 70
     6
  9
$SPLINESEGS
 70
     8
  9
$HANDSEED
  5
AEB
  9
$SURFTAB1
 70
     6
  9
$SURFTAB2
 70
     6
  9
$SURFTYPE
 70
     6
  9
$SURFU
 70
     6
  9
$SURFV
 70
     6
  9
$UCSBASE
  2

  9
$UCSNAME
  2

  9
$UCSORG
 10
0.0
 20
0.0
 30
0.0
  9
$UCSXDIR
 10
1.0
 20
0.0
 30
0.0
  9
$UCSYDIR
 10
0.0
 20
1.0
 30
0.0
  9
$UCSORTHOREF
  2

  9
$UCSORTHOVIEW
 70
     0
  9
$UCSORGTOP
 10
0.0
 20
0.0
 30
0.0
  9
$UCSORGBOTTOM
 10
0.0
 20
0.0
 30
0.0
  9
$UCSORGLEFT
 10
0.0
 20
0.0
 30
0.0
  9
$UCSORGRIGHT
 10
0.0
 20
0.0
 30
0.0
  9
$UCSORGFRONT
 10
0.0
 20
0.0
 30
0.0
  9
$UCSORGBACK
 10
0.0
 20
0.0
 30
0.0
  9
$PUCSBASE
  2

  9
$PUCSNAME
  2

  9
$PUCSORG
 10
0.0
 20
0.0
 30
0.0
  9
$PUCSXDIR
 10
1.0
 20
0.0
 30
0.0
  9
$PUCSYDIR
 10
0.0
 20
1.0
 30
0.0
  9
$PUCSORTHOREF
  2

  9
$PUCSORTHOVIEW
 70
     0
  9
$PUCSORGTOP
 10
0.0
 20
0.0
 30
0.0
  9
$PUCSORGBOTTOM
 10
0.0
 20
0.0
 30
0.0
  9
$PUCSORGLEFT
 10
0.0
 20
0.0
 30
0.0
  9
$PUCSORGRIGHT
 10
0.0
 20
0.0
 30
0.0
  9
$PUCSORGFRONT
 10
0.0
 20
0.0
 30
0.0
  9
$PUCSORGBACK
 10
0.0
 20
0.0
 30
0.0
  9
$USERI1
 70
     0
  9
$USERI2
 70
     0
  9
$USERI3
 70
     0
  9
$USERI4
 70
     0
  9
$USERI5
 70
     0
  9
$USERR1
 40
0.0
  9
$USERR2
 40
0.0
  9
$USERR3
 40
0.0
  9
$USERR4
 40
0.0
  9
$USERR5
 40
0.0
  9
$WORLDVIEW
 70
     1
  9
$SHADEDGE
 70
     3
  9
$SHADEDIF
 70
    70
  9
$TILEMODE
 70
     1
  9
$MAXACTVP
 70
    16
  9
$PINSBASE
 10
0.0
 20
0.0
 30
0.0
  9
$PLIMCHECK
 70
     0
  9
$PEXTMIN
 10
1.074768547797088
 20
0.8247909505127708
 30
-0.0000000349181948
  9
$PEXTMAX
 10
9.675232224313329
 20
7.42520885252717
 30
0.0000000814935746
  9
$PLIMMIN
 10
-0.1249995194082185
 20
-0.1249999981226883
  9
$PLIMMAX
 10
10.87500024029589
 20
8.37499976158142
  9
$UNITMODE
 70
     0
  9
$VISRETAIN
 70
     0
  9
$PLINEGEN
 70
     1
  9
$PSLTSCALE
 70
     0
  9
$TREEDEPTH
 70
  3020
  9
$CMLSTYLE
  2
STANDARD
  9
$CMLJUST
 70
     0
  9
$CMLSCALE
 40
1.0
  9
$PROXYGRAPHICS
 70
     0
  9
$MEASUREMENT
 70
     0
  9
$CELWEIGHT
370
    -1
  9
$ENDCAPS
280
     0
  9
$JOINSTYLE
280
     0
  9
$LWDISPLAY
290
     0
  9
$INSUNITS
 70
     0
  9
$HYPERLINKBASE
  1

  9
$STYLESHEET
  1
monochrome.ctb
  9
$XEDIT
290
     1
  9
$CEPSNTYPE
380
     0
  9
$PSTYLEMODE
290
     1
  9
$FINGERPRINTGUID
  2
{D8FA5890-C65F-426E-8F3D-AD5C3B08D6C8}
  9
$VERSIONGUID
  2
{ABB1D914-1F71-4676-8C02-A9121B1A329C}
  9
$EXTNAMES
290
     1
  9
$PSVPSCALE
 40
0.0
  9
$OLESTARTUP
290
     0
  0
ENDSEC
  0
SECTION
  2
CLASSES
  0
CLASS
  1
IMAGE
  2
AcDbRasterImage
  3
ISM
 90
    34943
280
     0
281
     1
  0
CLASS
  1
DICTIONARYVAR
  2
AcDbDictionaryVar
  3
ObjectDBX Classes
 90
        0
280
     0
281
     0
  0
CLASS
  1
RASTERVARIABLES
  2
AcDbRasterVariables
  3
ISM
 90
    32768
280
     0
281
     0
  0
CLASS
  1
IMAGEDEF
  2
AcDbRasterImageDef
  3
ISM
 90
    32768
280
     0
281
     0
  0
CLASS
  1
IMAGEDEF_REACTOR
  2
AcDbRasterImageDefReactor
  3
ISM
 90
    32769
280
     0
281
     0
  0
CLASS
  1
IDBUFFER
  2
AcDbIdBuffer
  3
ObjectDBX Classes
 90
    32768
280
     0
281
     0
  0
CLASS
  1
SPATIAL_FILTER
  2
AcDbSpatialFilter
  3
ObjectDBX Classes
 90
    32768
280
     0
281
     0
  0
CLASS
  1
SORTENTSTABLE
  2
AcDbSortentsTable
  3
ObjectDBX Classes
 90
        0
280
     0
281
     0
  0
CLASS
  1
LAYER_INDEX
  2
AcDbLayerIndex
  3
ObjectDBX Classes
 90
    32768
280
     0
281
     0
  0
CLASS
  1
SPATIAL_INDEX
  2
AcDbSpatialIndex
  3
ObjectDBX Classes
 90
    32768
280
     0
281
     0
  0
CLASS
  1
OBJECT_PTR
  2
CAseDLPNTableRecord
  3
ASE-LPNTableRecord
 90
    32769
280
     0
281
     0
  0
CLASS
  1
LAYOUT
  2
AcDbLayout
  3
ObjectDBX Classes
 90
        0
280
     0
281
     0
  0
CLASS
  1
PLOTSETTINGS
  2
AcDbPlotSettings
  3
ObjectDBX Classes
 90
    32768
280
     0
281
     0
  0
CLASS
  1
ACDBDICTIONARYWDFLT
  2
AcDbDictionaryWithDefault
  3
ObjectDBX Classes
 90
        0
280
     0
281
     0
  0
CLASS
  1
ACDBPLACEHOLDER
  2
AcDbPlaceHolder
  3
ObjectDBX Classes
 90
        0
280
     0
281
     0
  0
CLASS
  1
MATERIAL
  2
AcDbMaterial
  3
ObjectDBX Classes
 90
     1024
280
     0
281
     0
  0
CLASS
  1
VISUALSTYLE
  2
AcDbVisualStyle
  3
ObjectDBX Classes
 90
     4095
280
     0
281
     0
  0
CLASS
  1
TABLESTYLE
  2
AcDbTableStyle
  3
ObjectDBX Classes
 90
     4095
280
     0
281
     0
  0
ENDSEC
  0
SECTION
  2
TABLES
  0
TABLE
  2
VPORT
  5
7
330
0
100
AcDbSymbolTable
 70
     1
  0
VPORT
  5
A1F
330
7
100
AcDbSymbolTableRecord
100
AcDbViewportTableRecord
  2
*Active
 70
     0
 10
0.0
 20
0.0
 11
1.0
 21
1.0
 12
1.373730556544505
 22
0.2954258997689694
 13
0.0
 23
0.0
 14
1.0
 24
1.0
 15
0.0
 25
0.0
 16
0.0
 26
0.0
 36
1.0
 17
0.0
 27
0.0
 37
0.0
 40
5.04920486693936
 41
1.587064676616915
 42
50.0
 43
0.0
 44
0.0
 50
0.0
 51
0.0
 71
     0
 72
   100
 73
     1
 74
     1
 75
     0
 76
     0
 77
     0
 78
     0
281
     0
 65
     1
110
0.0
120
0.0
130
0.0
111
1.0
121
0.0
131
0.0
112
0.0
122
1.0
132
0.0
 79
     0
146
0.0
  0
ENDTAB
  0
TABLE
  2
LTYPE
  5
4
330
0
100
AcDbSymbolTable
 70
     2
  0
LTYPE
  5
11
330
4
100
AcDbSymbolTableRecord
100
AcDbLinetypeTableRecord
  2
BYBLOCK
 70
     0
  3

 72
    65
 73
     0
 40
0.0
  0
LTYPE
  5
12
330
4
100
AcDbSymbolTableRecord
100
AcDbLinetypeTableRecord
  2
BYLAYER
 70
     0
  3

 72
    65
 73
     0
 40
0.0
  0
LTYPE
  5
13
330
4
100
AcDbSymbolTableRecord
100
AcDbLinetypeTableRecord
  2
CONTINUOUS
 70
     0
  3
Solid line
 72
    65
 73
     0
 40
0.0
  0
LTYPE
  5
9D3
330
4
100
AcDbSymbolTableRecord
100
AcDbLinetypeTableRecord
  2
PHANTOM
 70
     0
  3
Phantom ______  __  __  ______  __  __  ______
 72
    65
 73
     6
 40
2.5
 49
1.25
 74
     0
 49
-0.25
 74
     0
 49
0.25
 74
     0
 49
-0.25
 74
     0
 49
0.25
 74
     0
 49
-0.25
 74
     0
  0
ENDTAB
  0
TABLE
  2
LAYER
  5
2
102
{ACAD_XDICTIONARY
360
A76
102
}
330
0
100
AcDbSymbolTable
 70
    11
  0
LAYER
  5
14
330
2
100
AcDbSymbolTableRecord
100
AcDbLayerTableRecord
  2
0
 70
     0
 62
     7
  6
CONTINUOUS
370
    -3
390
C5
  0
LAYER
  5
2E
330
2
100
AcDbSymbolTableRecord
100
AcDbLayerTableRecord
  2
R-SWTS-DET1
 70
     0
 62
     1
  6
CONTINUOUS
370
    -3
390
C5
  0
LAYER
  5
2F
330
2
100
AcDbSymbolTableRecord
100
AcDbLayerTableRecord
  2
R-ANNO-DIMS
 70
     0
 62
     3
  6
CONTINUOUS
370
    -3
390
C5
  0
LAYER
  5
32
330
2
100
AcDbSymbolTableRecord
100
AcDbLayerTableRecord
  2
R-ANNO-TEXT
 70
     0
 62
     6
  6
CONTINUOUS
370
    -3
390
C5
  0
LAYER
  5
D8
330
2
100
AcDbSymbolTableRecord
100
AcDbLayerTableRecord
  2
Defpoints
 70
     0
 62
     7
  6
CONTINUOUS
290
     0
370
    -3
390
C5
  0
LAYER
  5
77E
330
2
100
AcDbSymbolTableRecord
100
AcDbLayerTableRecord
  2
R-SWTS-PAT3
 70
     0
 62
     4
  6
CONTINUOUS
370
    -3
390
C5
  0
LAYER
  5
77F
330
2
100
AcDbSymbolTableRecord
100
AcDbLayerTableRecord
  2
R-SWTS-PAT2
 70
     0
 62
     1
  6
CONTINUOUS
370
    -3
390
C5
  0
LAYER
  5
780
330
2
100
AcDbSymbolTableRecord
100
AcDbLayerTableRecord
  2
R-SWTS-PAT1
 70
     0
 62
     5
  6
PHANTOM
370
    -3
390
C5
  0
LAYER
  5
781
330
2
100
AcDbSymbolTableRecord
100
AcDbLayerTableRecord
  2
R-SWTS-DET3
 70
     0
 62
     5
  6
CONTINUOUS
370
    -3
390
C5
  0
LAYER
  5
782
330
2
100
AcDbSymbolTableRecord
100
AcDbLayerTableRecord
  2
R-SWTS-DET2
 70
     0
 62
     4
  6
CONTINUOUS
370
    -3
390
C5
  0
LAYER
  5
783
330
2
100
AcDbSymbolTableRecord
100
AcDbLayerTableRecord
  2
R-SWTS-OTLN
 70
     0
 62
     2
  6
CONTINUOUS
370
    -3
390
C5
  0
ENDTAB
  0
TABLE
  2
STYLE
  5
3
330
0
100
AcDbSymbolTable
 70
     3
  0
STYLE
  5
17
330
3
100
AcDbSymbolTableRecord
100
AcDbTextStyleTableRecord
  2
STANDARD
 70
     0
 40
0.0
 41
1.0
 50
0.0
 71
     0
 42
0.0
  3
txt
  4

  0
STYLE
  5
5C4
330
3
100
AcDbSymbolTableRecord
100
AcDbTextStyleTableRecord
  2
SWTSTEXT
 70
     0
 40
0.125
 41
1.0
 50
0.0
 71
     0
 42
0.1
  3
simplex.shx
  4

  0
ENDTAB
  0
TABLE
  2
VIEW
  5
5
330
0
100
AcDbSymbolTable
 70
     0
  0
ENDTAB
  0
TABLE
  2
UCS
  5
6
330
0
100
AcDbSymbolTable
 70
     0
  0
ENDTAB
  0
TABLE
  2
APPID
  5
8
330
0
100
AcDbSymbolTable
 70
     3
  0
APPID
  5
16
330
8
100
AcDbSymbolTableRecord
100
AcDbRegAppTableRecord
  2
ACAD
 70
     0
  0
APPID
  5
529
330
8
100
AcDbSymbolTableRecord
100
AcDbRegAppTableRecord
  2
DCO15
 70
     0
  0
APPID
  5
A75
330
8
100
AcDbSymbolTableRecord
100
AcDbRegAppTableRecord
  2
ACAD_PSEXT
 70
     0
  0
ENDTAB
  0
TABLE
  2
DIMSTYLE
  5
9
330
0
100
AcDbSymbolTable
 70
     2
100
AcDbDimStyleTable
 71
     1
340
18
  0
DIMSTYLE
105
18
102
{ACAD_REACTORS
330
8FA
330
8E2
330
8CA
330
9DF
102
}
330
9
100
AcDbSymbolTableRecord
100
AcDbDimStyleTableRecord
  2
SCADMECH
 70
     0
 41
0.125
 44
0.125
140
0.125
141
0.04
174
     1
277
     5
289
     1
340
5C4
  0
ENDTAB
  0
TABLE
  2
BLOCK_RECORD
  5
1
330
0
100
AcDbSymbolTable
 70
    11
  0
BLOCK_RECORD
  5
A
330
1
100
AcDbSymbolTableRecord
100
AcDbBlockTableRecord
  2
*MODEL_SPACE
340
C8
  0
BLOCK_RECORD
  5
B
330
1
100
AcDbSymbolTableRecord
100
AcDbBlockTableRecord
  2
*PAPER_SPACE
340
C9
  0
BLOCK_RECORD
  5
69A
330
1
100
AcDbSymbolTableRecord
100
AcDbBlockTableRecord
  2
8x100CountersunkSMS-Phillips
340
0
102
{BLKREFS
331
77C
102
}
1001
ACAD
1000
DesignCenter Data
1002
{
1070
     1
1070
     1
1002
}
  0
BLOCK_RECORD
  5
743
330
1
100
AcDbSymbolTableRecord
100
AcDbBlockTableRecord
  2
P Seal
340
0
  0
BLOCK_RECORD
  5
75B
330
1
100
AcDbSymbolTableRecord
100
AcDbBlockTableRecord
  2
S4
340
0
102
{BLKREFS
331
77A
102
}
1001
ACAD
1000
DesignCenter Data
1002
{
1070
     1
1070
     1
1002
}
  0
BLOCK_RECORD
  5
784
330
1
100
AcDbSymbolTableRecord
100
AcDbBlockTableRecord
  2
Logo
340
0
102
{BLKREFS
331
7C0
102
}
  0
BLOCK_RECORD
  5
8CB
330
1
100
AcDbSymbolTableRecord
100
AcDbBlockTableRecord
  2
*D4
340
0
  0
BLOCK_RECORD
  5
8E3
330
1
100
AcDbSymbolTableRecord
100
AcDbBlockTableRecord
  2
*D5
340
0
  0
BLOCK_RECORD
  5
8FB
330
1
100
AcDbSymbolTableRecord
100
AcDbBlockTableRecord
  2
*D6
340
0
  0
BLOCK_RECORD
  5
9E0
330
1
100
AcDbSymbolTableRecord
100
AcDbBlockTableRecord
  2
*D7
340
0
  0
BLOCK_RECORD
  5
A3C
102
{ACAD_XDICTIONARY
360
A3D
102
}
330
1
100
AcDbSymbolTableRecord
100
AcDbBlockTableRecord
  2
P2
340
0
102
{BLKREFS
331
A79
331
A7D
102
}
  0
ENDTAB
  0
ENDSEC
  0
SECTION
  2
BLOCKS
  0
BLOCK
  5
D
330
A
100
AcDbEntity
  8
0
100
AcDbBlockBegin
  2
*MODEL_SPACE
 70
     0
 10
0.0
 20
0.0
 30
0.0
  3
*MODEL_SPACE
  1

  0
ENDBLK
  5
E
330
A
100
AcDbEntity
  8
0
100
AcDbBlockEnd
  0
BLOCK
  5
F
330
B
100
AcDbEntity
 67
     1
  8
0
100
AcDbBlockBegin
  2
*PAPER_SPACE
 70
     0
 10
0.0
 20
0.0
 30
0.0
  3
*PAPER_SPACE
  1

  0
ENDBLK
  5
10
330
B
100
AcDbEntity
 67
     1
  8
0
100
AcDbBlockEnd
  0
BLOCK
  5
741
330
69A
100
AcDbEntity
  8
0
100
AcDbBlockBegin
  2
8x100CountersunkSMS-Phillips
 70
     0
 10
0.0
 20
0.0
 30
0.0
  3
8x100CountersunkSMS-Phillips
  1

  0
LINE
  5
69B
330
69A
100
AcDbEntity
  8
0
100
AcDbLine
 10
0.0999999999999997
 20
-0.1660000000000004
 30
0.0
 11
0.0999999999999988
 21
0.1659999999999995
 31
0.0
  0
LINE
  5
69C
330
69A
100
AcDbEntity
  8
0
100
AcDbLine
 10
0.0
 20
0.0819999999999999
 30
0.0
 11
0.0999999999999997
 21
0.1660000000000004
 31
0.0
  0
LINE
  5
69D
330
69A
100
AcDbEntity
  8
0
100
AcDbLine
 10
-0.5267777777777729
 20
0.081999999999999
 30
0.0
 11
-0.5146534221247903
 21
0.0609999999999991
 31
0.0
  0
LINE
  5
69E
330
69A
100
AcDbEntity
  8
0
100
AcDbLine
 10
-0.51212435565298
 20
-0.061
 30
0.0
 11
-0.5424311999025689
 21
-0.061
 31
0.0
  0
LINE
  5
69F
330
69A
100
AcDbEntity
  8
0
100
AcDbLine
 10
-0.51212435565298
 20
-0.061
 30
0.0
 11
-0.5399021334307568
 21
0.0609999999999991
 31
0.0
  0
LINE
  5
6A0
330
69A
100
AcDbEntity
  8
0
100
AcDbLine
 10
-0.4989999999999962
 20
-0.0820000000000008
 30
0.0
 11
-0.5267777777777729
 21
0.081999999999999
 31
0.0
  0
LINE
  5
6A1
330
69A
100
AcDbEntity
  8
0
100
AcDbLine
 10
-0.5277777777777742
 20
0.081999999999999
 30
0.0
 11
-0.4999999999999974
 21
-0.0820000000000008
 31
0.0
  0
LINE
  5
6A2
330
69A
100
AcDbEntity
  8
0
100
AcDbLine
 10
-0.7499999999999956
 20
0.081999999999999
 30
0.0
 11
-0.7625410573382121
 21
0.0602782515095743
 31
0.0
  0
LINE
  5
6A3
330
69A
100
AcDbEntity
  8
0
100
AcDbLine
 10
-0.7343465778752015
 20
-0.0609999999999991
 30
0.0
 11
-0.7695795503926455
 21
-0.0609999999999991
 31
0.0
  0
LINE
  5
6A4
330
69A
100
AcDbEntity
  8
0
100
AcDbLine
 10
-0.7343465778752015
 20
-0.061
 30
0.0
 11
-0.7625410573382121
 21
0.0602782515095743
 31
0.0
  0
LINE
  5
6A5
330
69A
100
AcDbEntity
  8
0
100
AcDbLine
 10
-0.7813414464683098
 20
-0.0756547425283678
 30
0.0
 11
-0.7989186300384486
 21
-0.0452101675309233
 31
0.0
  0
LINE
  5
6A6
330
69A
100
AcDbEntity
  8
0
100
AcDbLine
 10
-0.7803414464683085
 20
-0.0756547425283687
 30
0.0
 11
-0.8039891357617827
 21
0.0639612150602975
 31
0.0
  0
LINE
  5
6A7
330
69A
100
AcDbEntity
  8
0
100
AcDbLine
 10
-0.8049891357617822
 20
0.0639612150602975
 30
0.0
 11
-0.7813414464683115
 21
-0.0756547425283563
 31
0.0
  0
LINE
  5
6A8
330
69A
100
AcDbEntity
  8
0
100
AcDbLine
 10
-0.7714364550295008
 20
-0.0602308449153837
 30
0.0
 11
-0.7941601356402517
 21
0.047181200447131
 31
0.0
  0
LINE
  5
6A9
330
69A
100
AcDbEntity
  8
0
100
AcDbLine
 10
-0.7803414464683103
 20
-0.0756547425283687
 30
0.0
 11
-0.781341446468308
 21
-0.0756547425283687
 31
0.0
  0
LINE
  5
6AA
330
69A
100
AcDbEntity
  8
0
100
AcDbLine
 10
-0.7803414464683085
 20
-0.0756547425283678
 30
0.0
 11
-0.7714364550295008
 21
-0.0602308449153837
 31
0.0
  0
LINE
  5
6AB
330
69A
100
AcDbEntity
  8
0
100
AcDbLine
 10
-0.7714364550295008
 20
-0.0602308449153801
 30
0.0
 11
-0.7695795503926464
 21
-0.0609999999999991
 31
0.0
  0
LINE
  5
6AC
330
69A
100
AcDbEntity
  8
0
100
AcDbLine
 10
-0.8969134171618264
 20
-0.0046193976625579
 30
0.0
 11
-0.8604647850855835
 21
-0.0197169153984849
 31
0.0
  0
LINE
  5
6AD
330
69A
100
AcDbEntity
  8
0
100
AcDbLine
 10
-0.8969134171618273
 20
0.0046193976625553
 30
0.0
 11
-0.8209404381112568
 21
0.0360884359591891
 31
0.0
  0
ARC
  5
6AE
330
69A
100
AcDbEntity
  8
0
100
AcDbCircle
 10
-0.8950000000000013
 20
-0.0000000000000027
 30
0.0
 40
0.005
100
AcDbArc
 50
112.4999999999902
 51
247.4999999999981
  0
LINE
  5
6AF
330
69A
100
AcDbEntity
  8
0
100
AcDbLine
 10
-0.8038480815941682
 20
0.0639612150602975
 30
0.0
 11
-0.8048480815941694
 21
0.0639612150602975
 31
0.0
  0
LINE
  5
6B0
330
69A
100
AcDbEntity
  8
0
100
AcDbLine
 10
-0.8038480815941682
 20
0.0639612150602975
 30
0.0
 11
-0.7941601356402508
 21
0.0471812004471346
 31
0.0
  0
LINE
  5
6B1
330
69A
100
AcDbEntity
  8
0
100
AcDbLine
 10
-0.8048480815941694
 20
0.0639612150602975
 30
0.0
 11
-0.8209404381112577
 21
0.03608843595919
 31
0.0
  0
LINE
  5
6B2
330
69A
100
AcDbEntity
  8
0
100
AcDbLine
 10
-0.7941601356402508
 20
0.0471812004471346
 30
0.0
 11
-0.7625410573382121
 21
0.0602782515095743
 31
0.0
  0
LINE
  5
6B3
330
69A
100
AcDbEntity
  8
0
100
AcDbLine
 10
-0.845036397606794
 20
-0.0447076155830377
 30
0.0
 11
-0.8460363976067917
 21
-0.0447076155830377
 31
0.0
  0
LINE
  5
6B4
330
69A
100
AcDbEntity
  8
0
100
AcDbLine
 10
-0.8450363976067913
 20
-0.0447076155830377
 30
0.0
 11
-0.8363701526158315
 21
-0.0296972389478505
 31
0.0
  0
LINE
  5
6B5
330
69A
100
AcDbEntity
  8
0
100
AcDbLine
 10
-0.8460363976067952
 20
-0.0447076155830377
 30
0.0
 11
-0.8604647850855844
 21
-0.0197169153984831
 31
0.0
  0
LINE
  5
6B6
330
69A
100
AcDbEntity
  8
0
100
AcDbLine
 10
-0.8450363976067949
 20
-0.0447076155830377
 30
0.0
 11
-0.8541185454170854
 21
0.0089133850889152
 31
0.0
  0
LINE
  5
6B7
330
69A
100
AcDbEntity
  8
0
100
AcDbLine
 10
-0.8551699374630459
 20
0.0092168037282638
 30
0.0
 11
-0.8460363976067934
 21
-0.0447076155830377
 31
0.0
  0
LINE
  5
6B8
330
69A
100
AcDbEntity
  8
0
100
AcDbLine
 10
-0.8363701526158315
 20
-0.0296972389478505
 30
0.0
 11
-0.7989186300384486
 21
-0.0452101675309233
 31
0.0
  0
LINE
  5
6B9
330
69A
100
AcDbEntity
  8
0
100
AcDbLine
 10
-0.8549102727044024
 20
0.0106357429932427
 30
0.0
 11
-0.8604647850855844
 21
-0.0197169153984831
 31
0.0
  0
LINE
  5
6BA
330
69A
100
AcDbEntity
  8
0
100
AcDbLine
 10
-0.8549102727044024
 20
0.0106357429932427
 30
0.0
 11
-0.8363701526158315
 21
-0.0296972389478505
 31
0.0
  0
LINE
  5
6BB
330
69A
100
AcDbEntity
  8
0
100
AcDbLine
 10
-0.8209404381112586
 20
0.0360884359591882
 30
0.0
 11
-0.7989186300384486
 21
-0.0452101675309233
 31
0.0
  0
LINE
  5
6BC
330
69A
100
AcDbEntity
  8
0
100
AcDbLine
 10
-0.7212222222222176
 20
-0.0820000000000008
 30
0.0
 11
-0.7489999999999944
 21
0.081999999999999
 31
0.0
  0
LINE
  5
6BD
330
69A
100
AcDbEntity
  8
0
100
AcDbLine
 10
-0.7499999999999956
 20
0.081999999999999
 30
0.0
 11
-0.7222222222222188
 21
-0.0820000000000008
 31
0.0
  0
LINE
  5
6BE
330
69A
100
AcDbEntity
  8
0
100
AcDbLine
 10
-0.7368756443470117
 20
0.0609999999999991
 30
0.0
 11
-0.7090978665692349
 21
-0.0609999999999991
 31
0.0
  0
LINE
  5
6BF
330
69A
100
AcDbEntity
  8
0
100
AcDbLine
 10
-0.5702089776803439
 20
0.0609999999999991
 30
0.0
 11
-0.5424311999025671
 21
-0.0609999999999991
 31
0.0
  0
LINE
  5
6C0
330
69A
100
AcDbEntity
  8
0
100
AcDbLine
 10
-0.5676799112085336
 20
-0.061
 30
0.0
 11
-0.5954576889863104
 21
0.0609999999999991
 31
0.0
  0
LINE
  5
6C1
330
69A
100
AcDbEntity
  8
0
100
AcDbLine
 10
-0.5545555555555497
 20
-0.0820000000000008
 30
0.0
 11
-0.5823333333333265
 21
0.081999999999999
 31
0.0
  0
LINE
  5
6C2
330
69A
100
AcDbEntity
  8
0
100
AcDbLine
 10
-0.5833333333333277
 20
0.081999999999999
 30
0.0
 11
-0.555555555555551
 21
-0.0820000000000008
 31
0.0
  0
LINE
  5
6C3
330
69A
100
AcDbEntity
  8
0
100
AcDbLine
 10
-0.6944444444444402
 20
0.081999999999999
 30
0.0
 11
-0.6666666666666634
 21
-0.0820000000000008
 31
0.0
  0
LINE
  5
6C4
330
69A
100
AcDbEntity
  8
0
100
AcDbLine
 10
-0.6656666666666622
 20
-0.0820000000000008
 30
0.0
 11
-0.693444444444439
 21
0.081999999999999
 31
0.0
  0
LINE
  5
6C5
330
69A
100
AcDbEntity
  8
0
100
AcDbLine
 10
-0.6787910223196461
 20
-0.061
 30
0.0
 11
-0.7065688000974229
 21
0.0609999999999991
 31
0.0
  0
LINE
  5
6C6
330
69A
100
AcDbEntity
  8
0
100
AcDbLine
 10
-0.6813200887914564
 20
0.0609999999999991
 30
0.0
 11
-0.6535423110136796
 21
-0.0609999999999991
 31
0.0
  0
LINE
  5
6C7
330
69A
100
AcDbEntity
  8
0
100
AcDbLine
 10
-0.6232354667640907
 20
-0.061
 30
0.0
 11
-0.6510132445418675
 21
0.0609999999999991
 31
0.0
  0
LINE
  5
6C8
330
69A
100
AcDbEntity
  8
0
100
AcDbLine
 10
-0.6101111111111069
 20
-0.0820000000000008
 30
0.0
 11
-0.6378888888888837
 21
0.081999999999999
 31
0.0
  0
LINE
  5
6C9
330
69A
100
AcDbEntity
  8
0
100
AcDbLine
 10
-0.6388888888888849
 20
0.081999999999999
 30
0.0
 11
-0.6111111111111081
 21
-0.0820000000000008
 31
0.0
  0
LINE
  5
6CA
330
69A
100
AcDbEntity
  8
0
100
AcDbLine
 10
-0.625764533235901
 20
0.0609999999999991
 30
0.0
 11
-0.5979867554581242
 21
-0.0609999999999991
 31
0.0
  0
LINE
  5
6CB
330
69A
100
AcDbEntity
  8
0
100
AcDbLine
 10
-0.623235466764089
 20
-0.061
 30
0.0
 11
-0.6535423110136814
 21
-0.061
 31
0.0
  0
LINE
  5
6CC
330
69A
100
AcDbEntity
  8
0
100
AcDbLine
 10
-0.6656666666666622
 20
-0.0820000000000008
 30
0.0
 11
-0.6535423110136796
 21
-0.0609999999999991
 31
0.0
  0
LINE
  5
6CD
330
69A
100
AcDbEntity
  8
0
100
AcDbLine
 10
-0.665666666666664
 20
-0.0820000000000016
 30
0.0
 11
-0.6666666666666617
 21
-0.0820000000000016
 31
0.0
  0
LINE
  5
6CE
330
69A
100
AcDbEntity
  8
0
100
AcDbLine
 10
-0.6787910223196461
 20
-0.061
 30
0.0
 11
-0.7090978665692367
 21
-0.0610000000000008
 31
0.0
  0
LINE
  5
6CF
330
69A
100
AcDbEntity
  8
0
100
AcDbLine
 10
-0.7222222222222188
 20
-0.0820000000000008
 30
0.0
 11
-0.7343465778752015
 21
-0.061
 31
0.0
  0
LINE
  5
6D0
330
69A
100
AcDbEntity
  8
0
100
AcDbLine
 10
-0.7212222222222194
 20
-0.0820000000000016
 30
0.0
 11
-0.722222222222217
 21
-0.0820000000000016
 31
0.0
  0
LINE
  5
6D1
330
69A
100
AcDbEntity
  8
0
100
AcDbLine
 10
-0.7212222222222176
 20
-0.0820000000000008
 30
0.0
 11
-0.7090978665692349
 21
-0.0609999999999991
 31
0.0
  0
LINE
  5
6D2
330
69A
100
AcDbEntity
  8
0
100
AcDbLine
 10
-0.6666666666666634
 20
-0.0820000000000008
 30
0.0
 11
-0.6787910223196461
 21
-0.061
 31
0.0
  0
LINE
  5
6D3
330
69A
100
AcDbEntity
  8
0
100
AcDbLine
 10
-0.5545555555555497
 20
-0.0820000000000008
 30
0.0
 11
-0.5424311999025671
 21
-0.0609999999999991
 31
0.0
  0
LINE
  5
6D4
330
69A
100
AcDbEntity
  8
0
100
AcDbLine
 10
-0.555555555555551
 20
-0.0820000000000008
 30
0.0
 11
-0.5676799112085336
 21
-0.061
 31
0.0
  0
LINE
  5
6D5
330
69A
100
AcDbEntity
  8
0
100
AcDbLine
 10
-0.5676799112085336
 20
-0.0609999999999991
 30
0.0
 11
-0.5979867554581242
 21
-0.061
 31
0.0
  0
LINE
  5
6D6
330
69A
100
AcDbEntity
  8
0
100
AcDbLine
 10
-0.6111111111111081
 20
-0.0820000000000008
 30
0.0
 11
-0.6232354667640907
 21
-0.061
 31
0.0
  0
LINE
  5
6D7
330
69A
100
AcDbEntity
  8
0
100
AcDbLine
 10
-0.6101111111111069
 20
-0.0820000000000008
 30
0.0
 11
-0.6111111111111063
 21
-0.0820000000000008
 31
0.0
  0
LINE
  5
6D8
330
69A
100
AcDbEntity
  8
0
100
AcDbLine
 10
-0.6101111111111069
 20
-0.0820000000000008
 30
0.0
 11
-0.5979867554581242
 21
-0.0609999999999991
 31
0.0
  0
LINE
  5
6D9
330
69A
100
AcDbEntity
  8
0
100
AcDbLine
 10
-0.5545555555555497
 20
-0.0820000000000008
 30
0.0
 11
-0.555555555555551
 21
-0.0820000000000008
 31
0.0
  0
LINE
  5
6DA
330
69A
100
AcDbEntity
  8
0
100
AcDbLine
 10
-0.6378888888888837
 20
0.081999999999999
 30
0.0
 11
-0.625764533235901
 21
0.0609999999999991
 31
0.0
  0
LINE
  5
6DB
330
69A
100
AcDbEntity
  8
0
100
AcDbLine
 10
-0.6388888888888849
 20
0.081999999999999
 30
0.0
 11
-0.6510132445418675
 21
0.0609999999999991
 31
0.0
  0
LINE
  5
6DC
330
69A
100
AcDbEntity
  8
0
100
AcDbLine
 10
-0.6378888888888819
 20
0.081999999999999
 30
0.0
 11
-0.6388888888888849
 21
0.081999999999999
 31
0.0
  0
LINE
  5
6DD
330
69A
100
AcDbEntity
  8
0
100
AcDbLine
 10
-0.7489999999999944
 20
0.081999999999999
 30
0.0
 11
-0.7499999999999956
 21
0.081999999999999
 31
0.0
  0
LINE
  5
6DE
330
69A
100
AcDbEntity
  8
0
100
AcDbLine
 10
-0.7489999999999944
 20
0.081999999999999
 30
0.0
 11
-0.7368756443470117
 21
0.0609999999999991
 31
0.0
  0
LINE
  5
6DF
330
69A
100
AcDbEntity
  8
0
100
AcDbLine
 10
-0.693444444444439
 20
0.081999999999999
 30
0.0
 11
-0.6813200887914564
 21
0.0609999999999991
 31
0.0
  0
LINE
  5
6E0
330
69A
100
AcDbEntity
  8
0
100
AcDbLine
 10
-0.6944444444444402
 20
0.081999999999999
 30
0.0
 11
-0.7065688000974229
 21
0.0609999999999991
 31
0.0
  0
LINE
  5
6E1
330
69A
100
AcDbEntity
  8
0
100
AcDbLine
 10
-0.6934444444444408
 20
0.081999999999999
 30
0.0
 11
-0.694444444444442
 21
0.081999999999999
 31
0.0
  0
LINE
  5
6E2
330
69A
100
AcDbEntity
  8
0
100
AcDbLine
 10
-0.7065688000974229
 20
0.0609999999999982
 30
0.0
 11
-0.7368756443470117
 21
0.0609999999999991
 31
0.0
  0
LINE
  5
6E3
330
69A
100
AcDbEntity
  8
0
100
AcDbLine
 10
-0.6510132445418657
 20
0.0609999999999982
 30
0.0
 11
-0.6813200887914528
 21
0.0609999999999982
 31
0.0
  0
LINE
  5
6E4
330
69A
100
AcDbEntity
  8
0
100
AcDbLine
 10
-0.5277777777777742
 20
0.081999999999999
 30
0.0
 11
-0.5399021334307568
 21
0.0609999999999991
 31
0.0
  0
LINE
  5
6E5
330
69A
100
AcDbEntity
  8
0
100
AcDbLine
 10
-0.5267777777777747
 20
0.0820000000000008
 30
0.0
 11
-0.5277777777777724
 21
0.0819999999999999
 31
0.0
  0
LINE
  5
6E6
330
69A
100
AcDbEntity
  8
0
100
AcDbLine
 10
-0.5823333333333265
 20
0.081999999999999
 30
0.0
 11
-0.5702089776803439
 21
0.0609999999999991
 31
0.0
  0
LINE
  5
6E7
330
69A
100
AcDbEntity
  8
0
100
AcDbLine
 10
-0.5833333333333277
 20
0.081999999999999
 30
0.0
 11
-0.5954576889863104
 21
0.0609999999999991
 31
0.0
  0
LINE
  5
6E8
330
69A
100
AcDbEntity
  8
0
100
AcDbLine
 10
-0.5823333333333247
 20
0.0819999999999999
 30
0.0
 11
-0.5833333333333277
 21
0.081999999999999
 31
0.0
  0
LINE
  5
6E9
330
69A
100
AcDbEntity
  8
0
100
AcDbLine
 10
-0.5954576889863104
 20
0.0609999999999982
 30
0.0
 11
-0.6257645332358992
 21
0.0609999999999982
 31
0.0
  0
LINE
  5
6EA
330
69A
100
AcDbEntity
  8
0
100
AcDbLine
 10
-0.5399021334307568
 20
0.0609999999999982
 30
0.0
 11
-0.5702089776803403
 21
0.0609999999999982
 31
0.0
  0
LINE
  5
6EB
330
69A
100
AcDbEntity
  8
0
100
AcDbLine
 10
0.0
 20
-0.0819999999999999
 30
0.0
 11
-0.1111111111111107
 21
-0.0819999999999999
 31
0.0
  0
LINE
  5
6EC
330
69A
100
AcDbEntity
  8
0
100
AcDbLine
 10
0.0
 20
0.0819999999999999
 30
0.0
 11
-0.1388888888888848
 21
0.0820000000000008
 31
0.0
  0
LINE
  5
6ED
330
69A
100
AcDbEntity
  8
0
100
AcDbLine
 10
-0.26212435565298
 20
0.0609999999999982
 30
0.0
 11
-0.2924311999025653
 21
0.0609999999999982
 31
0.0
  0
LINE
  5
6EE
330
69A
100
AcDbEntity
  8
0
100
AcDbLine
 10
-0.2777777777777759
 20
-0.0820000000000008
 30
0.0
 11
-0.2899021334307585
 21
-0.061
 31
0.0
  0
LINE
  5
6EF
330
69A
100
AcDbEntity
  8
0
100
AcDbLine
 10
-0.2924311999025688
 20
0.0609999999999991
 30
0.0
 11
-0.264653422124792
 21
-0.0609999999999991
 31
0.0
  0
LINE
  5
6F0
330
69A
100
AcDbEntity
  8
0
100
AcDbLine
 10
-0.2767777777777747
 20
-0.0820000000000008
 30
0.0
 11
-0.3045555555555515
 21
0.081999999999999
 31
0.0
  0
LINE
  5
6F1
330
69A
100
AcDbEntity
  8
0
100
AcDbLine
 10
-0.3055555555555527
 20
0.081999999999999
 30
0.0
 11
-0.2777777777777759
 21
-0.0820000000000008
 31
0.0
  0
LINE
  5
6F2
330
69A
100
AcDbEntity
  8
0
100
AcDbLine
 10
-0.3479867554581224
 20
0.0609999999999991
 30
0.0
 11
-0.3202089776803456
 21
-0.0609999999999991
 31
0.0
  0
LINE
  5
6F3
330
69A
100
AcDbEntity
  8
0
100
AcDbLine
 10
-0.3323333333333283
 20
-0.0820000000000008
 30
0.0
 11
-0.360111111111105
 21
0.081999999999999
 31
0.0
  0
LINE
  5
6F4
330
69A
100
AcDbEntity
  8
0
100
AcDbLine
 10
-0.3611111111111063
 20
0.081999999999999
 30
0.0
 11
-0.3333333333333295
 21
-0.0820000000000008
 31
0.0
  0
LINE
  5
6F5
330
69A
100
AcDbEntity
  8
0
100
AcDbLine
 10
-0.2899021334307585
 20
-0.061
 30
0.0
 11
-0.3176799112085353
 21
0.0609999999999991
 31
0.0
  0
LINE
  5
6F6
330
69A
100
AcDbEntity
  8
0
100
AcDbLine
 10
-0.4035423110136796
 20
0.0609999999999991
 30
0.0
 11
-0.3757645332359027
 21
-0.0609999999999991
 31
0.0
  0
LINE
  5
6F7
330
69A
100
AcDbEntity
  8
0
100
AcDbLine
 10
-0.4010132445418693
 20
-0.061
 30
0.0
 11
-0.4287910223196461
 21
0.0609999999999991
 31
0.0
  0
LINE
  5
6F8
330
69A
100
AcDbEntity
  8
0
100
AcDbLine
 10
-0.3878888888888854
 20
-0.0820000000000008
 30
0.0
 11
-0.4156666666666622
 21
0.081999999999999
 31
0.0
  0
LINE
  5
6F9
330
69A
100
AcDbEntity
  8
0
100
AcDbLine
 10
-0.4166666666666634
 20
0.081999999999999
 30
0.0
 11
-0.3888888888888866
 21
-0.0820000000000008
 31
0.0
  0
LINE
  5
6FA
330
69A
100
AcDbEntity
  8
0
100
AcDbLine
 10
-0.3454576889863121
 20
-0.061
 30
0.0
 11
-0.3732354667640889
 21
0.0609999999999991
 31
0.0
  0
LINE
  5
6FB
330
69A
100
AcDbEntity
  8
0
100
AcDbLine
 10
-0.443444444444439
 20
-0.0820000000000008
 30
0.0
 11
-0.4712222222222158
 21
0.081999999999999
 31
0.0
  0
LINE
  5
6FC
330
69A
100
AcDbEntity
  8
0
100
AcDbLine
 10
-0.472222222222217
 20
0.081999999999999
 30
0.0
 11
-0.4444444444444402
 21
-0.0820000000000008
 31
0.0
  0
LINE
  5
6FD
330
69A
100
AcDbEntity
  8
0
100
AcDbLine
 10
-0.4565688000974229
 20
-0.061
 30
0.0
 11
-0.4843465778751997
 21
0.0609999999999991
 31
0.0
  0
LINE
  5
6FE
330
69A
100
AcDbEntity
  8
0
100
AcDbLine
 10
-0.5146534221247903
 20
0.0609999999999991
 30
0.0
 11
-0.4868756443470135
 21
-0.0609999999999991
 31
0.0
  0
LINE
  5
6FF
330
69A
100
AcDbEntity
  8
0
100
AcDbLine
 10
-0.4590978665692332
 20
0.0609999999999991
 30
0.0
 11
-0.4313200887914564
 21
-0.0609999999999991
 31
0.0
  0
LINE
  5
700
330
69A
100
AcDbEntity
  8
0
100
AcDbLine
 10
-0.3888888888888866
 20
-0.0820000000000008
 30
0.0
 11
-0.4010132445418693
 21
-0.061
 31
0.0
  0
LINE
  5
701
330
69A
100
AcDbEntity
  8
0
100
AcDbLine
 10
-0.4010132445418693
 20
-0.0610000000000008
 30
0.0
 11
-0.4313200887914564
 21
-0.061
 31
0.0
  0
LINE
  5
702
330
69A
100
AcDbEntity
  8
0
100
AcDbLine
 10
-0.4444444444444402
 20
-0.0820000000000008
 30
0.0
 11
-0.4565688000974229
 21
-0.061
 31
0.0
  0
LINE
  5
703
330
69A
100
AcDbEntity
  8
0
100
AcDbLine
 10
-0.4999999999999974
 20
-0.0820000000000008
 30
0.0
 11
-0.51212435565298
 21
-0.061
 31
0.0
  0
LINE
  5
704
330
69A
100
AcDbEntity
  8
0
100
AcDbLine
 10
-0.4989999999999962
 20
-0.0820000000000008
 30
0.0
 11
-0.4868756443470135
 21
-0.0609999999999991
 31
0.0
  0
LINE
  5
705
330
69A
100
AcDbEntity
  8
0
100
AcDbLine
 10
-0.4989999999999944
 20
-0.0820000000000008
 30
0.0
 11
-0.4999999999999974
 21
-0.0820000000000008
 31
0.0
  0
LINE
  5
706
330
69A
100
AcDbEntity
  8
0
100
AcDbLine
 10
-0.4565688000974229
 20
-0.061
 30
0.0
 11
-0.4868756443470153
 21
-0.061
 31
0.0
  0
LINE
  5
707
330
69A
100
AcDbEntity
  8
0
100
AcDbLine
 10
-0.4434444444444408
 20
-0.0820000000000008
 30
0.0
 11
-0.4444444444444402
 21
-0.0820000000000008
 31
0.0
  0
LINE
  5
708
330
69A
100
AcDbEntity
  8
0
100
AcDbLine
 10
-0.443444444444439
 20
-0.0820000000000008
 30
0.0
 11
-0.4313200887914564
 21
-0.0609999999999991
 31
0.0
  0
LINE
  5
709
330
69A
100
AcDbEntity
  8
0
100
AcDbLine
 10
-0.2899021334307585
 20
-0.061
 30
0.0
 11
-0.3202089776803474
 21
-0.061
 31
0.0
  0
LINE
  5
70A
330
69A
100
AcDbEntity
  8
0
100
AcDbLine
 10
-0.3323333333333283
 20
-0.0820000000000008
 30
0.0
 11
-0.3333333333333295
 21
-0.0820000000000008
 31
0.0
  0
LINE
  5
70B
330
69A
100
AcDbEntity
  8
0
100
AcDbLine
 10
-0.3333333333333295
 20
-0.0820000000000008
 30
0.0
 11
-0.3454576889863121
 21
-0.061
 31
0.0
  0
LINE
  5
70C
330
69A
100
AcDbEntity
  8
0
100
AcDbLine
 10
-0.3878888888888854
 20
-0.0820000000000008
 30
0.0
 11
-0.3757645332359027
 21
-0.0609999999999991
 31
0.0
  0
LINE
  5
70D
330
69A
100
AcDbEntity
  8
0
100
AcDbLine
 10
-0.3878888888888854
 20
-0.0820000000000008
 30
0.0
 11
-0.3888888888888884
 21
-0.0820000000000008
 31
0.0
  0
LINE
  5
70E
330
69A
100
AcDbEntity
  8
0
100
AcDbLine
 10
-0.3454576889863086
 20
-0.061
 30
0.0
 11
-0.3757645332359027
 21
-0.0610000000000008
 31
0.0
  0
LINE
  5
70F
330
69A
100
AcDbEntity
  8
0
100
AcDbLine
 10
-0.3323333333333283
 20
-0.0820000000000008
 30
0.0
 11
-0.3202089776803456
 21
-0.0609999999999991
 31
0.0
  0
LINE
  5
710
330
69A
100
AcDbEntity
  8
0
100
AcDbLine
 10
-0.3732354667640871
 20
0.0609999999999982
 30
0.0
 11
-0.403542311013676
 21
0.0609999999999982
 31
0.0
  0
LINE
  5
711
330
69A
100
AcDbEntity
  8
0
100
AcDbLine
 10
-0.4156666666666622
 20
0.081999999999999
 30
0.0
 11
-0.4035423110136796
 21
0.0609999999999991
 31
0.0
  0
LINE
  5
712
330
69A
100
AcDbEntity
  8
0
100
AcDbLine
 10
-0.4166666666666634
 20
0.081999999999999
 30
0.0
 11
-0.4287910223196461
 21
0.0609999999999991
 31
0.0
  0
LINE
  5
713
330
69A
100
AcDbEntity
  8
0
100
AcDbLine
 10
-0.4156666666666622
 20
0.0819999999999999
 30
0.0
 11
-0.4166666666666634
 21
0.0819999999999999
 31
0.0
  0
LINE
  5
714
330
69A
100
AcDbEntity
  8
0
100
AcDbLine
 10
-0.4712222222222158
 20
0.081999999999999
 30
0.0
 11
-0.4590978665692332
 21
0.0609999999999991
 31
0.0
  0
LINE
  5
715
330
69A
100
AcDbEntity
  8
0
100
AcDbLine
 10
-0.4712222222222158
 20
0.0819999999999999
 30
0.0
 11
-0.4722222222222153
 21
0.0819999999999999
 31
0.0
  0
LINE
  5
716
330
69A
100
AcDbEntity
  8
0
100
AcDbLine
 10
-0.472222222222217
 20
0.081999999999999
 30
0.0
 11
-0.4843465778751997
 21
0.0609999999999991
 31
0.0
  0
LINE
  5
717
330
69A
100
AcDbEntity
  8
0
100
AcDbLine
 10
-0.4843465778751979
 20
0.0609999999999982
 30
0.0
 11
-0.5146534221247867
 21
0.0609999999999982
 31
0.0
  0
LINE
  5
718
330
69A
100
AcDbEntity
  8
0
100
AcDbLine
 10
-0.4287910223196443
 20
0.0609999999999991
 30
0.0
 11
-0.4590978665692296
 21
0.0609999999999982
 31
0.0
  0
LINE
  5
719
330
69A
100
AcDbEntity
  8
0
100
AcDbLine
 10
-0.3045555555555515
 20
0.081999999999999
 30
0.0
 11
-0.2924311999025688
 21
0.0609999999999991
 31
0.0
  0
LINE
  5
71A
330
69A
100
AcDbEntity
  8
0
100
AcDbLine
 10
-0.3055555555555527
 20
0.081999999999999
 30
0.0
 11
-0.3176799112085353
 21
0.0609999999999991
 31
0.0
  0
LINE
  5
71B
330
69A
100
AcDbEntity
  8
0
100
AcDbLine
 10
-0.3045555555555515
 20
0.0819999999999999
 30
0.0
 11
-0.3055555555555509
 21
0.0819999999999999
 31
0.0
  0
LINE
  5
71C
330
69A
100
AcDbEntity
  8
0
100
AcDbLine
 10
-0.360111111111105
 20
0.081999999999999
 30
0.0
 11
-0.3479867554581224
 21
0.0609999999999991
 31
0.0
  0
LINE
  5
71D
330
69A
100
AcDbEntity
  8
0
100
AcDbLine
 10
-0.3601111111111068
 20
0.0819999999999999
 30
0.0
 11
-0.3611111111111063
 21
0.0819999999999999
 31
0.0
  0
LINE
  5
71E
330
69A
100
AcDbEntity
  8
0
100
AcDbLine
 10
-0.3611111111111063
 20
0.081999999999999
 30
0.0
 11
-0.3732354667640889
 21
0.0609999999999991
 31
0.0
  0
LINE
  5
71F
330
69A
100
AcDbEntity
  8
0
100
AcDbLine
 10
-0.3176799112085336
 20
0.0609999999999973
 30
0.0
 11
-0.3479867554581189
 21
0.0609999999999982
 31
0.0
  0
LINE
  5
720
330
69A
100
AcDbEntity
  8
0
100
AcDbLine
 10
-0.1232354667640925
 20
-0.061
 30
0.0
 11
-0.1510132445418693
 21
0.0609999999999991
 31
0.0
  0
LINE
  5
721
330
69A
100
AcDbEntity
  8
0
100
AcDbLine
 10
-0.1388888888888866
 20
0.081999999999999
 30
0.0
 11
-0.1111111111111098
 21
-0.0820000000000008
 31
0.0
  0
LINE
  5
722
330
69A
100
AcDbEntity
  8
0
100
AcDbLine
 10
-0.2368756443470135
 20
0.0609999999999991
 30
0.0
 11
-0.2090978665692367
 21
-0.0609999999999991
 31
0.0
  0
LINE
  5
723
330
69A
100
AcDbEntity
  8
0
100
AcDbLine
 10
-0.2343465778752032
 20
-0.061
 30
0.0
 11
-0.26212435565298
 21
0.0609999999999991
 31
0.0
  0
LINE
  5
724
330
69A
100
AcDbEntity
  8
0
100
AcDbLine
 10
-0.2212222222222193
 20
-0.0820000000000008
 30
0.0
 11
-0.2489999999999961
 21
0.081999999999999
 31
0.0
  0
LINE
  5
725
330
69A
100
AcDbEntity
  8
0
100
AcDbLine
 10
-0.2499999999999973
 20
0.081999999999999
 30
0.0
 11
-0.2222222222222205
 21
-0.0820000000000008
 31
0.0
  0
LINE
  5
726
330
69A
100
AcDbEntity
  8
0
100
AcDbLine
 10
-0.1813200887914581
 20
0.0609999999999991
 30
0.0
 11
-0.1535423110136813
 21
-0.0609999999999991
 31
0.0
  0
LINE
  5
727
330
69A
100
AcDbEntity
  8
0
100
AcDbLine
 10
-0.1787910223196478
 20
-0.061
 30
0.0
 11
-0.2065688000974246
 21
0.0609999999999991
 31
0.0
  0
LINE
  5
728
330
69A
100
AcDbEntity
  8
0
100
AcDbLine
 10
-0.165666666666664
 20
-0.0820000000000008
 30
0.0
 11
-0.1934444444444407
 21
0.081999999999999
 31
0.0
  0
LINE
  5
729
330
69A
100
AcDbEntity
  8
0
100
AcDbLine
 10
-0.194444444444442
 20
0.081999999999999
 30
0.0
 11
-0.1666666666666652
 21
-0.0820000000000008
 31
0.0
  0
LINE
  5
72A
330
69A
100
AcDbEntity
  8
0
100
AcDbLine
 10
-0.165666666666664
 20
-0.0820000000000008
 30
0.0
 11
-0.1535423110136813
 21
-0.0609999999999991
 31
0.0
  0
LINE
  5
72B
330
69A
100
AcDbEntity
  8
0
100
AcDbLine
 10
-0.1666666666666652
 20
-0.0820000000000008
 30
0.0
 11
-0.1787910223196478
 21
-0.061
 31
0.0
  0
LINE
  5
72C
330
69A
100
AcDbEntity
  8
0
100
AcDbLine
 10
-0.165666666666664
 20
-0.0819999999999999
 30
0.0
 11
-0.1666666666666652
 21
-0.0820000000000008
 31
0.0
  0
LINE
  5
72D
330
69A
100
AcDbEntity
  8
0
100
AcDbLine
 10
-0.2212222222222193
 20
-0.0820000000000008
 30
0.0
 11
-0.2090978665692367
 21
-0.0609999999999991
 31
0.0
  0
LINE
  5
72E
330
69A
100
AcDbEntity
  8
0
100
AcDbLine
 10
-0.2222222222222205
 20
-0.0820000000000008
 30
0.0
 11
-0.2343465778752032
 21
-0.061
 31
0.0
  0
LINE
  5
72F
330
69A
100
AcDbEntity
  8
0
100
AcDbLine
 10
-0.2212222222222193
 20
-0.0819999999999999
 30
0.0
 11
-0.2222222222222205
 21
-0.0819999999999999
 31
0.0
  0
LINE
  5
730
330
69A
100
AcDbEntity
  8
0
100
AcDbLine
 10
-0.2767777777777747
 20
-0.0820000000000008
 30
0.0
 11
-0.264653422124792
 21
-0.0609999999999991
 31
0.0
  0
LINE
  5
731
330
69A
100
AcDbEntity
  8
0
100
AcDbLine
 10
-0.2767777777777747
 20
-0.0819999999999999
 30
0.0
 11
-0.2777777777777741
 21
-0.0819999999999999
 31
0.0
  0
LINE
  5
732
330
69A
100
AcDbEntity
  8
0
100
AcDbLine
 10
-0.2343465778752014
 20
-0.061
 30
0.0
 11
-0.2646534221247938
 21
-0.061
 31
0.0
  0
LINE
  5
733
330
69A
100
AcDbEntity
  8
0
100
AcDbLine
 10
-0.178791022319646
 20
-0.0609999999999991
 30
0.0
 11
-0.2090978665692384
 21
-0.061
 31
0.0
  0
LINE
  5
734
330
69A
100
AcDbEntity
  8
0
100
AcDbLine
 10
-0.1111111111111098
 20
-0.0820000000000008
 30
0.0
 11
-0.1232354667640925
 21
-0.061
 31
0.0
  0
LINE
  5
735
330
69A
100
AcDbEntity
  8
0
100
AcDbLine
 10
-0.1232354667640925
 20
-0.0609999999999991
 30
0.0
 11
-0.1535423110136822
 21
-0.061
 31
0.0
  0
LINE
  5
736
330
69A
100
AcDbEntity
  8
0
100
AcDbLine
 10
-0.1510132445418701
 20
0.0609999999999982
 30
0.0
 11
-0.1813200887914572
 21
0.0609999999999982
 31
0.0
  0
LINE
  5
737
330
69A
100
AcDbEntity
  8
0
100
AcDbLine
 10
-0.1934444444444407
 20
0.081999999999999
 30
0.0
 11
-0.1813200887914581
 21
0.0609999999999991
 31
0.0
  0
LINE
  5
738
330
69A
100
AcDbEntity
  8
0
100
AcDbLine
 10
-0.1934444444444407
 20
0.081999999999999
 30
0.0
 11
-0.1944444444444402
 21
0.0819999999999999
 31
0.0
  0
LINE
  5
739
330
69A
100
AcDbEntity
  8
0
100
AcDbLine
 10
-0.2489999999999961
 20
0.081999999999999
 30
0.0
 11
-0.2368756443470135
 21
0.0609999999999991
 31
0.0
  0
LINE
  5
73A
330
69A
100
AcDbEntity
  8
0
100
AcDbLine
 10
-0.2499999999999973
 20
0.081999999999999
 30
0.0
 11
-0.26212435565298
 21
0.0609999999999991
 31
0.0
  0
LINE
  5
73B
330
69A
100
AcDbEntity
  8
0
100
AcDbLine
 10
-0.2489999999999979
 20
0.0819999999999999
 30
0.0
 11
-0.2499999999999956
 21
0.0819999999999999
 31
0.0
  0
LINE
  5
73C
330
69A
100
AcDbEntity
  8
0
100
AcDbLine
 10
-0.2065688000974246
 20
0.0609999999999982
 30
0.0
 11
-0.2368756443470117
 21
0.0609999999999982
 31
0.0
  0
LINE
  5
73D
330
69A
100
AcDbEntity
  8
0
100
AcDbLine
 10
-0.194444444444442
 20
0.081999999999999
 30
0.0
 11
-0.2065688000974246
 21
0.0609999999999991
 31
0.0
  0
LINE
  5
73E
330
69A
100
AcDbEntity
  8
0
100
AcDbLine
 10
-0.1388888888888866
 20
0.081999999999999
 30
0.0
 11
-0.1510132445418693
 21
0.0609999999999991
 31
0.0
  0
LINE
  5
73F
330
69A
100
AcDbEntity
  8
0
100
AcDbLine
 10
0.0
 20
-0.0819999999999999
 30
0.0
 11
0.0
 21
0.0819999999999999
 31
0.0
  0
LINE
  5
740
330
69A
100
AcDbEntity
  8
0
100
AcDbLine
 10
0.0
 20
-0.0819999999999999
 30
0.0
 11
0.0999999999999997
 21
-0.1660000000000004
 31
0.0
  0
ENDBLK
  5
742
330
69A
100
AcDbEntity
  8
0
100
AcDbBlockEnd
  0
BLOCK
  5
759
330
743
100
AcDbEntity
  8
0
100
AcDbBlockBegin
  2
P Seal
 70
     0
 10
0.0
 20
0.0
 30
0.0
  3
P Seal
  1

  0
LINE
  5
744
330
743
100
AcDbEntity
  8
R-SWTS-DET1
  6
Continuous
100
AcDbLine
 10
-0.0162879999999999
 20
-0.0815520000000002
 30
0.0
 11
-0.1958479999999998
 21
-0.0953620000000001
 31
0.0
  0
LINE
  5
745
330
743
100
AcDbEntity
  8
R-SWTS-DET1
  6
Continuous
100
AcDbLine
 10
-0.0162879999999999
 20
-0.0965530000000001
 30
0.0
 11
-0.1860680000000001
 21
-0.1232050000000001
 31
0.0
  0
LINE
  5
746
330
743
100
AcDbEntity
  8
R-SWTS-DET1
  6
Continuous
100
AcDbLine
 10
-0.0187189999999999
 20
-0.1273240000000001
 30
0.0
 11
-0.1620789999999999
 21
-0.1727880000000001
 31
0.0
  0
LINE
  5
747
330
743
100
AcDbEntity
  8
R-SWTS-DET1
  6
Continuous
100
AcDbLine
 10
-0.0162879999999999
 20
-0.1115530000000001
 30
0.0
 11
-0.1746639999999999
 21
-0.1490970000000001
 31
0.0
  0
LINE
  5
748
330
743
100
AcDbEntity
  8
R-SWTS-DET1
  6
Continuous
100
AcDbLine
 10
0.0212129999999999
 20
-0.0659570000000001
 30
0.0
 11
-0.203603
 21
-0.0659570000000001
 31
0.0
  0
LINE
  5
749
330
743
100
AcDbEntity
  8
R-SWTS-DET1
  6
Continuous
100
AcDbLine
 10
-0.0162879999999999
 20
-0.0503620000000001
 30
0.0
 11
-0.1958479999999998
 21
-0.0365540000000001
 31
0.0
  0
LINE
  5
74A
330
743
100
AcDbEntity
  8
R-SWTS-DET1
  6
Continuous
100
AcDbLine
 10
-0.0162879999999999
 20
-0.0353630000000002
 30
0.0
 11
-0.1860680000000001
 21
-0.0087100000000001
 31
0.0
  0
LINE
  5
74B
330
743
100
AcDbEntity
  8
R-SWTS-DET1
  6
Continuous
100
AcDbLine
 10
-0.0162879999999999
 20
-0.0203630000000001
 30
0.0
 11
-0.1746639999999999
 21
0.0171819999999999
 31
0.0
  0
LINE
  5
74C
330
743
100
AcDbEntity
  8
R-SWTS-DET1
  6
Continuous
100
AcDbLine
 10
-0.0162879999999999
 20
-0.0053620000000001
 30
0.0
 11
-0.1620789999999999
 21
0.0408739999999999
 31
0.0
  0
LINE
  5
74D
330
743
100
AcDbEntity
  8
R-SWTS-DET1
  6
Continuous
100
AcDbLine
 10
0.021212
 20
-0.1273240000000001
 30
0.0
 11
-0.0187189999999999
 21
-0.1273240000000001
 31
0.0
  0
LINE
  5
74E
330
743
100
AcDbEntity
  8
R-SWTS-DET1
  6
Continuous
100
AcDbLine
 10
-0.0162879999999999
 20
-0.1115530000000001
 30
0.0
 11
0.0212129999999999
 21
-0.1115530000000001
 31
0.0
  0
LINE
  5
74F
330
743
100
AcDbEntity
  8
R-SWTS-DET1
  6
Continuous
100
AcDbLine
 10
-0.0162879999999999
 20
-0.0965530000000001
 30
0.0
 11
0.0212129999999999
 21
-0.0965530000000001
 31
0.0
  0
LINE
  5
750
330
743
100
AcDbEntity
  8
R-SWTS-DET1
  6
Continuous
100
AcDbLine
 10
-0.0162879999999999
 20
-0.0815520000000002
 30
0.0
 11
0.0212129999999999
 21
-0.0815520000000002
 31
0.0
  0
LINE
  5
751
330
743
100
AcDbEntity
  8
R-SWTS-DET1
  6
Continuous
100
AcDbLine
 10
-0.0162879999999999
 20
-0.0503620000000001
 30
0.0
 11
0.0212129999999999
 21
-0.0503620000000001
 31
0.0
  0
LINE
  5
752
330
743
100
AcDbEntity
  8
R-SWTS-DET1
  6
Continuous
100
AcDbLine
 10
-0.0162879999999999
 20
-0.0353630000000002
 30
0.0
 11
0.0212129999999999
 21
-0.0353630000000002
 31
0.0
  0
LINE
  5
753
330
743
100
AcDbEntity
  8
R-SWTS-DET1
  6
Continuous
100
AcDbLine
 10
-0.0162879999999999
 20
-0.0203630000000001
 30
0.0
 11
0.0212129999999999
 21
-0.0203630000000001
 31
0.0
  0
LINE
  5
754
330
743
100
AcDbEntity
  8
R-SWTS-DET1
  6
Continuous
100
AcDbLine
 10
-0.0162879999999999
 20
-0.0053620000000001
 30
0.0
 11
0.0212129999999999
 21
-0.0053620000000001
 31
0.0
  0
LINE
  5
755
330
743
100
AcDbEntity
  8
R-SWTS-DET1
  6
Continuous
100
AcDbLine
 10
0.0212129999999999
 20
0.0528329999999999
 30
0.0
 11
0.06447
 21
0.0528329999999999
 31
0.0
  0
LINE
  5
756
330
743
100
AcDbEntity
  8
R-SWTS-DET1
  6
Continuous
100
AcDbLine
 10
0.06447
 20
0.0528329999999999
 30
0.0
 11
0.06447
 21
-0.1933810000000001
 31
0.0
  0
LINE
  5
757
330
743
100
AcDbEntity
  8
R-SWTS-DET1
  6
Continuous
100
AcDbLine
 10
0.0212129999999999
 20
-0.1933810000000001
 30
0.0
 11
0.0212129999999999
 21
0.0528329999999999
 31
0.0
  0
LINE
  5
758
330
743
100
AcDbEntity
  8
R-SWTS-DET1
  6
Continuous
100
AcDbLine
 10
0.0212129999999999
 20
-0.1933810000000001
 30
0.0
 11
0.06447
 21
-0.1933810000000001
 31
0.0
  0
ENDBLK
  5
75A
330
743
100
AcDbEntity
  8
0
100
AcDbBlockEnd
  0
BLOCK
  5
76E
330
75B
100
AcDbEntity
  8
0
100
AcDbBlockBegin
  2
S4
 70
     0
 10
0.0
 20
0.0
 30
0.0
  3
S4
  1

  0
LINE
  5
75C
330
75B
100
AcDbEntity
  8
0
100
AcDbLine
 10
-0.0750000000000002
 20
-0.0350000000000002
 30
0.0
 11
-0.0750000000000002
 21
-0.0949999999999998
 31
0.0
  0
LINE
  5
75D
330
75B
100
AcDbEntity
  8
0
100
AcDbLine
 10
0.0750000000000002
 20
-0.0350000000000002
 30
0.0
 11
0.0750000000000002
 21
-0.0949999999999998
 31
0.0
  0
LINE
  5
75E
330
75B
100
AcDbEntity
  8
0
100
AcDbLine
 10
0.0750000000000002
 20
-0.0949999999999989
 30
0.0
 11
0.1900000000000013
 21
-0.0949999999999998
 31
0.0
  0
LINE
  5
75F
330
75B
100
AcDbEntity
  8
0
100
AcDbLine
 10
0.0773755656108595
 20
-0.2583484162895928
 30
0.0
 11
0.197737556561087
 21
-0.1113348416289588
 31
0.0
  0
LINE
  5
760
330
75B
100
AcDbEntity
  8
0
100
AcDbLine
 10
0.1688888888888931
 20
-0.1149999999999958
 30
0.0
 11
-0.1688888888888895
 21
-0.1149999999999984
 31
0.0
  0
ARC
  5
761
330
75B
100
AcDbEntity
  8
0
100
AcDbCircle
 10
0.0
 20
-0.1949999999999994
 30
0.0
 40
0.08
100
AcDbArc
 50
219.3076481161067
 51
320.692351883893
  0
ARC
  5
762
330
75B
100
AcDbEntity
  8
0
100
AcDbCircle
 10
0.0
 20
-0.1949999999999994
 30
0.0
 40
0.1
100
AcDbArc
 50
219.3076481161067
 51
320.692351883893
  0
LINE
  5
763
330
75B
100
AcDbEntity
  8
0
100
AcDbLine
 10
-0.1688888888888895
 20
-0.1149999999999984
 30
0.0
 11
-0.0619004524886879
 21
-0.2456787330316734
 31
0.0
  0
LINE
  5
764
330
75B
100
AcDbEntity
  8
0
100
AcDbLine
 10
-0.1977375565610861
 20
-0.1113348416289588
 30
0.0
 11
-0.0773755656108595
 21
-0.2583484162895919
 31
0.0
  0
LINE
  5
765
330
75B
100
AcDbEntity
  8
0
100
AcDbLine
 10
-0.0750000000000002
 20
-0.0949999999999989
 30
0.0
 11
-0.1900000000000004
 21
-0.0949999999999998
 31
0.0
  0
ARC
  5
766
330
75B
100
AcDbEntity
  8
0
100
AcDbCircle
 10
-0.1900000000000004
 20
-0.1049999999999995
 30
0.0
 40
0.01
100
AcDbArc
 50
90.0
 51
219.3076481161073
  0
LINE
  5
767
330
75B
100
AcDbEntity
  8
0
100
AcDbLine
 10
0.0619004524886879
 20
-0.2456787330316743
 30
0.0
 11
0.168888888888894
 21
-0.1149999999999949
 31
0.0
  0
ARC
  5
768
330
75B
100
AcDbEntity
  8
0
100
AcDbCircle
 10
0.1900000000000013
 20
-0.1049999999999995
 30
0.0
 40
0.01
100
AcDbArc
 50
320.6923518838928
 51
90.0
  0
LINE
  5
769
330
75B
100
AcDbEntity
  8
0
100
AcDbLine
 10
-0.1299999999999999
 20
0.0
 30
0.0
 11
0.1299999999999999
 21
0.0
 31
0.0
  0
LINE
  5
76A
330
75B
100
AcDbEntity
  8
0
100
AcDbLine
 10
-0.1299999999999999
 20
-0.0350000000000002
 30
0.0
 11
-0.0750000000000002
 21
-0.0350000000000002
 31
0.0
  0
LINE
  5
76B
330
75B
100
AcDbEntity
  8
0
100
AcDbLine
 10
-0.1299999999999999
 20
-0.0350000000000002
 30
0.0
 11
-0.1299999999999999
 21
0.0
 31
0.0
  0
LINE
  5
76C
330
75B
100
AcDbEntity
  8
0
100
AcDbLine
 10
0.0750000000000002
 20
-0.0350000000000002
 30
0.0
 11
0.1299999999999999
 21
-0.0350000000000002
 31
0.0
  0
LINE
  5
76D
330
75B
100
AcDbEntity
  8
0
100
AcDbLine
 10
0.1299999999999999
 20
0.0
 30
0.0
 11
0.1299999999999999
 21
-0.0350000000000002
 31
0.0
  0
ENDBLK
  5
76F
330
75B
100
AcDbEntity
  8
0
100
AcDbBlockEnd
  0
BLOCK
  5
7BE
330
784
100
AcDbEntity
  8
0
100
AcDbBlockBegin
  2
Logo
 70
     0
 10
0.0
 20
0.0
 30
0.0
  3
Logo
  1

  0
ARC
  5
785
102
{ACAD_REACTORS
330
7BB
102
}
330
784
100
AcDbEntity
  8
R-SWTS-DET1
  6
Continuous
 62
     6
100
AcDbCircle
 10
0.0941740410091869
 20
0.0124999999999993
 30
0.0
 40
0.005
100
AcDbArc
 50
270.0
 51
7.560843176671826
  0
ARC
  5
786
102
{ACAD_REACTORS
330
7BC
102
}
330
784
100
AcDbEntity
  8
R-SWTS-DET2
  6
Continuous
 62
     6
100
AcDbCircle
 10
0.0941740410091869
 20
-0.0125000000000002
 30
0.0
 40
0.005
100
AcDbArc
 50
352.4391568233282
 51
90.0
  0
ARC
  5
787
102
{ACAD_REACTORS
330
7B6
102
}
330
784
100
AcDbEntity
  8
R-ANNO-TEXT
  6
Continuous
 62
     6
100
AcDbCircle
 10
0.0577522682445042
 20
0.0754299377741674
 30
0.0
 40
0.005
100
AcDbArc
 50
314.9999999999991
 51
52.56084317667283
  0
ARC
  5
788
102
{ACAD_REACTORS
330
7B6
102
}
330
784
100
AcDbEntity
  8
R-ANNO-TEXT
  6
Continuous
 62
     6
100
AcDbCircle
 10
0.0124999999999997
 20
0.0941740410091869
 30
0.0
 40
0.005
100
AcDbArc
 50
82.43915682332817
 51
180.0
  0
ARC
  5
789
102
{ACAD_REACTORS
330
7B5
102
}
330
784
100
AcDbEntity
  8
R-ANNO-DIMS
  6
Continuous
 62
     6
100
AcDbCircle
 10
-0.0124999999999997
 20
0.0941740410091869
 30
0.0
 40
0.005
100
AcDbArc
 50
0.0
 51
97.56084317667179
  0
ARC
  5
78A
102
{ACAD_REACTORS
330
7B6
102
}
330
784
100
AcDbEntity
  8
R-ANNO-TEXT
  6
Continuous
 62
     6
100
AcDbCircle
 10
0.0
 20
0.0
 30
0.0
 40
0.1
100
AcDbArc
 50
52.56084317667203
 51
82.43915682332799
  0
ARC
  5
78B
102
{ACAD_REACTORS
330
7B5
102
}
330
784
100
AcDbEntity
  8
R-ANNO-DIMS
  6
Continuous
 62
     6
100
AcDbCircle
 10
-0.0577522682445042
 20
0.0754299377741674
 30
0.0
 40
0.005
100
AcDbArc
 50
127.4391568233271
 51
224.9999999999982
  0
ARC
  5
78C
102
{ACAD_REACTORS
330
7B5
102
}
330
784
100
AcDbEntity
  8
R-ANNO-DIMS
  6
Continuous
 62
     6
100
AcDbCircle
 10
0.0
 20
0.0
 30
0.0
 40
0.1
100
AcDbArc
 50
97.56084317667193
 51
127.439156823328
  0
ARC
  5
78D
102
{ACAD_REACTORS
330
7BB
102
}
330
784
100
AcDbEntity
  8
R-SWTS-DET1
  6
Continuous
 62
     6
100
AcDbCircle
 10
0.0754299377741679
 20
0.0577522682445042
 30
0.0
 40
0.005
100
AcDbArc
 50
37.43915682332774
 51
135.0000000000018
  0
LINE
  5
78E
102
{ACAD_REACTORS
330
7BB
102
}
330
784
100
AcDbEntity
  8
R-SWTS-DET1
  6
Continuous
 62
     6
100
AcDbLine
 10
0.0266421356237312
 20
0.0160355339059333
 30
0.0
 11
0.071894403868235
 21
0.0612878021504368
 31
0.0
  0
ARC
  5
78F
102
{ACAD_REACTORS
330
7BC
102
}
330
784
100
AcDbEntity
  8
R-SWTS-DET2
  6
Continuous
 62
     6
100
AcDbCircle
 10
0.0301776695296634
 20
-0.0125000000000002
 30
0.0
 40
0.005
100
AcDbArc
 50
90.0
 51
225.0000000000018
  0
ARC
  5
790
102
{ACAD_REACTORS
330
7BB
102
}
330
784
100
AcDbEntity
  8
R-SWTS-DET1
  6
Continuous
 62
     6
100
AcDbCircle
 10
0.0301776695296641
 20
0.0125000000000002
 30
0.0
 40
0.005
100
AcDbArc
 50
135.0
 51
270.0
  0
ARC
  5
791
102
{ACAD_REACTORS
330
7B6
102
}
330
784
100
AcDbEntity
  8
R-ANNO-TEXT
  6
Continuous
 62
     6
100
AcDbCircle
 10
0.0124999999999997
 20
0.0301776695296634
 30
0.0
 40
0.005
100
AcDbArc
 50
180.0
 51
315.0000000000018
  0
ARC
  5
792
102
{ACAD_REACTORS
330
7B5
102
}
330
784
100
AcDbEntity
  8
R-ANNO-DIMS
  6
Continuous
 62
     6
100
AcDbCircle
 10
-0.0124999999999997
 20
0.030177669529663
 30
0.0
 40
0.005
100
AcDbArc
 50
225.0000000000018
 51
0.0
  0
ARC
  5
793
102
{ACAD_REACTORS
330
7A0
102
}
330
784
100
AcDbEntity
  8
R-SWTS-DET3
  6
Continuous
 62
     6
100
AcDbCircle
 10
0.0125
 20
-0.0301776695296638
 30
0.0
 40
0.005
100
AcDbArc
 50
45.00000000000089
 51
180.0
  0
ARC
  5
794
102
{ACAD_REACTORS
330
7AF
102
}
330
784
100
AcDbEntity
  8
R-SWTS-PAT1
  6
Continuous
 62
     6
100
AcDbCircle
 10
-0.0301776695296634
 20
-0.0125000000000002
 30
0.0
 40
0.005
100
AcDbArc
 50
314.9999999999991
 51
90.0
  0
ARC
  5
795
102
{ACAD_REACTORS
330
7AE
102
}
330
784
100
AcDbEntity
  8
R-SWTS-OTLN
  6
Continuous
 62
     6
100
AcDbCircle
 10
-0.0124999999999997
 20
-0.0301776695296638
 30
0.0
 40
0.005
100
AcDbArc
 50
0.0
 51
134.9999999999973
  0
ARC
  5
796
102
{ACAD_REACTORS
330
7B0
102
}
330
784
100
AcDbEntity
  8
R-SWTS-PAT2
  6
Continuous
 62
     6
100
AcDbCircle
 10
-0.0301776695296634
 20
0.0124999999999993
 30
0.0
 40
0.005
100
AcDbArc
 50
270.0
 51
44.9999999999991
  0
ARC
  5
797
102
{ACAD_REACTORS
330
7BC
102
}
330
784
100
AcDbEntity
  8
R-SWTS-DET2
  6
Continuous
 62
     6
100
AcDbCircle
 10
0.0754299377741679
 20
-0.0577522682445046
 30
0.0
 40
0.005
100
AcDbArc
 50
225.0000000000018
 51
322.5608431766723
  0
ARC
  5
798
102
{ACAD_REACTORS
330
7A0
102
}
330
784
100
AcDbEntity
  8
R-SWTS-DET3
  6
Continuous
 62
     6
100
AcDbCircle
 10
0.0577522682445042
 20
-0.0754299377741683
 30
0.0
 40
0.005
100
AcDbArc
 50
307.4391568233271
 51
44.9999999999982
  0
ARC
  5
799
102
{ACAD_REACTORS
330
7A0
102
}
330
784
100
AcDbEntity
  8
R-SWTS-DET3
  6
Continuous
 62
     6
100
AcDbCircle
 10
0.0124999999999997
 20
-0.0941740410091869
 30
0.0
 40
0.005
100
AcDbArc
 50
180.0
 51
277.5608431766718
  0
ARC
  5
79A
102
{ACAD_REACTORS
330
7AE
102
}
330
784
100
AcDbEntity
  8
R-SWTS-OTLN
  6
Continuous
 62
     6
100
AcDbCircle
 10
-0.0124999999999997
 20
-0.0941740410091869
 30
0.0
 40
0.005
100
AcDbArc
 50
262.4391568233282
 51
0.0
  0
ARC
  5
79B
102
{ACAD_REACTORS
330
7A0
102
}
330
784
100
AcDbEntity
  8
R-SWTS-DET3
  6
Continuous
 62
     6
100
AcDbCircle
 10
0.0
 20
0.0
 30
0.0
 40
0.1
100
AcDbArc
 50
277.5608431766719
 51
307.439156823328
  0
LINE
  5
79C
102
{ACAD_REACTORS
330
7BC
102
}
330
784
100
AcDbEntity
  8
R-SWTS-DET2
  6
Continuous
 62
     6
100
AcDbLine
 10
0.0266421356237303
 20
-0.0160355339059324
 30
0.0
 11
0.071894403868235
 21
-0.0612878021504373
 31
0.0
  0
LINE
  5
79D
102
{ACAD_REACTORS
330
7A0
102
}
330
784
100
AcDbEntity
  8
R-SWTS-DET3
  6
Continuous
 62
     6
100
AcDbLine
 10
0.0160355339059328
 20
-0.0266421356237308
 30
0.0
 11
0.0612878021504373
 21
-0.0718944038682352
 31
0.0
  0
LINE
  5
79E
102
{ACAD_REACTORS
330
7A0
102
}
330
784
100
AcDbEntity
  8
R-SWTS-DET3
  6
Continuous
 62
     6
100
AcDbLine
 10
0.0074999999999998
 20
-0.0301776695296638
 30
0.0
 11
0.0074999999999998
 21
-0.0941740410091869
 31
0.0
  0
LINE
  5
79F
102
{ACAD_REACTORS
330
7AE
102
}
330
784
100
AcDbEntity
  8
R-SWTS-OTLN
  6
Continuous
 62
     6
100
AcDbLine
 10
-0.0074999999999998
 20
-0.0301776695296638
 30
0.0
 11
-0.0074999999999998
 21
-0.0941740410091869
 31
0.0
  0
HATCH
  5
7A0
330
784
100
AcDbEntity
  8
R-SWTS-DET3
  6
Continuous
 62
     6
100
AcDbHatch
 10
0.0
 20
0.0
 30
0.0
210
0.0
220
0.0
230
1.0
  2
SOLID
 70
     1
 71
     1
 91
        1
 92
        7
 72
     1
 73
     1
 93
        6
 10
0.0160355339059329
 20
-0.0266421356237308
 42
0.6681786379193446
 10
0.0074999999999998
 20
-0.0301776695296634
 42
0.0
 10
0.0074999999999998
 20
-0.0941740410091869
 42
0.4534141234453589
 10
0.0131578947368419
 20
-0.0991305694833544
 42
0.1311123756655087
 10
0.0607918613100043
 20
-0.0793999344991243
 42
0.4534141234454098
 10
0.0612878021504371
 20
-0.071894403868235
 42
0.0
 97
        6
330
793
330
79E
330
799
330
79B
330
798
330
79D
 75
     0
 76
     1
 47
0.0008898326864094
 98
        1
 10
0.0452949310457915
 20
-0.066915027358724
  0
ARC
  5
7A1
102
{ACAD_REACTORS
330
7B0
102
}
330
784
100
AcDbEntity
  8
R-SWTS-PAT2
  6
Continuous
 62
     6
100
AcDbCircle
 10
-0.0754299377741679
 20
0.0577522682445038
 30
0.0
 40
0.005
100
AcDbArc
 50
45.00000000000089
 51
142.5608431766718
  0
ARC
  5
7A2
102
{ACAD_REACTORS
330
7AF
102
}
330
784
100
AcDbEntity
  8
R-SWTS-PAT1
  6
Continuous
 62
     6
100
AcDbCircle
 10
-0.0941740410091869
 20
-0.0125000000000002
 30
0.0
 40
0.005
100
AcDbArc
 50
90.0
 51
187.5608431766716
  0
ARC
  5
7A3
102
{ACAD_REACTORS
330
7B0
102
}
330
784
100
AcDbEntity
  8
R-SWTS-PAT2
  6
Continuous
 62
     6
100
AcDbCircle
 10
-0.0941740410091869
 20
0.0124999999999993
 30
0.0
 40
0.005
100
AcDbArc
 50
172.4391568233283
 51
270.0
  0
ARC
  5
7A4
102
{ACAD_REACTORS
330
7B0
102
}
330
784
100
AcDbEntity
  8
R-SWTS-PAT2
  6
Continuous
 62
     6
100
AcDbCircle
 10
0.0
 20
0.0
 30
0.0
 40
0.1
100
AcDbArc
 50
142.560843176672
 51
172.439156823328
  0
ARC
  5
7A5
102
{ACAD_REACTORS
330
7AE
102
}
330
784
100
AcDbEntity
  8
R-SWTS-OTLN
  6
Continuous
 62
     6
100
AcDbCircle
 10
-0.0577522682445042
 20
-0.0754299377741683
 30
0.0
 40
0.005
100
AcDbArc
 50
135.0000000000018
 51
232.5608431766728
  0
ARC
  5
7A6
102
{ACAD_REACTORS
330
7AF
102
}
330
784
100
AcDbEntity
  8
R-SWTS-PAT1
  6
Continuous
 62
     6
100
AcDbCircle
 10
-0.0754299377741679
 20
-0.0577522682445046
 30
0.0
 40
0.005
100
AcDbArc
 50
217.4391568233282
 51
314.9999999999991
  0
ARC
  5
7A7
102
{ACAD_REACTORS
330
7AF
102
}
330
784
100
AcDbEntity
  8
R-SWTS-PAT1
  6
Continuous
 62
     6
100
AcDbCircle
 10
0.0
 20
0.0
 30
0.0
 40
0.1
100
AcDbArc
 50
187.5608431766719
 51
217.4391568233279
  0
ARC
  5
7A8
102
{ACAD_REACTORS
330
7AE
102
}
330
784
100
AcDbEntity
  8
R-SWTS-OTLN
  6
Continuous
 62
     6
100
AcDbCircle
 10
0.0
 20
0.0
 30
0.0
 40
0.1
100
AcDbArc
 50
232.560843176672
 51
262.4391568233281
  0
LINE
  5
7A9
102
{ACAD_REACTORS
330
7AE
102
}
330
784
100
AcDbEntity
  8
R-SWTS-OTLN
  6
Continuous
 62
     6
100
AcDbLine
 10
-0.0160355339059324
 20
-0.0266421356237308
 30
0.0
 11
-0.0612878021504373
 21
-0.0718944038682352
 31
0.0
  0
LINE
  5
7AA
102
{ACAD_REACTORS
330
7AF
102
}
330
784
100
AcDbEntity
  8
R-SWTS-PAT1
  6
Continuous
 62
     6
100
AcDbLine
 10
-0.0266421356237308
 20
-0.0160355339059333
 30
0.0
 11
-0.0718944038682352
 21
-0.0612878021504368
 31
0.0
  0
LINE
  5
7AB
102
{ACAD_REACTORS
330
7AF
102
}
330
784
100
AcDbEntity
  8
R-SWTS-PAT1
  6
Continuous
 62
     6
100
AcDbLine
 10
-0.0301776695296634
 20
-0.0075000000000003
 30
0.0
 11
-0.0941740410091869
 21
-0.0075000000000003
 31
0.0
  0
LINE
  5
7AC
102
{ACAD_REACTORS
330
7B0
102
}
330
784
100
AcDbEntity
  8
R-SWTS-PAT2
  6
Continuous
 62
     6
100
AcDbLine
 10
-0.0266421356237308
 20
0.0160355339059324
 30
0.0
 11
-0.0718944038682352
 21
0.0612878021504368
 31
0.0
  0
LINE
  5
7AD
102
{ACAD_REACTORS
330
7B0
102
}
330
784
100
AcDbEntity
  8
R-SWTS-PAT2
  6
Continuous
 62
     6
100
AcDbLine
 10
-0.0301776695296634
 20
0.0074999999999994
 30
0.0
 11
-0.0941740410091869
 21
0.0074999999999994
 31
0.0
  0
HATCH
  5
7AE
330
784
100
AcDbEntity
  8
R-SWTS-OTLN
  6
Continuous
 62
     6
100
AcDbHatch
 10
0.0
 20
0.0
 30
0.0
210
0.0
220
0.0
230
1.0
  2
SOLID
 70
     1
 71
     1
 91
        1
 92
        7
 72
     1
 73
     1
 93
        6
 10
-0.0612878021504372
 20
-0.0718944038682352
 42
0.4534141234453476
 10
-0.0607918613100047
 20
-0.0793999344991239
 42
0.1311123756655101
 10
-0.0131578947368419
 20
-0.0991305694833546
 42
0.4534141234453685
 10
-0.0074999999999998
 20
-0.0941740410091869
 42
0.0
 10
-0.0074999999999998
 20
-0.0301776695296638
 42
0.6681786379193112
 10
-0.0160355339059326
 20
-0.026642135623731
 42
0.0
 97
        6
330
795
330
7A9
330
7A5
330
7A8
330
79A
330
79F
 75
     0
 76
     1
 47
0.0008898326864094
 98
        1
 10
-0.0232853322002938
 20
-0.0491183732070368
  0
HATCH
  5
7AF
330
784
100
AcDbEntity
  8
R-SWTS-PAT1
  6
Continuous
 62
     6
100
AcDbHatch
 10
0.0
 20
0.0
 30
0.0
210
0.0
220
0.0
230
1.0
  2
SOLID
 70
     1
 71
     1
 91
        1
 92
        7
 72
     1
 73
     1
 93
        6
 10
-0.0941740410091869
 20
-0.0075000000000003
 42
0.4534141234453669
 10
-0.0991305694833545
 20
-0.0131578947368424
 42
0.1311123756655093
 10
-0.0793999344991238
 20
-0.0607918613100047
 42
0.453414123445337
 10
-0.0718944038682353
 20
-0.0612878021504369
 42
0.0
 10
-0.0266421356237306
 20
-0.0160355339059331
 42
0.6681786379192967
 10
-0.0301776695296631
 20
-0.0075000000000003
 42
0.0
 97
        6
330
7AB
330
7A2
330
7A7
330
7A6
330
7AA
330
794
 75
     0
 76
     1
 47
0.0008898326864094
 98
        1
 10
-0.0606927519483949
 20
-0.0161945603424947
  0
HATCH
  5
7B0
330
784
100
AcDbEntity
  8
R-SWTS-PAT2
  6
Continuous
 62
     6
100
AcDbHatch
 10
0.0
 20
0.0
 30
0.0
210
0.0
220
0.0
230
1.0
  2
SOLID
 70
     1
 71
     1
 91
        1
 92
        7
 72
     1
 73
     1
 93
        6
 10
-0.0991305694833546
 20
0.0131578947368414
 42
0.4534141234453686
 10
-0.094174041009187
 20
0.0074999999999994
 42
0.0
 10
-0.0301776695296634
 20
0.0074999999999994
 42
0.6681786379193361
 10
-0.0266421356237305
 20
0.0160355339059322
 42
0.0
 10
-0.071894403868235
 20
0.0612878021504366
 42
0.4534141234454016
 10
-0.0793999344991243
 20
0.0607918613100043
 42
0.13111237566551
 97
        6
330
7A1
330
7A4
330
7A3
330
7AD
330
796
330
7AC
 75
     0
 76
     1
 47
0.0008898326864094
 98
        1
 10
-0.0865216783395087
 20
0.0300767364260093
  0
LINE
  5
7B1
102
{ACAD_REACTORS
330
7B6
102
}
330
784
100
AcDbEntity
  8
R-ANNO-TEXT
  6
Continuous
 62
     6
100
AcDbLine
 10
0.0160355339059328
 20
0.0266421356237308
 30
0.0
 11
0.0612878021504373
 21
0.0718944038682348
 31
0.0
  0
LINE
  5
7B2
102
{ACAD_REACTORS
330
7B6
102
}
330
784
100
AcDbEntity
  8
R-ANNO-TEXT
  6
Continuous
 62
     6
100
AcDbLine
 10
0.0074999999999998
 20
0.0301776695296634
 30
0.0
 11
0.0074999999999998
 21
0.0941740410091869
 31
0.0
  0
LINE
  5
7B3
102
{ACAD_REACTORS
330
7B5
102
}
330
784
100
AcDbEntity
  8
R-ANNO-DIMS
  6
Continuous
 62
     6
100
AcDbLine
 10
-0.0074999999999998
 20
0.030177669529663
 30
0.0
 11
-0.0074999999999998
 21
0.0941740410091869
 31
0.0
  0
LINE
  5
7B4
102
{ACAD_REACTORS
330
7B5
102
}
330
784
100
AcDbEntity
  8
R-ANNO-DIMS
  6
Continuous
 62
     6
100
AcDbLine
 10
-0.0160355339059324
 20
0.0266421356237303
 30
0.0
 11
-0.0612878021504373
 21
0.0718944038682348
 31
0.0
  0
HATCH
  5
7B5
330
784
100
AcDbEntity
  8
R-ANNO-DIMS
  6
Continuous
 62
     6
100
AcDbHatch
 10
0.0
 20
0.0
 30
0.0
210
0.0
220
0.0
230
1.0
  2
SOLID
 70
     1
 71
     1
 91
        1
 92
        7
 72
     1
 73
     1
 93
        6
 10
-0.0074999999999998
 20
0.0941740410091869
 42
0.4534141234453656
 10
-0.0131578947368419
 20
0.0991305694833545
 42
0.1311123756655101
 10
-0.0607918613100047
 20
0.0793999344991241
 42
0.4534141234453891
 10
-0.0612878021504375
 20
0.071894403868235
 42
0.0
 10
-0.0160355339059324
 20
0.0266421356237303
 42
0.6681786379192679
 10
-0.0074999999999998
 20
0.0301776695296632
 42
0.0
 97
        6
330
789
330
78C
330
78B
330
7B4
330
792
330
7B3
 75
     0
 76
     1
 47
0.0008898326864094
 98
        1
 10
-0.0286292493071659
 20
0.0718988763663955
  0
HATCH
  5
7B6
330
784
100
AcDbEntity
  8
R-ANNO-TEXT
  6
Continuous
 62
     6
100
AcDbHatch
 10
0.0
 20
0.0
 30
0.0
210
0.0
220
0.0
230
1.0
  2
SOLID
 70
     1
 71
     1
 91
        1
 92
        7
 72
     1
 73
     1
 93
        6
 10
0.061287802150437
 20
0.0718944038682345
 42
0.4534141234454016
 10
0.0607918613100048
 20
0.0793999344991239
 42
0.1311123756655107
 10
0.0131578947368418
 20
0.0991305694833545
 42
0.453414123445365
 10
0.0074999999999998
 20
0.0941740410091868
 42
0.0
 10
0.0074999999999998
 20
0.0301776695296634
 42
0.6681786379193165
 10
0.0160355339059327
 20
0.0266421356237305
 42
0.0
 97
        6
330
787
330
78A
330
788
330
7B2
330
791
330
7B1
 75
     0
 76
     1
 47
0.0008898326864094
 98
        1
 10
0.0328257911297578
 20
0.0701192082673048
  0
ARC
  5
7B7
102
{ACAD_REACTORS
330
7BB
102
}
330
784
100
AcDbEntity
  8
R-SWTS-DET1
  6
Continuous
 62
     6
100
AcDbCircle
 10
0.0
 20
0.0
 30
0.0
 40
0.1
100
AcDbArc
 50
7.560843176671929
 51
37.43915682332803
  0
LINE
  5
7B8
102
{ACAD_REACTORS
330
7BB
102
}
330
784
100
AcDbEntity
  8
R-SWTS-DET1
  6
Continuous
 62
     6
100
AcDbLine
 10
0.0301776695296641
 20
0.0074999999999994
 30
0.0
 11
0.0941740410091869
 21
0.0074999999999994
 31
0.0
  0
ARC
  5
7B9
102
{ACAD_REACTORS
330
7BC
102
}
330
784
100
AcDbEntity
  8
R-SWTS-DET2
  6
Continuous
 62
     6
100
AcDbCircle
 10
0.0
 20
0.0
 30
0.0
 40
0.1
100
AcDbArc
 50
322.5608431766719
 51
352.439156823328
  0
LINE
  5
7BA
102
{ACAD_REACTORS
330
7BC
102
}
330
784
100
AcDbEntity
  8
R-SWTS-DET2
  6
Continuous
 62
     6
100
AcDbLine
 10
0.0301776695296634
 20
-0.0075000000000003
 30
0.0
 11
0.0941740410091869
 21
-0.0075000000000003
 31
0.0
  0
HATCH
  5
7BB
330
784
100
AcDbEntity
  8
R-SWTS-DET1
  6
Continuous
 62
     6
100
AcDbHatch
 10
0.0
 20
0.0
 30
0.0
210
0.0
220
0.0
230
1.0
  2
SOLID
 70
     1
 71
     1
 91
        1
 92
        7
 72
     1
 73
     1
 93
        6
 10
0.079399934499124
 20
0.0607918613100044
 42
0.4534141234453749
 10
0.0718944038682351
 20
0.0612878021504369
 42
0.0
 10
0.0266421356237311
 20
0.0160355339059332
 42
0.6681786379194607
 10
0.0301776695296636
 20
0.0074999999999994
 42
0.0
 10
0.0941740410091869
 20
0.0074999999999994
 42
0.4534141234453703
 10
0.0991305694833546
 20
0.0131578947368415
 42
0.1311123756655106
 97
        6
330
78D
330
78E
330
790
330
7B8
330
785
330
7B7
 75
     0
 76
     1
 47
0.0008898326864094
 98
        1
 10
0.0827023382096958
 20
0.0318564045251
  0
HATCH
  5
7BC
330
784
100
AcDbEntity
  8
R-SWTS-DET2
  6
Continuous
 62
     6
100
AcDbHatch
 10
0.0
 20
0.0
 30
0.0
210
0.0
220
0.0
230
1.0
  2
SOLID
 70
     1
 71
     1
 91
        1
 92
        7
 72
     1
 73
     1
 93
        6
 10
0.0991305694833546
 20
-0.0131578947368423
 42
0.4534141234453724
 10
0.0941740410091869
 20
-0.0075000000000003
 42
0.0
 10
0.0301776695296634
 20
-0.0075000000000003
 42
0.6681786379192715
 10
0.0266421356237308
 20
-0.0160355339059328
 42
0.0
 10
0.0718944038682351
 20
-0.0612878021504375
 42
0.4534141234453565
 10
0.0793999344991239
 20
-0.0607918613100047
 42
0.1311123756655093
 97
        6
330
786
330
7BA
330
78F
330
79C
330
797
330
7B9
 75
     0
 76
     1
 47
0.0008898326864094
 98
        1
 10
0.0889369144598111
 20
-0.0250928874183378
  0
MTEXT
  5
7BD
330
784
100
AcDbEntity
  8
R-SWTS-PAT3
  6
Continuous
 62
     6
100
AcDbMText
 10
0.1939806497453276
 20
0.0
 30
0.0
 40
0.15
 41
0.9182999999999999
 71
     4
 72
     5
  1
{\fArial|b1|i0|c0|p34;PEMKO}
  7
SWTSTEXT
 73
     1
 44
1.0
1001
ACAD
1000
MTEXTBEGIN
1070
    73
1070
     1
1070
    44
1040
1.0
1070
    74
1070
     0
1000
MTEXTEND
  0
ENDBLK
  5
7BF
330
784
100
AcDbEntity
  8
0
100
AcDbBlockEnd
  0
BLOCK
  5
8D6
330
8CB
100
AcDbEntity
  8
0
100
AcDbBlockBegin
  2
*D4
 70
     1
 10
0.0
 20
0.0
 30
0.0
  3
*D4
  1

  0
LINE
  5
A88
330
8CB
100
AcDbEntity
  8
R-ANNO-DIMS
  6
Continuous
 62
     0
370
    -2
100
AcDbLine
 10
-0.0807518110894133
 20
1.842595130219239
 30
0.0
 11
-0.0807518110894133
 21
2.300095130219238
 31
0.0
  0
LINE
  5
A89
330
8CB
100
AcDbEntity
  8
R-ANNO-DIMS
  6
Continuous
 62
     0
370
    -2
100
AcDbLine
 10
1.277660529089113
 20
1.717595130219237
 30
0.0
 11
1.277660529089113
 21
2.300095130219238
 31
0.0
  0
LINE
  5
A8A
330
8CB
100
AcDbEntity
  8
R-ANNO-DIMS
  6
Continuous
 62
     0
370
    -2
100
AcDbLine
 10
0.0442481889105868
 20
2.175095130219238
 30
0.0
 11
0.4191686447141359
 21
2.175095130219238
 31
0.0
  0
LINE
  5
A8B
330
8CB
100
AcDbEntity
  8
R-ANNO-DIMS
  6
Continuous
 62
     0
370
    -2
100
AcDbLine
 10
1.152660529089113
 20
2.175095130219238
 30
0.0
 11
0.7777400732855644
 21
2.175095130219238
 31
0.0
  0
SOLID
  5
A8C
330
8CB
100
AcDbEntity
  8
R-ANNO-DIMS
  6
Continuous
 62
     0
100
AcDbTrace
 10
0.0442481889105868
 20
2.195928463552572
 30
0.0
 11
0.0442481889105868
 21
2.154261796885905
 31
0.0
 12
-0.0807518110894133
 22
2.175095130219238
 32
0.0
 13
-0.0807518110894133
 23
2.175095130219238
 33
0.0
  0
SOLID
  5
A8D
330
8CB
100
AcDbEntity
  8
R-ANNO-DIMS
  6
Continuous
 62
     0
100
AcDbTrace
 10
1.152660529089113
 20
2.195928463552572
 30
0.0
 11
1.152660529089113
 21
2.154261796885905
 31
0.0
 12
1.277660529089113
 22
2.175095130219238
 32
0.0
 13
1.277660529089113
 23
2.175095130219238
 33
0.0
  0
MTEXT
  5
A8E
330
8CB
100
AcDbEntity
  8
R-ANNO-DIMS
  6
Continuous
 62
     0
100
AcDbMText
 10
0.5984543589998502
 20
2.175095130219238
 30
0.0
 40
0.125
 41
0.0
 71
     5
 72
     1
  1
\A1;1{\H1.000000x;\S3/8;}
  7
SWTSTEXT
 73
     1
 44
1.0
1001
ACAD
1000
MTEXTBEGIN
1070
    73
1070
     1
1070
    44
1040
1.0
1070
    74
1070
     0
1000
MTEXTEND
  0
POINT
  5
A8F
330
8CB
100
AcDbEntity
  8
Defpoints
  6
Continuous
 62
     0
100
AcDbPoint
 10
-0.0807518110894133
 20
1.780095130219239
 30
0.0
  0
POINT
  5
A90
330
8CB
100
AcDbEntity
  8
Defpoints
  6
Continuous
 62
     0
100
AcDbPoint
 10
1.277660529089113
 20
1.655095130219237
 30
0.0
  0
POINT
  5
A91
330
8CB
100
AcDbEntity
  8
Defpoints
  6
Continuous
 62
     0
100
AcDbPoint
 10
1.277660529089113
 20
2.175095130219238
 30
0.0
  0
ENDBLK
  5
8D7
330
8CB
100
AcDbEntity
  8
0
100
AcDbBlockEnd
  0
BLOCK
  5
8EE
330
8E3
100
AcDbEntity
  8
0
100
AcDbBlockBegin
  2
*D5
 70
     1
 10
0.0
 20
0.0
 30
0.0
  3
*D5
  1

  0
LINE
  5
9F7
330
8E3
100
AcDbEntity
  8
R-ANNO-DIMS
  6
Continuous
 62
     0
370
    -2
100
AcDbLine
 10
0.5368699671754978
 20
-0.1982253778564497
 30
0.0
 11
0.5368699671754978
 21
-0.6138959554864649
 31
0.0
  0
LINE
  5
9F8
330
8E3
100
AcDbEntity
  8
R-ANNO-DIMS
  6
Continuous
 62
     0
370
    -2
100
AcDbLine
 10
1.044369967175495
 20
-0.1769048697807594
 30
0.0
 11
1.044369967175495
 21
-0.6138959554864649
 31
0.0
  0
LINE
  5
9F9
330
8E3
100
AcDbEntity
  8
R-ANNO-DIMS
  6
Continuous
 62
     0
370
    -2
100
AcDbLine
 10
0.4118699671754978
 20
-0.4888959554864649
 30
0.0
 11
0.2868699671754977
 21
-0.4888959554864649
 31
0.0
  0
LINE
  5
9FA
330
8E3
100
AcDbEntity
  8
R-ANNO-DIMS
  6
Continuous
 62
     0
370
    -2
100
AcDbLine
 10
1.169369967175495
 20
-0.4888959554864649
 30
0.0
 11
1.294369967175495
 21
-0.4888959554864649
 31
0.0
  0
SOLID
  5
9FB
330
8E3
100
AcDbEntity
  8
R-ANNO-DIMS
  6
Continuous
 62
     0
100
AcDbTrace
 10
0.4118699671754978
 20
-0.4680626221531316
 30
0.0
 11
0.4118699671754978
 21
-0.5097292888197983
 31
0.0
 12
0.5368699671754978
 22
-0.4888959554864649
 32
0.0
 13
0.5368699671754978
 23
-0.4888959554864649
 33
0.0
  0
SOLID
  5
9FC
330
8E3
100
AcDbEntity
  8
R-ANNO-DIMS
  6
Continuous
 62
     0
100
AcDbTrace
 10
1.169369967175495
 20
-0.4680626221531316
 30
0.0
 11
1.169369967175495
 21
-0.5097292888197983
 31
0.0
 12
1.044369967175495
 22
-0.4888959554864649
 32
0.0
 13
1.044369967175495
 23
-0.4888959554864649
 33
0.0
  0
MTEXT
  5
9FD
330
8E3
100
AcDbEntity
  8
R-ANNO-DIMS
  6
Continuous
 62
     0
100
AcDbMText
 10
0.7906199671754967
 20
-0.4888959554864649
 30
0.0
 40
0.1
 41
0.0
 71
     5
 72
     1
  1
\A1;{\H1.000000x;\S1/2;}
  7
SWTSTEXT
 73
     1
 44
1.0
1001
ACAD
1000
MTEXTBEGIN
1070
    73
1070
     1
1070
    44
1040
1.0
1070
    74
1070
     0
1000
MTEXTEND
  0
POINT
  5
9FE
330
8E3
100
AcDbEntity
  8
Defpoints
  6
Continuous
 62
     0
100
AcDbPoint
 10
0.5368699671754978
 20
-0.1357253778564497
 30
0.0
  0
POINT
  5
9FF
330
8E3
100
AcDbEntity
  8
Defpoints
  6
Continuous
 62
     0
100
AcDbPoint
 10
1.044369967175495
 20
-0.1144048697807594
 30
0.0
  0
POINT
  5
A00
330
8E3
100
AcDbEntity
  8
Defpoints
  6
Continuous
 62
     0
100
AcDbPoint
 10
1.044369967175495
 20
-0.4888959554864649
 30
0.0
  0
ENDBLK
  5
8EF
330
8E3
100
AcDbEntity
  8
0
100
AcDbBlockEnd
  0
BLOCK
  5
906
330
8FB
100
AcDbEntity
  8
0
100
AcDbBlockBegin
  2
*D6
 70
     1
 10
0.0
 20
0.0
 30
0.0
  3
*D6
  1

  0
LINE
  5
A15
330
8FB
100
AcDbEntity
  8
R-ANNO-DIMS
  6
Continuous
 62
     0
370
    -2
100
AcDbLine
 10
1.1815964644836
 20
1.925095130219238
 30
0.0
 11
1.652660529089113
 21
1.925095130219238
 31
0.0
  0
LINE
  5
A16
330
8FB
100
AcDbEntity
  8
R-ANNO-DIMS
  6
Continuous
 62
     0
370
    -2
100
AcDbLine
 10
1.320160529089113
 20
1.635095130219237
 30
0.0
 11
1.652660529089113
 21
1.635095130219237
 31
0.0
  0
LINE
  5
A17
330
8FB
100
AcDbEntity
  8
R-ANNO-DIMS
  6
Continuous
 62
     0
370
    -2
100
AcDbLine
 10
1.527660529089113
 20
2.050095130219238
 30
0.0
 11
1.527660529089113
 21
2.175095130219238
 31
0.0
  0
LINE
  5
A18
330
8FB
100
AcDbEntity
  8
R-ANNO-DIMS
  6
Continuous
 62
     0
370
    -2
100
AcDbLine
 10
1.527660529089113
 20
1.510095130219237
 30
0.0
 11
1.527660529089113
 21
1.385095130219237
 31
0.0
  0
SOLID
  5
A19
330
8FB
100
AcDbEntity
  8
R-ANNO-DIMS
  6
Continuous
 62
     0
100
AcDbTrace
 10
1.50682719575578
 20
2.050095130219238
 30
0.0
 11
1.548493862422446
 21
2.050095130219238
 31
0.0
 12
1.527660529089113
 22
1.925095130219238
 32
0.0
 13
1.527660529089113
 23
1.925095130219238
 33
0.0
  0
SOLID
  5
A1A
330
8FB
100
AcDbEntity
  8
R-ANNO-DIMS
  6
Continuous
 62
     0
100
AcDbTrace
 10
1.50682719575578
 20
1.510095130219237
 30
0.0
 11
1.548493862422446
 21
1.510095130219237
 31
0.0
 12
1.527660529089113
 22
1.635095130219237
 32
0.0
 13
1.527660529089113
 23
1.635095130219237
 33
0.0
  0
MTEXT
  5
A1B
330
8FB
100
AcDbEntity
  8
R-ANNO-DIMS
  6
Continuous
 62
     0
100
AcDbMText
 10
1.527660529089112
 20
1.780095130219238
 30
0.0
 40
0.125
 41
0.0
 71
     5
 72
     1
  1
\A1;{\H1.000000x;\S9/32;}
  7
SWTSTEXT
 73
     1
 44
1.0
1001
ACAD
1000
MTEXTBEGIN
1070
    73
1070
     1
1070
    44
1040
1.0
1070
    74
1070
     0
1000
MTEXTEND
  0
POINT
  5
A1C
330
8FB
100
AcDbEntity
  8
Defpoints
  6
Continuous
 62
     0
100
AcDbPoint
 10
1.1190964644836
 20
1.925095130219238
 30
0.0
  0
POINT
  5
A1D
330
8FB
100
AcDbEntity
  8
Defpoints
  6
Continuous
 62
     0
100
AcDbPoint
 10
1.257660529089113
 20
1.635095130219237
 30
0.0
  0
POINT
  5
A1E
330
8FB
100
AcDbEntity
  8
Defpoints
  6
Continuous
 62
     0
100
AcDbPoint
 10
1.527660529089113
 20
1.635095130219237
 30
0.0
  0
ENDBLK
  5
907
330
8FB
100
AcDbEntity
  8
0
100
AcDbBlockEnd
  0
BLOCK
  5
9EB
330
9E0
100
AcDbEntity
  8
0
100
AcDbBlockBegin
  2
*D7
 70
     1
 10
0.0
 20
0.0
 30
0.0
  3
*D7
  1

  0
LINE
  5
9ED
330
9E0
100
AcDbEntity
  8
R-ANNO-DIMS
  6
Continuous
 62
     0
370
    -2
100
AcDbLine
 10
2.97573028343957
 20
1.63559513021924
 30
0.0
 11
3.28823028343957
 21
1.63559513021924
 31
0.0
  0
LINE
  5
9EE
330
9E0
100
AcDbEntity
  8
R-ANNO-DIMS
  6
Continuous
 62
     0
370
    -2
100
AcDbLine
 10
2.632787744340261
 20
-0.1144048697807594
 30
0.0
 11
3.28823028343957
 21
-0.1144048697807596
 31
0.0
  0
LINE
  5
9EF
330
9E0
100
AcDbEntity
  8
R-ANNO-DIMS
  6
Continuous
 62
     0
370
    -2
100
AcDbLine
 10
3.16323028343957
 20
1.51059513021924
 30
0.0
 11
3.16323028343957
 21
0.9672617968859071
 31
0.0
  0
LINE
  5
9F0
330
9E0
100
AcDbEntity
  8
R-ANNO-DIMS
  6
Continuous
 62
     0
370
    -2
100
AcDbLine
 10
3.16323028343957
 20
0.0105951302192405
 30
0.0
 11
3.16323028343957
 21
0.5539284635525739
 31
0.0
  0
SOLID
  5
9F1
330
9E0
100
AcDbEntity
  8
R-ANNO-DIMS
  6
Continuous
 62
     0
100
AcDbTrace
 10
3.142396950106237
 20
1.51059513021924
 30
0.0
 11
3.184063616772904
 21
1.51059513021924
 31
0.0
 12
3.16323028343957
 22
1.63559513021924
 32
0.0
 13
3.16323028343957
 23
1.63559513021924
 33
0.0
  0
SOLID
  5
9F2
330
9E0
100
AcDbEntity
  8
R-ANNO-DIMS
  6
Continuous
 62
     0
100
AcDbTrace
 10
3.142396950106236
 20
0.0105951302192405
 30
0.0
 11
3.184063616772903
 21
0.0105951302192405
 31
0.0
 12
3.16323028343957
 22
-0.1144048697807595
 32
0.0
 13
3.16323028343957
 23
-0.1144048697807595
 33
0.0
  0
MTEXT
  5
9F3
330
9E0
100
AcDbEntity
  8
R-ANNO-DIMS
  6
Continuous
 62
     0
100
AcDbMText
 10
3.16323028343957
 20
0.760595130219241
 30
0.0
 40
0.1
 41
0.0
 71
     5
 72
     1
  1
\A1;1{\H1.000000x;\S3/4;}
  7
SWTSTEXT
 73
     1
 44
1.0
1001
ACAD
1000
MTEXTBEGIN
1070
    73
1070
     1
1070
    44
1040
1.0
1070
    74
1070
     0
1000
MTEXTEND
  0
POINT
  5
9F4
330
9E0
100
AcDbEntity
  8
Defpoints
  6
Continuous
 62
     0
100
AcDbPoint
 10
2.91323028343957
 20
1.63559513021924
 30
0.0
  0
POINT
  5
9F5
330
9E0
100
AcDbEntity
  8
Defpoints
  6
Continuous
 62
     0
100
AcDbPoint
 10
2.570287744340261
 20
-0.1144048697807594
 30
0.0
  0
POINT
  5
9F6
330
9E0
100
AcDbEntity
  8
Defpoints
  6
Continuous
 62
     0
100
AcDbPoint
 10
3.16323028343957
 20
-0.1144048697807595
 30
0.0
  0
ENDBLK
  5
9EC
330
9E0
100
AcDbEntity
  8
0
100
AcDbBlockEnd
  0
BLOCK
  5
A3F
330
A3C
100
AcDbEntity
  8
0
100
AcDbBlockBegin
  2
P2
 70
     0
 10
0.0
 20
0.0
 30
0.0
  3
P2
  1

  0
LWPOLYLINE
  5
A40
330
A3C
100
AcDbEntity
  8
R-SWTS-DET1
  6
Continuous
100
AcDbPolyline
 90
        8
 70
   129
 43
0.0
 10
-0.0140000000000002
 20
0.0124999999999993
 42
-0.4142135623730951
 10
-0.0070000000000006
 20
0.0194999999999994
 10
0.0070000000000001
 20
0.0194999999999994
 42
-0.4142135623730951
 10
0.0140000000000002
 20
0.0124999999999994
 10
0.0140000000000002
 20
-0.2535000000000008
 42
-0.4142135623730951
 10
0.0070000000000001
 20
-0.2605000000000008
 10
-0.0070000000000006
 20
-0.2605000000000006
 42
-0.4142135623730951
 10
-0.0140000000000002
 20
-0.2535000000000007
  0
LINE
  5
A41
330
A3C
100
AcDbEntity
  8
R-SWTS-DET1
  6
Continuous
100
AcDbLine
 10
-0.2309999999999999
 20
0.0419999999999993
 30
0.0
 11
-0.0140000000000002
 21
-0.0605000000000007
 31
0.0
  0
LINE
  5
A42
330
A3C
100
AcDbEntity
  8
R-SWTS-DET1
  6
Continuous
100
AcDbLine
 10
-0.0140000000000002
 20
-0.1805000000000008
 30
0.0
 11
-0.2309999999999999
 21
-0.2830000000000007
 31
0.0
  0
LINE
  5
A43
330
A3C
100
AcDbEntity
  8
R-SWTS-DET1
  6
Continuous
100
AcDbLine
 10
-0.2338709240862729
 20
0.0357775479026256
 30
0.0
 11
-0.0140000000000002
 21
-0.0632750695639295
 31
0.0
  0
LINE
  5
A44
330
A3C
100
AcDbEntity
  8
R-SWTS-DET1
  6
Continuous
100
AcDbLine
 10
-0.2366293122519796
 20
0.0295043979808921
 30
0.0
 11
-0.0140000000000002
 21
-0.0660054613996237
 31
0.0
  0
LINE
  5
A45
330
A3C
100
AcDbEntity
  8
R-SWTS-DET1
  6
Continuous
100
AcDbLine
 10
-0.2392742696515029
 20
0.0231825853003424
 30
0.0
 11
-0.0140000000000002
 21
-0.0686939761228103
 31
0.0
  0
LINE
  5
A46
330
A3C
100
AcDbEntity
  8
R-SWTS-DET1
  6
Continuous
100
AcDbLine
 10
-0.2418049382371743
 20
0.0168141607131504
 30
0.0
 11
-0.0140000000000002
 21
-0.0713432755231756
 31
0.0
  0
LINE
  5
A47
330
A3C
100
AcDbEntity
  8
R-SWTS-DET1
  6
Continuous
100
AcDbLine
 10
-0.24422049703763
 20
0.010401190192807
 30
0.0
 11
-0.0140000000000002
 21
-0.0739558940983848
 31
0.0
  0
LINE
  5
A48
330
A3C
100
AcDbEntity
  8
R-SWTS-DET1
  6
Continuous
100
AcDbLine
 10
-0.2465201624241455
 20
0.0039457541638994
 30
0.0
 11
-0.0140000000000002
 21
-0.076534249653321
 31
0.0
  0
LINE
  5
A49
330
A3C
100
AcDbEntity
  8
R-SWTS-DET1
  6
Continuous
100
AcDbLine
 10
-0.2487031883648463
 20
-0.0025500531727971
 30
0.0
 11
-0.0140000000000002
 21
-0.0790806530631403
 31
0.0
  0
LINE
  5
A4A
330
A3C
100
AcDbEntity
  8
R-SWTS-DET1
  6
Continuous
100
AcDbLine
 10
-0.2507688666667311
 20
-0.0090841245196971
 30
0.0
 11
-0.0140000000000002
 21
-0.0815973172879551
 31
0.0
  0
LINE
  5
A4B
330
A3C
100
AcDbEntity
  8
R-SWTS-DET1
  6
Continuous
100
AcDbLine
 10
-0.2527165272054139
 20
-0.0156543401660292
 30
0.0
 11
-0.0140000000000002
 21
-0.0840863657175433
 31
0.0
  0
LINE
  5
A4C
330
A3C
100
AcDbEntity
  8
R-SWTS-DET1
  6
Continuous
100
AcDbLine
 10
-0.2545455381425214
 20
-0.0222585686754919
 30
0.0
 11
-0.0140000000000002
 21
-0.0865498399162715
 31
0.0
  0
LINE
  5
A4D
330
A3C
100
AcDbEntity
  8
R-SWTS-DET1
  6
Continuous
100
AcDbLine
 10
-0.2562553061306616
 20
-0.0288946675777073
 30
0.0
 11
-0.0140000000000002
 21
-0.0889897068312443
 31
0.0
  0
LINE
  5
A4E
330
A3C
100
AcDbEntity
  8
R-SWTS-DET1
  6
Continuous
100
AcDbLine
 10
-0.2578452765059156
 20
-0.0355604840632602
 30
0.0
 11
-0.0140000000000002
 21
-0.0914078655204371
 31
0.0
  0
LINE
  5
A4F
330
A3C
100
AcDbEntity
  8
R-SWTS-DET1
  6
Continuous
100
AcDbLine
 10
-0.2593149334677749
 20
-0.0422538556820869
 30
0.0
 11
-0.0140000000000002
 21
-0.0938061534520709
 31
0.0
  0
LINE
  5
A50
330
A3C
100
AcDbEntity
  8
R-SWTS-DET1
  6
Continuous
100
AcDbLine
 10
-0.2606638002464687
 20
-0.0489726110449937
 30
0.0
 11
-0.0140000000000002
 21
-0.0961863524217204
 31
0.0
  0
LINE
  5
A51
330
A3C
100
AcDbEntity
  8
R-SWTS-DET1
  6
Continuous
100
AcDbLine
 10
-0.2618914392576364
 20
-0.0557145705280751
 30
0.0
 11
-0.0140000000000002
 21
-0.0985501941294355
 31
0.0
  0
LINE
  5
A52
330
A3C
100
AcDbEntity
  8
R-SWTS-DET1
  6
Continuous
100
AcDbLine
 10
-0.2629974522442806
 20
-0.0624775469798034
 30
0.0
 11
-0.0140000000000002
 21
-0.1008993654555389
 31
0.0
  0
LINE
  5
A53
330
A3C
100
AcDbEntity
  8
R-SWTS-DET1
  6
Continuous
100
AcDbLine
 10
-0.2639814804059659
 20
-0.0692593464305582
 30
0.0
 11
-0.0140000000000002
 21
-0.1032355134705527
 31
0.0
  0
LINE
  5
A54
330
A3C
100
AcDbEntity
  8
R-SWTS-DET1
  6
Continuous
100
AcDbLine
 10
-0.2648432045152185
 20
-0.0760577688043733
 30
0.0
 11
-0.0140000000000002
 21
-0.105560250211978
 31
0.0
  0
LINE
  5
A55
330
A3C
100
AcDbEntity
  8
R-SWTS-DET1
  6
Continuous
100
AcDbLine
 10
-0.2655823450210848
 20
-0.0828706086326565
 30
0.0
 11
-0.0140000000000002
 21
-0.1078751572582554
 31
0.0
  0
LINE
  5
A56
330
A3C
100
AcDbEntity
  8
R-SWTS-DET1
  6
Continuous
100
AcDbLine
 10
-0.2661986621398205
 20
-0.0896956557696669
 30
0.0
 11
-0.0140000000000002
 21
-0.1101817901281965
 31
0.0
  0
LINE
  5
A57
330
A3C
100
AcDbEntity
  8
R-SWTS-DET1
  6
Continuous
100
AcDbLine
 10
-0.2666919559326795
 20
-0.0965306961095025
 30
0.0
 11
-0.0140000000000002
 21
-0.1124816825324524
 31
0.0
  0
LINE
  5
A58
330
A3C
100
AcDbEntity
  8
R-SWTS-DET1
  6
Continuous
100
AcDbLine
 10
-0.2670620663707743
 20
-0.1033735123043789
 30
0.0
 11
-0.0140000000000002
 21
-0.114776350502114
 31
0.0
  0
LINE
  5
A59
330
A3C
100
AcDbEntity
  8
R-SWTS-DET1
  6
Continuous
100
AcDbLine
 10
-0.2673088733869919
 20
-0.1102218844839558
 30
0.0
 11
-0.0140000000000002
 21
-0.1170672964183622
 31
0.0
  0
LINE
  5
A5A
330
A3C
100
AcDbEntity
  8
R-SWTS-DET1
  6
Continuous
100
AcDbLine
 10
-0.2674322969149454
 20
-0.1170735909754803
 30
0.0
 11
-0.0140000000000002
 21
-0.1193560129661121
 31
0.0
  0
LINE
  5
A5B
330
A3C
100
AcDbEntity
  8
R-SWTS-DET1
  6
Continuous
100
AcDbLine
 10
-0.2674322969149454
 20
-0.1239264090245207
 30
0.0
 11
-0.0140000000000002
 21
-0.1216439870338891
 31
0.0
  0
LINE
  5
A5C
330
A3C
100
AcDbEntity
  8
R-SWTS-DET1
  6
Continuous
100
AcDbLine
 10
-0.2673088733869919
 20
-0.1307781155160455
 30
0.0
 11
-0.0140000000000002
 21
-0.123932703581639
 31
0.0
  0
LINE
  5
A5D
330
A3C
100
AcDbEntity
  8
R-SWTS-DET1
  6
Continuous
100
AcDbLine
 10
-0.2670620663707743
 20
-0.1376264876956224
 30
0.0
 11
-0.0140000000000002
 21
-0.1262236494978872
 31
0.0
  0
LINE
  5
A5E
330
A3C
100
AcDbEntity
  8
R-SWTS-DET1
  6
Continuous
100
AcDbLine
 10
-0.2666919559326795
 20
-0.1444693038904992
 30
0.0
 11
-0.0140000000000002
 21
-0.1285183174675493
 31
0.0
  0
LINE
  5
A5F
330
A3C
100
AcDbEntity
  8
R-SWTS-DET1
  6
Continuous
100
AcDbLine
 10
-0.2661986621398205
 20
-0.1513043442303348
 30
0.0
 11
-0.0140000000000002
 21
-0.1308182098718051
 31
0.0
  0
LINE
  5
A60
330
A3C
100
AcDbEntity
  8
R-SWTS-DET1
  6
Continuous
100
AcDbLine
 10
-0.2655823450210848
 20
-0.1581293913673445
 30
0.0
 11
-0.0140000000000002
 21
-0.1331248427417456
 31
0.0
  0
LINE
  5
A61
330
A3C
100
AcDbEntity
  8
R-SWTS-DET1
  6
Continuous
100
AcDbLine
 10
-0.2648432045152185
 20
-0.1649422311956279
 30
0.0
 11
-0.0140000000000002
 21
-0.135439749788023
 31
0.0
  0
LINE
  5
A62
330
A3C
100
AcDbEntity
  8
R-SWTS-DET1
  6
Continuous
100
AcDbLine
 10
-0.2639814804059659
 20
-0.1717406535694426
 30
0.0
 11
-0.0140000000000002
 21
-0.1377644865294485
 31
0.0
  0
LINE
  5
A63
330
A3C
100
AcDbEntity
  8
R-SWTS-DET1
  6
Continuous
100
AcDbLine
 10
-0.2629974522442806
 20
-0.1785224530201979
 30
0.0
 11
-0.0140000000000002
 21
-0.1401006345444625
 31
0.0
  0
LINE
  5
A64
330
A3C
100
AcDbEntity
  8
R-SWTS-DET1
  6
Continuous
100
AcDbLine
 10
-0.2618914392576364
 20
-0.1852854294719262
 30
0.0
 11
-0.0140000000000002
 21
-0.1424498058705658
 31
0.0
  0
LINE
  5
A65
330
A3C
100
AcDbEntity
  8
R-SWTS-DET1
  6
Continuous
100
AcDbLine
 10
-0.2606638002464687
 20
-0.1920273889550077
 30
0.0
 11
-0.0140000000000002
 21
-0.1448136475782812
 31
0.0
  0
LINE
  5
A66
330
A3C
100
AcDbEntity
  8
R-SWTS-DET1
  6
Continuous
100
AcDbLine
 10
-0.2593149334677749
 20
-0.1987461443179144
 30
0.0
 11
-0.0140000000000002
 21
-0.1471938465479303
 31
0.0
  0
LINE
  5
A67
330
A3C
100
AcDbEntity
  8
R-SWTS-DET1
  6
Continuous
100
AcDbLine
 10
-0.2578452765059156
 20
-0.205439515936741
 30
0.0
 11
-0.0140000000000002
 21
-0.1495921344795647
 31
0.0
  0
LINE
  5
A68
330
A3C
100
AcDbEntity
  8
R-SWTS-DET1
  6
Continuous
100
AcDbLine
 10
-0.2562553061306612
 20
-0.2121053324222939
 30
0.0
 11
-0.0140000000000002
 21
-0.1520102931687567
 31
0.0
  0
LINE
  5
A69
330
A3C
100
AcDbEntity
  8
R-SWTS-DET1
  6
Continuous
100
AcDbLine
 10
-0.254545538142521
 20
-0.2187414313245095
 30
0.0
 11
-0.0140000000000002
 21
-0.1544501600837297
 31
0.0
  0
LINE
  5
A6A
330
A3C
100
AcDbEntity
  8
R-SWTS-DET1
  6
Continuous
100
AcDbLine
 10
-0.2527165272054144
 20
-0.2253456598339723
 30
0.0
 11
-0.0140000000000002
 21
-0.1569136342824581
 31
0.0
  0
LINE
  5
A6B
330
A3C
100
AcDbEntity
  8
R-SWTS-DET1
  6
Continuous
100
AcDbLine
 10
-0.2507688666667311
 20
-0.2319158754803041
 30
0.0
 11
-0.0140000000000002
 21
-0.1594026827120464
 31
0.0
  0
LINE
  5
A6C
330
A3C
100
AcDbEntity
  8
R-SWTS-DET1
  6
Continuous
100
AcDbLine
 10
-0.2487031883648467
 20
-0.2384499468272041
 30
0.0
 11
-0.0140000000000002
 21
-0.1619193469368612
 31
0.0
  0
LINE
  5
A6D
330
A3C
100
AcDbEntity
  8
R-SWTS-DET1
  6
Continuous
100
AcDbLine
 10
-0.246520162424146
 20
-0.2449457541639008
 30
0.0
 11
-0.0140000000000002
 21
-0.1644657503466804
 31
0.0
  0
LINE
  5
A6E
330
A3C
100
AcDbEntity
  8
R-SWTS-DET1
  6
Continuous
100
AcDbLine
 10
-0.2442204970376305
 20
-0.2514011901928081
 30
0.0
 11
-0.0140000000000002
 21
-0.1670441059016163
 31
0.0
  0
LINE
  5
A6F
330
A3C
100
AcDbEntity
  8
R-SWTS-DET1
  6
Continuous
100
AcDbLine
 10
-0.2418049382371743
 20
-0.2578141607131514
 30
0.0
 11
-0.0140000000000002
 21
-0.1696567244768259
 31
0.0
  0
LINE
  5
A70
330
A3C
100
AcDbEntity
  8
R-SWTS-DET1
  6
Continuous
100
AcDbLine
 10
-0.2392742696515029
 20
-0.2641825853003437
 30
0.0
 11
-0.0140000000000002
 21
-0.1723060238771911
 31
0.0
  0
LINE
  5
A71
330
A3C
100
AcDbEntity
  8
R-SWTS-DET1
  6
Continuous
100
AcDbLine
 10
-0.2366293122519796
 20
-0.2705043979808934
 30
0.0
 11
-0.0140000000000002
 21
-0.1749945386003775
 31
0.0
  0
LINE
  5
A72
330
A3C
100
AcDbEntity
  8
R-SWTS-DET1
  6
Continuous
100
AcDbLine
 10
-0.2338709240862729
 20
-0.2767775479026269
 30
0.0
 11
-0.0140000000000002
 21
-0.1777249304360722
 31
0.0
  0
LINE
  5
A73
330
A3C
100
AcDbEntity
  8
R-SWTS-DET1
  6
Continuous
100
AcDbLine
 10
-0.2309999999999999
 20
-0.2830000000000008
 30
0.0
 11
-0.0140000000000002
 21
-0.1805000000000008
 31
0.0
  0
ENDBLK
  5
A74
330
A3C
100
AcDbEntity
  8
0
100
AcDbBlockEnd
  0
ENDSEC
  0
SECTION
  2
ENTITIES
  0
MTEXT
  5
10C
330
A
100
AcDbEntity
  8
R-ANNO-TEXT
  6
Continuous
100
AcDbMText
 10
1.456787398080744
 20
-1.414888790593273
 30
0.0
 40
0.125
 41
0.0
 71
     5
 72
     1
  1
3494_S
  7
SWTSTEXT
 73
     1
 44
1.0
1001
ACAD
1000
MTEXTBEGIN
1070
    73
1070
     1
1070
    44
1040
1.0
1070
    74
1070
     0
1000
MTEXTEND
  0
INSERT
  5
77A
330
A
100
AcDbEntity
  8
R-SWTS-DET1
100
AcDbBlockReference
  2
S4
 10
0.1618699671754968
 20
1.842595130219238
 30
0.0
  0
INSERT
  5
77C
330
A
100
AcDbEntity
  8
R-SWTS-DET2
100
AcDbBlockReference
  2
8x100CountersunkSMS-Phillips
 10
1.081869967175496
 20
0.7605951302192385
 30
0.0
 50
180.0
  0
INSERT
  5
7C0
330
A
100
AcDbEntity
  8
R-ANNO-DIMS
  6
Continuous
100
AcDbBlockReference
  2
Logo
 10
-0.2750000000000002
 20
-1.414888790593273
 30
0.0
  0
LWPOLYLINE
  5
8C9
330
A
100
AcDbEntity
  8
R-SWTS-DET1
100
AcDbPolyline
 90
       92
 70
     1
 43
0.0
 10
0.6268699671754976
 20
-0.0294048697807625
 42
-0.4142135623730961
 10
0.6018699671754973
 20
-0.0544048697807629
 10
0.6018699671754973
 20
-0.0544048697807629
 42
-0.4142135623730951
 10
0.5768699671754969
 20
-0.0294048697807625
 10
0.5768699671754969
 20
-0.0144048697807611
 42
0.4142135623731082
 10
0.5568699671754965
 20
0.0055951302192385
 10
0.5568699671754973
 20
0.0055951302192376
 42
0.4142135623730969
 10
0.5368699671754978
 20
-0.014404869780762
 10
0.5368699671754978
 20
-0.13572537785645
 42
0.1316524975873998
 10
0.5382097131376536
 20
-0.1407253778564499
 10
0.5633629401727993
 20
-0.1842920450556402
 42
0.1494249374451033
 10
0.5676385661909529
 20
-0.1882795384285991
 42
0.227779158616168
 10
1.000719094932719
 20
-0.1908656540944858
 42
-0.11093799193955
 10
1.004996077487863
 20
-0.1899048697807615
 10
1.286869967175496
 20
-0.1899048697807616
 10
1.286869967175498
 20
-0.1824941996821999
 42
0.3888787318529869
 10
1.250356196885404
 20
-0.1426464117585297
 10
1.161869967175492
 20
-0.1349048697807619
 10
0.9922695776911979
 20
-0.1349048697807618
 42
0.1176292508220386
 10
0.9877553005370064
 20
-0.1359817928576827
 42
-0.1882989178723666
 10
0.6655546492918894
 20
-0.1670492305363362
 42
-0.59723676726865
 10
0.6541341438101083
 20
-0.1154726486793338
 42
0.2180762175080076
 10
0.6818699671754965
 20
-0.0549048697807635
 10
0.6818699671754956
 20
0.2680951302192378
 10
0.9818699671754963
 20
0.2680951302192387
 42
0.414213562373094
 10
1.036869967175495
 20
0.3230951302192384
 10
1.036869967175497
 20
1.198095130219238
 42
0.4142135623730953
 10
0.9818699671754973
 20
1.253095130219239
 10
0.5918699671754969
 20
1.253095130219238
 10
0.591869967175497
 20
1.850095130219238
 10
1.10466270775386
 20
1.850095130219238
 10
1.228793015629631
 20
1.635095130219238
 10
1.257660529089114
 20
1.635095130219237
 42
0.5773502691896228
 10
1.274981037164802
 20
1.665095130219237
 10
1.127756718521444
 20
1.920095130219238
 42
0.2679491924311216
 10
1.1190964644836
 20
1.925095130219238
 10
0.9818699671754975
 20
1.925095130219238
 10
0.9703229617917035
 20
1.905095130219238
 10
0.8684169725592907
 20
1.905095130219238
 10
0.8568699671754966
 20
1.925095130219238
 10
0.7318699671754976
 20
1.925095130219238
 10
0.7203229617917036
 20
1.905095130219238
 10
0.6184169725592908
 20
1.905095130219238
 10
0.6068699671754976
 20
1.925095130219238
 10
0.4818699671754976
 20
1.925095130219238
 10
0.4703229617917036
 20
1.905095130219238
 10
0.3684169725592907
 20
1.905095130219238
 10
0.3568699671754976
 20
1.925095130219238
 10
0.2318699671754976
 20
1.925095130219238
 10
0.2203229617917035
 20
1.905095130219238
 10
0.1184169725592907
 20
1.905095130219238
 10
0.1068699671754976
 20
1.925095130219239
 10
0.0056434698673931
 20
1.925095130219239
 42
0.2679491924311233
 10
-0.0030167841704509
 20
1.920095130219239
 10
-0.0780723191651021
 20
1.790095130219239
 42
0.5773502691896273
 10
-0.0607518110894123
 20
1.760095130219238
 10
0.056369967175498
 20
1.760095130219238
 42
0.4142135623730959
 10
0.0763699671754976
 20
1.780095130219237
 42
0.4142135623730971
 10
0.056369967175498
 20
1.800095130219239
 10
0.0413699671754966
 20
1.800095130219238
 42
-0.4142135623731003
 10
0.0163699671754962
 20
1.825095130219238
 10
0.0163699671754962
 20
1.825095130219238
 42
-0.4142135623730855
 10
0.0413699671754966
 20
1.850095130219239
 10
0.2823699671754971
 20
1.850095130219237
 42
-0.4142135623730936
 10
0.3073699671754975
 20
1.825095130219237
 10
0.3073699671754975
 20
1.825095130219238
 42
-0.4142135623730919
 10
0.2823699671754971
 20
1.800095130219238
 10
0.2673699671754965
 20
1.800095130219237
 42
0.4142135623730951
 10
0.247369967175497
 20
1.780095130219237
 10
0.247369967175497
 20
1.780095130219238
 42
0.4142135623730951
 10
0.2673699671754965
 20
1.760095130219238
 10
0.3523699671754974
 20
1.760095130219237
 42
0.4142135623730951
 10
0.3623699671754972
 20
1.770095130219237
 10
0.3623699671754972
 20
1.850095130219238
 10
0.5368699671754973
 20
1.850095130219238
 10
0.5368699671754971
 20
1.16609513021924
 10
0.5668699671754965
 20
1.136095130219239
 10
0.5918699671754969
 20
1.136095130219239
 10
0.5918699671754995
 20
1.19809513021924
 10
0.9818699671754973
 20
1.198095130219238
 10
0.981869967175497
 20
0.3230951302192393
 10
0.5918699671754993
 20
0.3230951302192375
 10
0.5918699671754966
 20
0.3850951302192387
 10
0.5668699671754962
 20
0.3850951302192387
 10
0.5368699671754969
 20
0.3550951302192384
 10
0.5368699671754969
 20
0.1965951302192375
 42
0.4142135623730951
 10
0.5568699671754965
 20
0.1765951302192379
 10
0.5568699671754965
 20
0.1765951302192379
 42
0.4142135623730951
 10
0.5768699671754987
 20
0.1965951302192375
 10
0.5768699671754978
 20
0.2115951302192363
 42
-0.4142135623731015
 10
0.6018699671754982
 20
0.2365951302192375
 42
-0.414213562373094
 10
0.6268699671754967
 20
0.211595130219238
  0
DIMENSION
  5
8CA
330
A
100
AcDbEntity
  8
R-ANNO-DIMS
  6
Continuous
100
AcDbDimension
  2
*D4
 10
1.277660529089113
 20
2.175095130219238
 30
0.0
 11
0.5984543589998502
 21
2.175095130219238
 31
0.0
 70
    32
 71
     5
 42
1.358412340178526
  3
SCADMECH
100
AcDbAlignedDimension
 13
-0.0807518110894133
 23
1.780095130219239
 33
0.0
 14
1.277660529089113
 24
1.655095130219237
 34
0.0
100
AcDbRotatedDimension
  0
DIMENSION
  5
8E2
330
A
100
AcDbEntity
  8
R-ANNO-DIMS
  6
Continuous
100
AcDbDimension
  2
*D5
 10
1.044369967175495
 20
-0.4888959554864649
 30
0.0
 11
0.7906199671754967
 21
-0.4888959554864649
 31
0.0
 70
    32
 71
     5
 42
0.5074999999999978
  3
SCADMECH
100
AcDbAlignedDimension
 13
0.5368699671754978
 23
-0.1357253778564497
 33
0.0
 14
1.044369967175495
 24
-0.1144048697807594
 34
0.0
100
AcDbRotatedDimension
  0
DIMENSION
  5
8FA
330
A
100
AcDbEntity
  8
R-ANNO-DIMS
  6
Continuous
100
AcDbDimension
  2
*D6
 10
1.527660529089113
 20
1.635095130219237
 30
0.0
 11
1.527660529089112
 21
1.780095130219238
 31
0.0
 70
    32
 71
     5
 42
0.2900000000000007
  3
SCADMECH
100
AcDbAlignedDimension
 13
1.1190964644836
 23
1.925095130219238
 33
0.0
 14
1.257660529089113
 24
1.635095130219237
 34
0.0
 50
90.0
100
AcDbRotatedDimension
1001
ACAD
1000
DSTYLE
1002
{
1070
   271
1070
     5
1002
}
  0
LWPOLYLINE
  5
926
330
A
100
AcDbEntity
  8
R-SWTS-DET1
100
AcDbPolyline
 90
       46
 70
     1
 43
0.0
 10
0.8172086095025042
 20
0.9704130674451892
 42
-0.0591686871188308
 10
0.8655049008169582
 20
0.9574721151900629
 10
0.8602883137266513
 20
0.9380035471269323
 42
-0.0227609659298695
 10
0.8761112132447912
 20
0.9305951302192362
 10
0.9135348794440501
 20
0.9305951302192365
 10
0.9718699671754984
 20
1.031634466034092
 10
0.9718699671754984
 20
1.188095130219236
 10
0.8968699671754983
 20
1.188095130219236
 10
0.8968699671754983
 20
1.028923287519211
 42
0.1970167518184109
 10
0.6768699671754986
 20
1.028923287519211
 10
0.6768699671754986
 20
1.188095130219235
 10
0.6018699671754984
 20
1.188095130219236
 10
0.6018699671754975
 20
1.120595130219236
 10
0.5318699671754981
 20
1.120595130219236
 10
0.5318699671754981
 20
0.4005951302192369
 10
0.6018699671754975
 20
0.4005951302192371
 10
0.6018699671754975
 20
0.3330951302192365
 10
0.6768699671754986
 20
0.3330951302192365
 10
0.6768699671754986
 20
0.4922669729192618
 42
0.197016751818411
 10
0.8968699671754983
 20
0.492266972919262
 10
0.8968699671754983
 20
0.3330951302192365
 10
0.9718699671754984
 20
0.3330951302192365
 10
0.9718699671754984
 20
0.4895557944043814
 10
0.9135348794440501
 20
0.5905951302192367
 10
0.8761112132447903
 20
0.5905951302192366
 42
-0.0227609659298679
 10
0.8602883137266521
 20
0.5831867133115414
 10
0.8655049008169582
 20
0.5637181452484104
 42
-0.0591686871188305
 10
0.8172086095025042
 20
0.5507771929932841
 10
0.8119920224121981
 20
0.5702457610564147
 42
-0.0964508343660815
 10
0.7387374152915348
 20
0.5747262047660087
 10
0.7311870902434573
 20
0.5560384945004931
 42
-0.0591686871188306
 10
0.6848278975151166
 20
0.5747688241712894
 10
0.692378222563195
 20
0.5934565344368039
 42
-0.1008566305814877
 10
0.6345086618306722
 20
0.6437617761048367
 10
0.6170536212270344
 20
0.6336841037136103
 42
-0.0591686871188307
 10
0.5920536212270341
 20
0.6769853739028325
 10
0.6095086618306718
 20
0.687063046294059
 42
-0.1990790125038413
 10
0.6095086618306718
 20
0.8341272141444147
 10
0.5920536212270341
 20
0.8442048865356404
 42
-0.0591686871188307
 10
0.6170536212270344
 20
0.8875061567248625
 10
0.6345086618306722
 20
0.8774284843336367
 42
-0.1008566305814864
 10
0.692378222563195
 20
0.927733726001669
 10
0.6848278975151175
 20
0.946421436267185
 42
-0.0591686871188306
 10
0.7311870902434564
 20
0.9651517659379793
 10
0.7387374152915348
 20
0.9464640556724646
 42
-0.0964508343660815
 10
0.8119920224121981
 20
0.9509444993820581
  0
CIRCLE
  5
928
330
A
100
AcDbEntity
  8
R-SWTS-DET1
  6
Continuous
100
AcDbCircle
 10
0.7868699671754981
 20
0.7605951302192369
 30
0.0
 40
0.1875
  0
LWPOLYLINE
  5
9DC
330
A
100
AcDbEntity
  8
R-SWTS-PAT1
  6
PHANTOM
 48
0.5
100
AcDbPolyline
 90
        8
 70
   129
 43
0.0
 10
2.977480213484973
 20
0.6245014321793323
 10
2.715089117683504
 20
0.6245014321793323
 10
2.570287744340261
 20
-0.1144048697807594
 10
1.044369967175495
 20
-0.1144048697807594
 10
1.044369967175495
 20
1.63559513021924
 10
2.91323028343957
 20
1.63559513021924
 10
2.768428910096327
 20
0.896688828259149
 10
2.506037814294856
 20
0.896688828259149
  0
LEADER
  5
9DD
330
A
100
AcDbEntity
  8
R-ANNO-TEXT
  6
Continuous
100
AcDbLeader
  3
SCADMECH
 73
     0
 74
     0
 75
     1
 40
0.4226190476190477
 41
2.559523809523809
 76
     3
 10
1.158814411619937
 20
0.6785951302192402
 30
0.0
 10
2.271251278696395
 20
-0.5588417368572185
 30
0.0
 10
2.396251278696395
 20
-0.5588417368572185
 30
0.0
213
0.0
223
-0.0625
233
0.0
1001
ACAD
1000
DSTYLE
1002
{
1070
   147
1040
0.09
1070
    77
1070
     0
1002
}
  0
MTEXT
  5
9DE
102
{ACAD_REACTORS
330
9DD
102
}
330
A
100
AcDbEntity
  8
R-ANNO-TEXT
  6
Continuous
100
AcDbMText
 10
2.486251278696395
 20
-0.4963417368572185
 30
0.0
 40
0.125
 41
0.0
 71
     4
 72
     1
  1
No. 8 x 1" FHSMS, Phillips\P(Factory Provided)
  7
SWTSTEXT
 73
     1
 44
1.0
1001
ACAD
1000
MTEXTBEGIN
1070
    73
1070
     1
1070
    44
1040
1.0
1070
    74
1070
     0
1000
MTEXTEND
  0
DIMENSION
  5
9DF
330
A
100
AcDbEntity
  8
R-ANNO-DIMS
  6
Continuous
100
AcDbDimension
  2
*D7
 10
3.16323028343957
 20
-0.1144048697807595
 30
0.0
 11
3.16323028343957
 21
0.760595130219241
 31
0.0
 70
    32
 71
     5
 42
1.75
  3
SCADMECH
100
AcDbAlignedDimension
 13
2.91323028343957
 23
1.63559513021924
 33
0.0
 14
2.570287744340261
 24
-0.1144048697807594
 34
0.0
 50
90.0
100
AcDbRotatedDimension
  0
LWPOLYLINE
  5
A0D
330
A
100
AcDbEntity
  8
R-SWTS-PAT1
  6
PHANTOM
 48
0.5
100
AcDbPolyline
 90
        8
 70
   129
 43
0.0
 10
-1.46523745440643
 20
0.6245014321793321
 10
-1.610038827749673
 20
-0.1144048697807596
 10
0.4071363999289397
 20
-0.11440486978076
 10
0.2974769956548124
 20
1.635595130219239
 10
-1.267096288650364
 20
1.63559513021924
 10
-1.411897661993607
 20
0.8966888282591487
 10
-1.674288757795076
 20
0.8966888282591487
 10
-1.20284635860496
 20
0.6245014321793321
  0
INSERT
  5
A7D
330
A
100
AcDbEntity
  8
0
  6
Continuous
100
AcDbBlockReference
  2
P2
 10
0.6029327688590432
 20
-0.029404869780763
 30
0.0
 41
-1.0
 50
180.0
  0
VIEWPORT
  5
302
102
{ACAD_XDICTIONARY
360
ADF
102
}
330
B
100
AcDbEntity
 67
     1
  8
0
100
AcDbViewport
 10
6.242880229737577
 20
5.272915854568665
 30
0.0
 40
16.8663177050056
 41
11.28883169144554
 68
     1
 69
     1
 12
6.242880229737577
 22
5.272915854568665
 13
0.0
 23
0.0
 14
0.5
 24
0.5
 15
0.5
 25
0.5
 16
0.0
 26
0.0
 36
1.0
 17
0.0
 27
0.0
 37
0.0
 42
50.0
 43
0.0
 44
0.0
 45
11.28883169144554
 50
0.0
 51
0.0
 72
   100
 90
    32800
  1

281
     0
 71
     1
 74
     0
110
0.0
120
0.0
130
0.0
111
1.0
121
0.0
131
0.0
112
0.0
122
1.0
132
0.0
 79
     0
146
0.0
  0
VIEWPORT
  5
304
102
{ACAD_XDICTIONARY
360
AE1
102
}
330
B
100
AcDbEntity
 67
     1
  8
R-ANNO-DIMS
100
AcDbViewport
 10
5.375000121086601
 20
4.124999820716737
 30
0.0
 40
8.60000019373856
 41
6.599999713146781
 68
     2
 69
     2
 12
1.073672086861326
 22
-0.4546343390521677
 13
0.0
 23
0.0
 14
1.0
 24
1.0
 15
0.0
 25
0.0
 16
0.0
 26
0.0
 36
1.0
 17
0.0
 27
0.0
 37
0.0
 42
50.0
 43
0.0
 44
0.0
 45
6.599999713146781
 50
0.0
 51
0.0
 72
   100
 90
    32800
  1

281
     0
 71
     1
 74
     0
110
0.0
120
0.0
130
0.0
111
1.0
121
0.0
131
0.0
112
0.0
122
1.0
132
0.0
 79
     0
146
0.0
  0
ENDSEC
  0
SECTION
  2
OBJECTS
  0
DICTIONARY
  5
19
330
0
100
AcDbDictionary
281
     1
  3
ACAD_COLOR
350
A36
  3
ACAD_GROUP
350
1A
  3
ACAD_LAYOUT
350
C6
  3
ACAD_MATERIAL
350
A21
  3
ACAD_MLINESTYLE
350
1B
  3
ACAD_PLOTSETTINGS
350
C7
  3
ACAD_PLOTSTYLENAME
350
C4
  3
ACAD_TABLESTYLE
350
A37
  3
ACAD_VISUALSTYLE
350
A25
  3
AcDbVariableDictionary
350
D0
  3
AcStStandard
350
5C2
  3
ASE_INDEX_DICTIONARY
350
528
  3
DWGPROPS
350
ADA
  0
DICTIONARY
  5
A76
330
2
100
AcDbDictionary
280
     1
281
     1
  3
ACAD_LAYERSTATES
360
A77
  0
DICTIONARY
  5
A3D
330
A3C
100
AcDbDictionary
280
     1
281
     1
  3
ACAD_SORTENTS
360
A3E
  0
DICTIONARY
  5
ADF
330
302
100
AcDbDictionary
280
     1
281
     1
  3
ACAD_XREC_ROUNDTRIP
360
AE0
  0
DICTIONARY
  5
AE1
330
304
100
AcDbDictionary
280
     1
281
     1
  3
ACAD_XREC_ROUNDTRIP
360
AE2
  0
DICTIONARY
  5
A36
102
{ACAD_REACTORS
330
19
102
}
330
19
100
AcDbDictionary
281
     1
  0
DICTIONARY
  5
1A
102
{ACAD_REACTORS
330
19
102
}
330
19
100
AcDbDictionary
281
     1
  0
DICTIONARY
  5
C6
102
{ACAD_REACTORS
330
19
102
}
330
19
100
AcDbDictionary
281
     1
  3
Layout1
350
C9
  3
Model
350
C8
  0
DICTIONARY
  5
A21
102
{ACAD_REACTORS
330
19
102
}
330
19
100
AcDbDictionary
281
     1
  3
ByBlock
350
A23
  3
ByLayer
350
A22
  3
Global
350
A24
  0
DICTIONARY
  5
1B
102
{ACAD_REACTORS
330
19
102
}
330
19
100
AcDbDictionary
281
     1
  3
STANDARD
350
1C
  0
DICTIONARY
  5
C7
102
{ACAD_REACTORS
330
19
102
}
330
19
100
AcDbDictionary
281
     1
  0
ACDBDICTIONARYWDFLT
  5
C4
102
{ACAD_REACTORS
330
19
102
}
330
19
100
AcDbDictionary
281
     1
  3
Normal
350
C5
100
AcDbDictionaryWithDefault
340
C5
  0
DICTIONARY
  5
A37
102
{ACAD_REACTORS
330
19
102
}
330
19
100
AcDbDictionary
281
     1
  3
Standard
350
A38
  0
DICTIONARY
  5
A25
102
{ACAD_REACTORS
330
19
102
}
330
19
100
AcDbDictionary
281
     1
  3
2dWireframe
350
A2B
  3
3D Hidden
350
A2D
  3
3dWireframe
350
A2C
  3
Basic
350
A2A
  3
Brighten
350
A31
  3
ColorChange
350
A35
  3
Conceptual
350
A2E
  3
Dim
350
A30
  3
Facepattern
350
A34
  3
Flat
350
A26
  3
FlatWithEdges
350
A27
  3
Gouraud
350
A28
  3
GouraudWithEdges
350
A29
  3
Linepattern
350
A33
  3
Realistic
350
A2F
  3
Thicken
350
A32
  0
DICTIONARY
  5
D0
102
{ACAD_REACTORS
330
19
102
}
330
19
100
AcDbDictionary
281
     1
  3
CTABLESTYLE
350
ABE
  3
DIMASSOC
350
D1
  3
INDEXCTL
350
AC0
  3
SORTENTS
350
ABF
  0
DICTIONARY
  5
5C2
102
{ACAD_REACTORS
330
19
102
}
330
19
100
AcDbDictionary
281
     1
  3
0
350
A14
  0
DICTIONARY
  5
528
102
{ACAD_REACTORS
330
19
102
}
330
19
100
AcDbDictionary
281
     1
  3
ASEBlockHierarchyIndexRecord
350
52A
1001
DCO15
1040
1621848933.233
  0
XRECORD
  5
ADA
102
{ACAD_REACTORS
330
19
102
}
330
19
100
AcDbXrecord
280
     1
  1
DWGPROPS COOKIE
  2

  3

  4

  6

  7

  8
jasonh
  9

300
=
301
=
302
=
303
=
304
=
305
=
306
=
307
=
308
=
309
=
 40
0.039391087962963
 41
2452213.361540382
 42
2454574.611542049
  1

 90
        0
  0
DICTIONARY
  5
A77
102
{ACAD_REACTORS
330
A76
102
}
330
A76
100
AcDbDictionary
281
     1
  0
SORTENTSTABLE
  5
A3E
102
{ACAD_REACTORS
330
A3D
102
}
330
A3D
100
AcDbSortentsTable
330
A3C
  0
XRECORD
  5
AE0
102
{ACAD_REACTORS
330
ADF
102
}
330
ADF
100
AcDbXrecord
280
     1
102
SHADEPLOT
 70
     0
  0
XRECORD
  5
AE2
102
{ACAD_REACTORS
330
AE1
102
}
330
AE1
100
AcDbXrecord
280
     1
102
SHADEPLOT
 70
     0
  0
LAYOUT
  5
C9
102
{ACAD_XDICTIONARY
360
ADD
102
}
102
{ACAD_REACTORS
330
C6
102
}
330
C6
100
AcDbPlotSettings
  1

  2
HP LaserJet 8150 PS
  4
Letter
  6

 40
3.174999952316284
 41
3.174999952316284
 42
3.175003051757812
 43
3.17498779296875
 44
215.8999938964844
 45
279.3999938964844
 46
0.0
 47
0.0
 48
0.0
 49
0.0
140
0.0
141
0.0
142
1.0
143
1.0
 70
   688
 72
     0
 73
     1
 74
     5
  7

 75
    16
147
1.0
148
0.0
149
0.0
100
AcDbLayout
  1
Layout1
 70
     0
 71
     1
 10
-0.1249995194082185
 20
-0.1249999981226883
 11
10.87500024029589
 21
8.37499976158142
 12
0.0
 22
0.0
 32
0.0
 14
1.074768547797088
 24
0.8247909505127708
 34
-0.0000000349181948
 15
9.675232224313329
 25
7.42520885252717
 35
0.0000000814935746
146
0.0
 13
0.0
 23
0.0
 33
0.0
 16
1.0
 26
0.0
 36
0.0
 17
0.0
 27
1.0
 37
0.0
 76
     0
330
B
331
302
  0
LAYOUT
  5
C8
102
{ACAD_XDICTIONARY
360
ADB
102
}
102
{ACAD_REACTORS
330
C6
102
}
330
C6
100
AcDbPlotSettings
  1

  2
none_device
  4
Letter_(8.50_x_11.00_Inches)
  6

 40
6.349999904632568
 41
6.349999904632568
 42
6.350006103515625
 43
6.350006103515625
 44
215.8999938964844
 45
279.3999938964844
 46
0.0
 47
0.0
 48
0.0
 49
0.0
140
0.0
141
0.0
142
1.0
143
0.7631823860224182
 70
 11952
 72
     0
 73
     1
 74
     0
  7

 75
     0
147
1.310302777310986
148
66.87761041815479
149
56.62108395599806
100
AcDbLayout
  1
Model
 70
     1
 71
     0
 10
0.0
 20
0.0
 11
12.0
 21
9.0
 12
0.0
 22
0.0
 32
0.0
 14
0.0
 24
0.0
 34
0.0
 15
0.0
 25
0.0
 35
0.0
146
0.0
 13
0.0
 23
0.0
 33
0.0
 16
1.0
 26
0.0
 36
0.0
 17
0.0
 27
1.0
 37
0.0
 76
     0
330
A
331
A1F
1001
ACAD_PSEXT
1000
None
1000
None
1000
Not applicable
1000
The layout will not be plotted unless a new plotter configuration name is selected.
1070
     0
  0
MATERIAL
  5
A23
102
{ACAD_XDICTIONARY
360
AE5
102
}
102
{ACAD_REACTORS
330
A21
102
}
330
A21
100
AcDbMaterial
  1
ByBlock
  0
MATERIAL
  5
A22
102
{ACAD_XDICTIONARY
360
AE3
102
}
102
{ACAD_REACTORS
330
A21
102
}
330
A21
100
AcDbMaterial
  1
ByLayer
  0
MATERIAL
  5
A24
102
{ACAD_XDICTIONARY
360
AE7
102
}
102
{ACAD_REACTORS
330
A21
102
}
330
A21
100
AcDbMaterial
  1
Global
  0
MLINESTYLE
  5
1C
102
{ACAD_REACTORS
330
1B
102
}
330
1B
100
AcDbMlineStyle
  2
STANDARD
 70
     0
  3

 62
     0
 51
90.0
 52
90.0
 71
     2
 49
0.5
 62
   256
  6
BYLAYER
 49
-0.5
 62
   256
  6
BYLAYER
  0
ACDBPLACEHOLDER
  5
C5
102
{ACAD_REACTORS
330
C4
102
}
330
C4
  0
TABLESTYLE
  5
A38
102
{ACAD_XDICTIONARY
360
AE9
102
}
102
{ACAD_REACTORS
330
A37
102
}
330
A37
100
AcDbTableStyle
  3
Standard
 70
     0
 71
     0
 40
0.06
 41
0.06
280
     0
281
     0
  7
STANDARD
140
0.18
170
     2
 62
     0
 63
     7
283
     0
274
    -2
284
     1
 64
     0
275
    -2
285
     1
 65
     0
276
    -2
286
     1
 66
     0
277
    -2
287
     1
 67
     0
278
    -2
288
     1
 68
     0
279
    -2
289
     1
 69
     0
  7
STANDARD
140
0.25
170
     5
 62
     0
 63
     7
283
     0
274
    -2
284
     1
 64
     0
275
    -2
285
     1
 65
     0
276
    -2
286
     1
 66
     0
277
    -2
287
     1
 67
     0
278
    -2
288
     1
 68
     0
279
    -2
289
     1
 69
     0
  7
STANDARD
140
0.18
170
     5
 62
     0
 63
     7
283
     0
274
    -2
284
     1
 64
     0
275
    -2
285
     1
 65
     0
276
    -2
286
     1
 66
     0
277
    -2
287
     1
 67
     0
278
    -2
288
     1
 68
     0
279
    -2
289
     1
 69
     0
  0
VISUALSTYLE
  5
A2B
102
{ACAD_REACTORS
330
A25
102
}
330
A25
100
AcDbVisualStyle
  2
2dWireframe
 70
     4
 71
     0
 72
     2
 73
     0
 90
        0
 40
-0.6
 41
-30.0
 62
     5
 63
     7
 74
     1
 91
        4
 64
     7
 65
   257
 75
     1
175
     1
 42
1.0
 92
        0
 66
   257
 43
1.0
 76
     1
 77
     6
 78
     2
 67
     7
 79
     5
170
     0
171
     0
290
     0
174
     0
 93
        1
 44
0.0
173
     0
291
     0
 45
0.0
1001
ACAD
1000
AcDbSavedByObjectVersion
1070
     0
  0
VISUALSTYLE
  5
A2D
102
{ACAD_REACTORS
330
A25
102
}
330
A25
100
AcDbVisualStyle
  2
3D Hidden
 70
     6
 71
     1
 72
     2
 73
     2
 90
        0
 40
-0.6
 41
-30.0
 62
     5
 63
     7
 74
     2
 91
        2
 64
     7
 65
   257
 75
     2
175
     1
 42
40.0
 92
        0
 66
   257
 43
1.0
 76
     1
 77
     6
 78
     2
 67
     7
 79
     3
170
     0
171
     0
290
     0
174
     0
 93
        1
 44
0.0
173
     0
291
     0
 45
0.0
1001
ACAD
1000
AcDbSavedByObjectVersion
1070
     0
  0
VISUALSTYLE
  5
A2C
102
{ACAD_REACTORS
330
A25
102
}
330
A25
100
AcDbVisualStyle
  2
3dWireframe
 70
     5
 71
     0
 72
     2
 73
     0
 90
        0
 40
-0.6
 41
-30.0
 62
     5
 63
     7
 74
     1
 91
        4
 64
     7
 65
   257
 75
     1
175
     1
 42
1.0
 92
        0
 66
   257
 43
1.0
 76
     1
 77
     6
 78
     2
 67
     7
 79
     5
170
     0
171
     0
290
     0
174
     0
 93
        1
 44
0.0
173
     0
291
     0
 45
0.0
1001
ACAD
1000
AcDbSavedByObjectVersion
1070
     0
  0
VISUALSTYLE
  5
A2A
102
{ACAD_REACTORS
330
A25
102
}
330
A25
100
AcDbVisualStyle
  2
Basic
 70
     7
 71
     1
 72
     0
 73
     1
 90
        0
 40
-0.6
 41
-30.0
 62
     5
 63
     7
 74
     0
 91
        4
 64
     7
 65
   257
 75
     1
175
     1
 42
1.0
 92
        8
 66
     7
 43
1.0
 76
     1
 77
     6
 78
     2
 67
     7
 79
     5
170
     0
171
     0
290
     0
174
     0
 93
        1
 44
0.0
173
     0
291
     1
 45
0.0
1001
ACAD
1000
AcDbSavedByObjectVersion
1070
     0
  0
VISUALSTYLE
  5
A31
102
{ACAD_REACTORS
330
A25
102
}
330
A25
100
AcDbVisualStyle
  2
Brighten
 70
    12
 71
     2
 72
     2
 73
     0
 90
        0
 40
-0.6
 41
-30.0
 62
     5
 63
     7
 74
     1
 91
        4
 64
     7
 65
   257
 75
     1
175
     1
 42
1.0
 92
        8
 66
     7
 43
1.0
 76
     1
 77
     6
 78
     2
 67
     7
 79
     5
170
     0
171
     0
290
     0
174
     0
 93
        1
 44
50.0
173
     0
291
     1
 45
0.0
1001
ACAD
1000
AcDbSavedByObjectVersion
1070
     0
  0
VISUALSTYLE
  5
A35
102
{ACAD_REACTORS
330
A25
102
}
330
A25
100
AcDbVisualStyle
  2
ColorChange
 70
    16
 71
     2
 72
     2
 73
     3
 90
        0
 40
-0.6
 41
-30.0
 62
     5
 63
     8
 74
     1
 91
        4
 64
     7
 65
   257
 75
     1
175
     1
 42
1.0
 92
        8
 66
     8
 43
1.0
 76
     1
 77
     6
 78
     2
 67
     7
 79
     5
170
     0
171
     0
290
     0
174
     0
 93
        1
 44
0.0
173
     0
291
     1
 45
0.0
1001
ACAD
1000
AcDbSavedByObjectVersion
1070
     0
  0
VISUALSTYLE
  5
A2E
102
{ACAD_REACTORS
330
A25
102
}
330
A25
100
AcDbVisualStyle
  2
Conceptual
 70
     9
 71
     3
 72
     2
 73
     0
 90
        0
 40
-0.6
 41
-30.0
 62
     5
 63
     7
 74
     2
 91
        2
 64
     7
 65
   257
 75
     1
175
     1
 42
40.0
 92
        8
 66
     7
 43
1.0
 76
     1
 77
     6
 78
     2
 67
     7
 79
     3
170
     0
171
     0
290
     0
174
     0
 93
        1
 44
0.0
173
     0
291
     0
 45
0.0
1001
ACAD
1000
AcDbSavedByObjectVersion
1070
     0
  0
VISUALSTYLE
  5
A30
102
{ACAD_REACTORS
330
A25
102
}
330
A25
100
AcDbVisualStyle
  2
Dim
 70
    11
 71
     2
 72
     2
 73
     0
 90
        0
 40
-0.6
 41
-30.0
 62
     5
 63
     7
 74
     1
 91
        4
 64
     7
 65
   257
 75
     1
175
     1
 42
1.0
 92
        8
 66
     7
 43
1.0
 76
     1
 77
     6
 78
     2
 67
     7
 79
     5
170
     0
171
     0
290
     0
174
     0
 93
        1
 44
-50.0
173
     0
291
     1
 45
0.0
1001
ACAD
1000
AcDbSavedByObjectVersion
1070
     0
  0
VISUALSTYLE
  5
A34
102
{ACAD_REACTORS
330
A25
102
}
330
A25
100
AcDbVisualStyle
  2
Facepattern
 70
    15
 71
     2
 72
     2
 73
     0
 90
        0
 40
-0.6
 41
-30.0
 62
     5
 63
     7
 74
     1
 91
        4
 64
     7
 65
   257
 75
     1
175
     1
 42
1.0
 92
        8
 66
     7
 43
1.0
 76
     1
 77
     6
 78
     2
 67
     7
 79
     5
170
     0
171
     0
290
     0
174
     0
 93
        1
 44
0.0
173
     0
291
     1
 45
0.0
1001
ACAD
1000
AcDbSavedByObjectVersion
1070
     0
  0
VISUALSTYLE
  5
A26
102
{ACAD_REACTORS
330
A25
102
}
330
A25
100
AcDbVisualStyle
  2
Flat
 70
     0
 71
     2
 72
     1
 73
     1
 90
        2
 40
-0.6
 41
30.0
 62
     5
 63
     7
 74
     0
 91
        4
 64
     7
 65
   257
 75
     1
175
     1
 42
1.0
 92
        8
 66
     7
 43
1.0
 76
     1
 77
     6
 78
     2
 67
     7
 79
     5
170
     0
171
     0
290
     0
174
     0
 93
       13
 44
0.0
173
     0
291
     1
 45
0.0
1001
ACAD
1000
AcDbSavedByObjectVersion
1070
     0
  0
VISUALSTYLE
  5
A27
102
{ACAD_REACTORS
330
A25
102
}
330
A25
100
AcDbVisualStyle
  2
FlatWithEdges
 70
     1
 71
     2
 72
     1
 73
     1
 90
        2
 40
-0.6
 41
30.0
 62
     5
 63
     7
 74
     1
 91
        4
 64
     7
 65
   257
 75
     1
175
     1
 42
1.0
 92
        0
 66
   257
 43
1.0
 76
     1
 77
     6
 78
     2
 67
     7
 79
     5
170
     0
171
     0
290
     0
174
     0
 93
       13
 44
0.0
173
     0
291
     1
 45
0.0
1001
ACAD
1000
AcDbSavedByObjectVersion
1070
     0
  0
VISUALSTYLE
  5
A28
102
{ACAD_REACTORS
330
A25
102
}
330
A25
100
AcDbVisualStyle
  2
Gouraud
 70
     2
 71
     2
 72
     2
 73
     1
 90
        2
 40
-0.6
 41
30.0
 62
     5
 63
     7
 74
     0
 91
        4
 64
     7
 65
   257
 75
     1
175
     1
 42
1.0
 92
        0
 66
     7
 43
1.0
 76
     1
 77
     6
 78
     2
 67
     7
 79
     5
170
     0
171
     0
290
     0
174
     0
 93
       13
 44
0.0
173
     0
291
     1
 45
0.0
1001
ACAD
1000
AcDbSavedByObjectVersion
1070
     0
  0
VISUALSTYLE
  5
A29
102
{ACAD_REACTORS
330
A25
102
}
330
A25
100
AcDbVisualStyle
  2
GouraudWithEdges
 70
     3
 71
     2
 72
     2
 73
     1
 90
        2
 40
-0.6
 41
30.0
 62
     5
 63
     7
 74
     1
 91
        4
 64
     7
 65
   257
 75
     1
175
     1
 42
1.0
 92
        0
 66
   257
 43
1.0
 76
     1
 77
     6
 78
     2
 67
     7
 79
     5
170
     0
171
     0
290
     0
174
     0
 93
       13
 44
0.0
173
     0
291
     1
 45
0.0
1001
ACAD
1000
AcDbSavedByObjectVersion
1070
     0
  0
VISUALSTYLE
  5
A33
102
{ACAD_REACTORS
330
A25
102
}
330
A25
100
AcDbVisualStyle
  2
Linepattern
 70
    14
 71
     2
 72
     2
 73
     0
 90
        0
 40
-0.6
 41
-30.0
 62
     5
 63
     7
 74
     1
 91
        4
 64
     7
 65
   257
 75
     7
175
     7
 42
1.0
 92
        8
 66
     7
 43
1.0
 76
     1
 77
     6
 78
     2
 67
     7
 79
     5
170
     0
171
     0
290
     0
174
     0
 93
        1
 44
0.0
173
     0
291
     1
 45
0.0
1001
ACAD
1000
AcDbSavedByObjectVersion
1070
     0
  0
VISUALSTYLE
  5
A2F
102
{ACAD_REACTORS
330
A25
102
}
330
A25
100
AcDbVisualStyle
  2
Realistic
 70
     8
 71
     2
 72
     2
 73
     0
 90
        0
 40
-0.6
 41
-30.0
 62
     5
 63
     7
 74
     1
 91
        0
 64
     7
 65
   257
 75
     1
175
     1
 42
1.0
 92
        8
 66
     8
 43
1.0
 76
     1
 77
     6
 78
     2
 67
     7
 79
     5
170
     0
171
     0
290
     0
174
     0
 93
       13
 44
0.0
173
     0
291
     0
 45
0.0
1001
ACAD
1000
AcDbSavedByObjectVersion
1070
     0
  0
VISUALSTYLE
  5
A32
102
{ACAD_REACTORS
330
A25
102
}
330
A25
100
AcDbVisualStyle
  2
Thicken
 70
    13
 71
     2
 72
     2
 73
     0
 90
        0
 40
-0.6
 41
-30.0
 62
     5
 63
     7
 74
     1
 91
        4
 64
     7
 65
   257
 75
     1
175
     1
 42
1.0
 92
       12
 66
     7
 43
1.0
 76
     1
 77
     6
 78
     2
 67
     7
 79
     5
170
     0
171
     0
290
     0
174
     0
 93
        1
 44
0.0
173
     0
291
     1
 45
0.0
1001
ACAD
1000
AcDbSavedByObjectVersion
1070
     0
  0
DICTIONARYVAR
  5
ABE
102
{ACAD_REACTORS
330
D0
102
}
330
D0
100
DictionaryVariables
280
     0
  1
STANDARD
  0
DICTIONARYVAR
  5
D1
102
{ACAD_REACTORS
330
D0
102
}
330
D0
100
DictionaryVariables
280
     0
  1
1
  0
DICTIONARYVAR
  5
AC0
102
{ACAD_REACTORS
330
D0
102
}
330
D0
100
DictionaryVariables
280
     0
  1
0
  0
DICTIONARYVAR
  5
ABF
102
{ACAD_REACTORS
330
D0
102
}
330
D0
100
DictionaryVariables
280
     0
  1
127
  0
XRECORD
  5
A14
102
{ACAD_REACTORS
330
5C2
102
}
330
5C2
100
AcDbXrecord
280
     1
  1
M:\Cd dwg\Finished for CD Project\Sweets CAD Standard.dws
  0
XRECORD
  5
52A
102
{ACAD_REACTORS
330
528
102
}
330
528
100
AcDbXrecord
280
     1
330
A7D
330
77A
330
77C
330
7C0
  0
DICTIONARY
  5
ADD
330
C9
100
AcDbDictionary
280
     1
281
     1
  3
ACAD_XREC_ROUNDTRIP
360
ADE
  0
DICTIONARY
  5
ADB
330
C8
100
AcDbDictionary
280
     1
281
     1
  3
ACAD_XREC_ROUNDTRIP
360
ADC
  0
DICTIONARY
  5
AE5
330
A23
100
AcDbDictionary
280
     1
281
     1
  3
ACAD_XREC_ROUNDTRIP
360
AE6
  0
DICTIONARY
  5
AE3
330
A22
100
AcDbDictionary
280
     1
281
     1
  3
ACAD_XREC_ROUNDTRIP
360
AE4
  0
DICTIONARY
  5
AE7
330
A24
100
AcDbDictionary
280
     1
281
     1
  3
ACAD_XREC_ROUNDTRIP
360
AE8
  0
DICTIONARY
  5
AE9
330
A38
100
AcDbDictionary
280
     1
281
     1
  3
ACAD_XREC_ROUNDTRIP
360
AEA
  0
XRECORD
  5
ADE
102
{ACAD_REACTORS
330
ADD
102
}
330
ADD
100
AcDbXrecord
280
     1
102
SHADEPLOT
 70
     0
102
SHADEPLOTRESLEVEL
 70
     2
102
SHADEPLOTCUSTOMDPI
 70
   300
  0
XRECORD
  5
ADC
102
{ACAD_REACTORS
330
ADB
102
}
330
ADB
100
AcDbXrecord
280
     1
102
SHADEPLOT
 70
     0
102
SHADEPLOTRESLEVEL
 70
     2
102
SHADEPLOTCUSTOMDPI
 70
   300
  0
XRECORD
  5
AE6
102
{ACAD_REACTORS
330
AE5
102
}
330
AE5
100
AcDbXrecord
280
     1
102
MATERIAL
148
0.0
149
0.0
149
0.0
 93
        0
 94
       63
282
     0
 72
     1
 77
     1
171
     1
175
     1
179
     1
273
     0
  0
XRECORD
  5
AE4
102
{ACAD_REACTORS
330
AE3
102
}
330
AE3
100
AcDbXrecord
280
     1
102
MATERIAL
148
0.0
149
0.0
149
0.0
 93
        0
 94
       63
282
     0
 72
     1
 77
     1
171
     1
175
     1
179
     1
273
     0
  0
XRECORD
  5
AE8
102
{ACAD_REACTORS
330
AE7
102
}
330
AE7
100
AcDbXrecord
280
     1
102
MATERIAL
148
0.0
149
0.0
149
0.0
 93
        0
 94
       63
282
     0
 72
     1
 77
     1
171
     1
175
     1
179
     1
273
     0
  0
XRECORD
  5
AEA
102
{ACAD_REACTORS
330
AE9
102
}
330
AE9
100
AcDbXrecord
280
     1
102
ACAD_ROUNDTRIP_PRE2007_TABLESTYLE
 90
      512
 91
        0
  1

 92
      512
 93
        0
  2

 94
      512
 95
        0
  3

  0
ENDSEC
  0
EOF
